  0
SECTION
  2
HEADER
  9
$ACADVER
  1
AC1032
  9
$ACADMAINTVER
 90
      157
  9
$DWGCODEPAGE
  3
ANSI_1250
  9
$LASTSAVEDBY
  1
asocha
  9
$REQUIREDVERSIONS
160
                 0
  9
$INSBASE
 10
0.0
 20
0.0
 30
0.0
  9
$EXTMIN
 10
8387268.35405318
 20
5690839.929105847
 30
0.0
  9
$EXTMAX
 10
8390860.145996402
 20
5692713.717261686
 30
0.0
  9
$LIMMIN
 10
0.0
 20
0.0
  9
$LIMMAX
 10
420.0
 20
297.0
  9
$ORTHOMODE
 70
     0
  9
$REGENMODE
 70
     1
  9
$FILLMODE
 70
     1
  9
$QTEXTMODE
 70
     0
  9
$MIRRTEXT
 70
     0
  9
$LTSCALE
 40
1.0
  9
$ATTMODE
 70
     1
  9
$TEXTSIZE
 40
2.5
  9
$TRACEWID
 40
1.0
  9
$TEXTSTYLE
  7
Standard
  9
$CLAYER
  8
0
  9
$CELTYPE
  6
ByLayer
  9
$CECOLOR
 62
   256
  9
$CELTSCALE
 40
1.0
  9
$DISPSILH
 70
     0
  9
$DIMSCALE
 40
1.0
  9
$DIMASZ
 40
2.5
  9
$DIMEXO
 40
0.625
  9
$DIMDLI
 40
3.75
  9
$DIMRND
 40
0.0
  9
$DIMDLE
 40
0.0
  9
$DIMEXE
 40
1.25
  9
$DIMTP
 40
0.0
  9
$DIMTM
 40
0.0
  9
$DIMTXT
 40
2.5
  9
$DIMCEN
 40
2.5
  9
$DIMTSZ
 40
0.0
  9
$DIMTOL
 70
     0
  9
$DIMLIM
 70
     0
  9
$DIMTIH
 70
     0
  9
$DIMTOH
 70
     0
  9
$DIMSE1
 70
     0
  9
$DIMSE2
 70
     0
  9
$DIMTAD
 70
     1
  9
$DIMZIN
 70
     8
  9
$DIMBLK
  1

  9
$DIMASO
 70
     1
  9
$DIMSHO
 70
     1
  9
$DIMPOST
  1

  9
$DIMAPOST
  1

  9
$DIMALT
 70
     0
  9
$DIMALTD
 70
     3
  9
$DIMALTF
 40
0.03937007874016
  9
$DIMLFAC
 40
1.0
  9
$DIMTOFL
 70
     1
  9
$DIMTVP
 40
0.0
  9
$DIMTIX
 70
     0
  9
$DIMSOXD
 70
     0
  9
$DIMSAH
 70
     0
  9
$DIMBLK1
  1

  9
$DIMBLK2
  1

  9
$DIMSTYLE
  2
ISO-25
  9
$DIMCLRD
 70
     0
  9
$DIMCLRE
 70
     0
  9
$DIMCLRT
 70
     0
  9
$DIMTFAC
 40
1.0
  9
$DIMGAP
 40
0.625
  9
$DIMJUST
 70
     0
  9
$DIMSD1
 70
     0
  9
$DIMSD2
 70
     0
  9
$DIMTOLJ
 70
     0
  9
$DIMTZIN
 70
     8
  9
$DIMALTZ
 70
     0
  9
$DIMALTTZ
 70
     0
  9
$DIMUPT
 70
     0
  9
$DIMDEC
 70
     2
  9
$DIMTDEC
 70
     2
  9
$DIMALTU
 70
     2
  9
$DIMALTTD
 70
     3
  9
$DIMTXSTY
  7
Standard
  9
$DIMAUNIT
 70
     0
  9
$DIMADEC
 70
     0
  9
$DIMALTRND
 40
0.0
  9
$DIMAZIN
 70
     0
  9
$DIMDSEP
 70
    44
  9
$DIMATFIT
 70
     3
  9
$DIMFRAC
 70
     0
  9
$DIMLDRBLK
  1

  9
$DIMLUNIT
 70
     2
  9
$DIMLWD
 70
    -2
  9
$DIMLWE
 70
    -2
  9
$DIMTMOVE
 70
     0
  9
$DIMFXL
 40
1.0
  9
$DIMFXLON
 70
     0
  9
$DIMJOGANG
 40
0.7853981633974483
  9
$DIMTFILL
 70
     0
  9
$DIMTFILLCLR
 70
     0
  9
$DIMARCSYM
 70
     0
  9
$DIMLTYPE
  6

  9
$DIMLTEX1
  6

  9
$DIMLTEX2
  6

  9
$DIMTXTDIRECTION
 70
     0
  9
$LUNITS
 70
     2
  9
$LUPREC
 70
     4
  9
$SKETCHINC
 40
1.0
  9
$FILLETRAD
 40
0.0
  9
$AUNITS
 70
     0
  9
$AUPREC
 70
     0
  9
$MENU
  1
.
  9
$ELEVATION
 40
0.0
  9
$PELEVATION
 40
0.0
  9
$THICKNESS
 40
0.0
  9
$LIMCHECK
 70
     0
  9
$CHAMFERA
 40
0.0
  9
$CHAMFERB
 40
0.0
  9
$CHAMFERC
 40
0.0
  9
$CHAMFERD
 40
0.0
  9
$SKPOLY
 70
     0
  9
$TDCREATE
 40
2458729.489479166
  9
$TDUCREATE
 40
2458729.406145833
  9
$TDUPDATE
 40
2458729.493518519
  9
$TDUUPDATE
 40
2458729.410185185
  9
$TDINDWG
 40
0.0040393519
  9
$TDUSRTIMER
 40
0.0040393519
  9
$USRTIMER
 70
     1
  9
$ANGBASE
 50
0.0
  9
$ANGDIR
 70
     0
  9
$PDMODE
 70
     0
  9
$PDSIZE
 40
0.0
  9
$PLINEWID
 40
0.0
  9
$SPLFRAME
 70
     0
  9
$SPLINETYPE
 70
     6
  9
$SPLINESEGS
 70
     8
  9
$HANDSEED
  5
510
  9
$SURFTAB1
 70
     6
  9
$SURFTAB2
 70
     6
  9
$SURFTYPE
 70
     6
  9
$SURFU
 70
     6
  9
$SURFV
 70
     6
  9
$UCSBASE
  2

  9
$UCSNAME
  2

  9
$UCSORG
 10
0.0
 20
0.0
 30
0.0
  9
$UCSXDIR
 10
1.0
 20
0.0
 30
0.0
  9
$UCSYDIR
 10
0.0
 20
1.0
 30
0.0
  9
$UCSORTHOREF
  2

  9
$UCSORTHOVIEW
 70
     0
  9
$UCSORGTOP
 10
0.0
 20
0.0
 30
0.0
  9
$UCSORGBOTTOM
 10
0.0
 20
0.0
 30
0.0
  9
$UCSORGLEFT
 10
0.0
 20
0.0
 30
0.0
  9
$UCSORGRIGHT
 10
0.0
 20
0.0
 30
0.0
  9
$UCSORGFRONT
 10
0.0
 20
0.0
 30
0.0
  9
$UCSORGBACK
 10
0.0
 20
0.0
 30
0.0
  9
$PUCSBASE
  2

  9
$PUCSNAME
  2

  9
$PUCSORG
 10
0.0
 20
0.0
 30
0.0
  9
$PUCSXDIR
 10
1.0
 20
0.0
 30
0.0
  9
$PUCSYDIR
 10
0.0
 20
1.0
 30
0.0
  9
$PUCSORTHOREF
  2

  9
$PUCSORTHOVIEW
 70
     0
  9
$PUCSORGTOP
 10
0.0
 20
0.0
 30
0.0
  9
$PUCSORGBOTTOM
 10
0.0
 20
0.0
 30
0.0
  9
$PUCSORGLEFT
 10
0.0
 20
0.0
 30
0.0
  9
$PUCSORGRIGHT
 10
0.0
 20
0.0
 30
0.0
  9
$PUCSORGFRONT
 10
0.0
 20
0.0
 30
0.0
  9
$PUCSORGBACK
 10
0.0
 20
0.0
 30
0.0
  9
$USERI1
 70
     0
  9
$USERI2
 70
     0
  9
$USERI3
 70
     0
  9
$USERI4
 70
     0
  9
$USERI5
 70
     0
  9
$USERR1
 40
0.0
  9
$USERR2
 40
0.0
  9
$USERR3
 40
0.0
  9
$USERR4
 40
0.0
  9
$USERR5
 40
0.0
  9
$WORLDVIEW
 70
     1
  9
$SHADEDGE
 70
     3
  9
$SHADEDIF
 70
    70
  9
$TILEMODE
 70
     1
  9
$MAXACTVP
 70
    64
  9
$PINSBASE
 10
0.0
 20
0.0
 30
0.0
  9
$PLIMCHECK
 70
     0
  9
$PEXTMIN
 10
0.0
 20
0.0
 30
0.0
  9
$PEXTMAX
 10
0.0
 20
0.0
 30
0.0
  9
$PLIMMIN
 10
0.0
 20
0.0
  9
$PLIMMAX
 10
12.0
 20
9.0
  9
$UNITMODE
 70
     0
  9
$VISRETAIN
 70
     1
  9
$PLINEGEN
 70
     0
  9
$PSLTSCALE
 70
     1
  9
$TREEDEPTH
 70
  3020
  9
$CMLSTYLE
  2
Standard
  9
$CMLJUST
 70
     0
  9
$CMLSCALE
 40
20.0
  9
$PROXYGRAPHICS
 70
     1
  9
$MEASUREMENT
 70
     1
  9
$CELWEIGHT
370
    -1
  9
$ENDCAPS
280
     0
  9
$JOINSTYLE
280
     0
  9
$LWDISPLAY
290
     0
  9
$INSUNITS
 70
     4
  9
$HYPERLINKBASE
  1

  9
$STYLESHEET
  1

  9
$XEDIT
290
     1
  9
$CEPSNTYPE
380
     0
  9
$PSTYLEMODE
290
     1
  9
$FINGERPRINTGUID
  2
{EE6BBB35-02FC-1D4A-9193-BA14838738F8}
  9
$VERSIONGUID
  2
{F7FFD292-43D7-6E40-BB31-B8654256AB4E}
  9
$EXTNAMES
290
     1
  9
$PSVPSCALE
 40
0.0
  9
$OLESTARTUP
290
     0
  9
$SORTENTS
280
   127
  9
$INDEXCTL
280
     0
  9
$HIDETEXT
280
     1
  9
$XCLIPFRAME
280
     2
  9
$HALOGAP
280
     0
  9
$OBSCOLOR
 70
   257
  9
$OBSLTYPE
280
     0
  9
$INTERSECTIONDISPLAY
280
     0
  9
$INTERSECTIONCOLOR
 70
   257
  9
$DIMASSOC
280
     2
  9
$PROJECTNAME
  1

  9
$CAMERADISPLAY
290
     0
  9
$LENSLENGTH
 40
50.0
  9
$CAMERAHEIGHT
 40
0.0
  9
$STEPSPERSEC
 40
2.0
  9
$STEPSIZE
 40
6.0
  9
$3DDWFPREC
 40
2.0
  9
$PSOLWIDTH
 40
5.0
  9
$PSOLHEIGHT
 40
80.0
  9
$LOFTANG1
 40
1.570796326794896
  9
$LOFTANG2
 40
1.570796326794896
  9
$LOFTMAG1
 40
0.0
  9
$LOFTMAG2
 40
0.0
  9
$LOFTPARAM
 70
     7
  9
$LOFTNORMALS
280
     1
  9
$LATITUDE
 40
37.795
  9
$LONGITUDE
 40
-122.394
  9
$NORTHDIRECTION
 40
0.0
  9
$TIMEZONE
 70
 -8000
  9
$LIGHTGLYPHDISPLAY
280
     1
  9
$TILEMODELIGHTSYNCH
280
     1
  9
$CMATERIAL
347
EC
  9
$SOLIDHIST
280
     0
  9
$SHOWHIST
280
     1
  9
$DWFFRAME
280
     2
  9
$DGNFRAME
280
     0
  9
$REALWORLDSCALE
290
     1
  9
$INTERFERECOLOR
 62
     1
  9
$INTERFEREOBJVS
345
F9
  9
$INTERFEREVPVS
346
F6
  9
$CSHADOW
280
     0
  9
$SHADOWPLANELOCATION
 40
0.0
  0
ENDSEC
  0
SECTION
  2
CLASSES
  0
CLASS
  1
ACDBDICTIONARYWDFLT
  2
AcDbDictionaryWithDefault
  3
ObjectDBX Classes
 90
        0
 91
        1
280
     0
281
     0
  0
CLASS
  1
DICTIONARYVAR
  2
AcDbDictionaryVar
  3
ObjectDBX Classes
 90
        0
 91
       11
280
     0
281
     0
  0
CLASS
  1
TABLESTYLE
  2
AcDbTableStyle
  3
ObjectDBX Classes
 90
     4095
 91
        1
280
     0
281
     0
  0
CLASS
  1
MATERIAL
  2
AcDbMaterial
  3
ObjectDBX Classes
 90
     1153
 91
        3
280
     0
281
     0
  0
CLASS
  1
VISUALSTYLE
  2
AcDbVisualStyle
  3
ObjectDBX Classes
 90
     4095
 91
       24
280
     0
281
     0
  0
CLASS
  1
SCALE
  2
AcDbScale
  3
ObjectDBX Classes
 90
     1153
 91
       18
280
     0
281
     0
  0
CLASS
  1
MLEADERSTYLE
  2
AcDbMLeaderStyle
  3
ACDB_MLEADERSTYLE_CLASS
 90
     4095
 91
        2
280
     0
281
     0
  0
CLASS
  1
CELLSTYLEMAP
  2
AcDbCellStyleMap
  3
ObjectDBX Classes
 90
     1152
 91
        1
280
     0
281
     0
  0
CLASS
  1
EXACXREFPANELOBJECT
  2
ExAcXREFPanelObject
  3
EXAC_ESW
 90
     1025
 91
        1
280
     0
281
     0
  0
CLASS
  1
NPOCOLLECTION
  2
AcDbImpNonPersistentObjectsCollection
  3
ObjectDBX Classes
 90
     1153
 91
        1
280
     0
281
     0
  0
CLASS
  1
LAYER_INDEX
  2
AcDbLayerIndex
  3
ObjectDBX Classes
 90
        0
 91
        0
280
     0
281
     0
  0
CLASS
  1
SPATIAL_INDEX
  2
AcDbSpatialIndex
  3
ObjectDBX Classes
 90
        0
 91
        0
280
     0
281
     0
  0
CLASS
  1
IDBUFFER
  2
AcDbIdBuffer
  3
ObjectDBX Classes
 90
        0
 91
        0
280
     0
281
     0
  0
CLASS
  1
ACDBSECTIONVIEWSTYLE
  2
AcDbSectionViewStyle
  3
ObjectDBX Classes
 90
     1025
 91
        1
280
     0
281
     0
  0
CLASS
  1
ACDBDETAILVIEWSTYLE
  2
AcDbDetailViewStyle
  3
ObjectDBX Classes
 90
     1025
 91
        1
280
     0
281
     0
  0
CLASS
  1
SORTENTSTABLE
  2
AcDbSortentsTable
  3
ObjectDBX Classes
 90
        0
 91
        3
280
     0
281
     0
  0
CLASS
  1
DIMASSOC
  2
AcDbDimAssoc
  3
"AcDbDimAssoc|Product Desc:     AcDim ARX App For Dimension|Company:          Autodesk, Inc.|WEB Address:      www.autodesk.com"
 90
        0
 91
        2
280
     0
281
     0
  0
ENDSEC
  0
SECTION
  2
TABLES
  0
TABLE
  2
VPORT
  5
8
330
0
100
AcDbSymbolTable
 70
     1
  0
VPORT
  5
EA
330
8
100
AcDbSymbolTableRecord
100
AcDbViewportTableRecord
  2
*Active
 70
     0
 10
0.0
 20
0.0
 11
1.0
 21
1.0
 12
8387286.278647197
 22
5690857.807133753
 13
0.0
 23
0.0
 14
10.0
 24
10.0
 15
10.0
 25
10.0
 16
0.0
 26
0.0
 36
1.0
 17
0.0
 27
0.0
 37
0.0
 40
167.5358982969158
 41
2.443870967741935
 42
50.0
 43
0.0
 44
0.0
 50
0.0
 51
0.0
 71
     0
 72
  1000
 73
     1
 74
     3
 75
     0
 76
     1
 77
     0
 78
     0
281
     0
 65
     1
110
0.0
120
0.0
130
0.0
111
1.0
121
0.0
131
0.0
112
0.0
122
1.0
132
0.0
 79
     0
146
0.0
348
F5
 60
     3
 61
     5
292
     1
282
     1
141
0.0
142
0.0
 63
   250
421
  3355443
1001
ACAD_NAV_VCDISPLAY
1070
     3
  0
ENDTAB
  0
TABLE
  2
LTYPE
  5
5
330
0
100
AcDbSymbolTable
 70
     4
  0
LTYPE
  5
14
330
5
100
AcDbSymbolTableRecord
100
AcDbLinetypeTableRecord
  2
ByBlock
 70
     0
  3

 72
    65
 73
     0
 40
0.0
  0
LTYPE
  5
15
330
5
100
AcDbSymbolTableRecord
100
AcDbLinetypeTableRecord
  2
ByLayer
 70
     0
  3

 72
    65
 73
     0
 40
0.0
  0
LTYPE
  5
16
330
5
100
AcDbSymbolTableRecord
100
AcDbLinetypeTableRecord
  2
Continuous
 70
     0
  3
Solid line
 72
    65
 73
     0
 40
0.0
  0
LTYPE
  5
2C7
330
5
100
AcDbSymbolTableRecord
100
AcDbLinetypeTableRecord
  2
DASHED
 70
     0
  3
Dashed __ __ __ __ __ __ __ __ __ __ __ __ __ _
 72
    65
 73
     2
 40
0.75
 49
0.5
 74
     0
 49
-0.25
 74
     0
  0
LTYPE
  5
2C8
330
5
100
AcDbSymbolTableRecord
100
AcDbLinetypeTableRecord
  2
1
 70
     0
  3
1
 72
    65
 73
     0
 40
0.0
  0
LTYPE
  5
2C9
330
5
100
AcDbSymbolTableRecord
100
AcDbLinetypeTableRecord
  2
2
 70
     0
  3
2
 72
    65
 73
     2
 40
3.0
 49
2.0
 74
     0
 49
-1.0
 74
     0
  0
ENDTAB
  0
TABLE
  2
LAYER
  5
2
102
{ACAD_XDICTIONARY
360
1FF
102
}
330
0
100
AcDbSymbolTable
 70
    10
  0
LAYER
  5
10
102
{ACAD_XDICTIONARY
360
13C
102
}
330
2
100
AcDbSymbolTableRecord
100
AcDbLayerTableRecord
  2
0
 70
     0
 62
     7
  6
Continuous
370
    -3
390
F
347
EE
348
0
  0
LAYER
  5
2CA
330
2
100
AcDbSymbolTableRecord
100
AcDbLayerTableRecord
  2
Defpoints
 70
     0
 62
    -7
  6
Continuous
290
     0
370
    -3
390
F
347
EE
348
0
  0
LAYER
  5
2CB
330
2
100
AcDbSymbolTableRecord
100
AcDbLayerTableRecord
  2
SZR_Teletechnika
 70
     0
 62
    30
  6
DASHED
370
    35
390
F
347
EE
348
0
1001
AcAecLayerStandard
1000

1000

1001
AcCmTransparency
1071
 33554687
  0
LAYER
  5
2CC
330
2
100
AcDbSymbolTableRecord
100
AcDbLayerTableRecord
  2
SZR_zasilanie
 70
     0
 62
     1
  6
DASHED
370
    35
390
F
347
EE
348
0
1001
AcAecLayerStandard
1000

1000

1001
AcCmTransparency
1071
 33554687
  0
LAYER
  5
2CD
330
2
100
AcDbSymbolTableRecord
100
AcDbLayerTableRecord
  2
bloki
 70
     0
 62
    30
  6
Continuous
370
    -3
390
F
347
EE
348
0
1001
AcAecLayerStandard
1000

1000

1001
AcCmTransparency
1071
        0
  0
LAYER
  5
2CE
330
2
100
AcDbSymbolTableRecord
100
AcDbLayerTableRecord
  2
tel_studnie
 70
     0
 62
    30
  6
Continuous
370
    -3
390
F
347
EE
348
0
1001
AcAecLayerStandard
1000

1000

1001
AcCmTransparency
1071
        0
  0
LAYER
  5
2CF
330
2
100
AcDbSymbolTableRecord
100
AcDbLayerTableRecord
  2
tel_rury_oslonowe
 70
     0
 62
     7
  6
Continuous
370
    35
390
F
347
EE
348
0
1001
AcAecLayerStandard
1000

1000

1001
AcCmTransparency
1071
        0
  0
LAYER
  5
2D0
102
{ACAD_XDICTIONARY
360
2D1
102
}
330
2
100
AcDbSymbolTableRecord
100
AcDbLayerTableRecord
  2
wymiary
 70
     0
 62
     7
  6
Continuous
370
    13
390
F
347
EE
348
0
1001
AcAecLayerStandard
1000

1000

1001
AcCmTransparency
1071
        0
  0
LAYER
  5
2D2
330
2
100
AcDbSymbolTableRecord
100
AcDbLayerTableRecord
  2
SZR_APM
 70
     0
 62
    30
  6
DASHED
370
    30
390
F
347
EE
348
0
1001
AcAecLayerStandard
1000

1000
Miejsca pod fundamenty
1001
AcCmTransparency
1071
 33554687
  0
LAYER
  5
2D3
330
2
100
AcDbSymbolTableRecord
100
AcDbLayerTableRecord
  2
SZR__APM_Bruk
 70
     0
 62
     7
  6
Continuous
370
     9
390
F
347
EE
348
0
1001
AcAecLayerStandard
1000

1000

1001
AcCmTransparency
1071
        0
  0
ENDTAB
  0
TABLE
  2
STYLE
  5
3
330
0
100
AcDbSymbolTable
 70
     2
  0
STYLE
  5
11
330
3
100
AcDbSymbolTableRecord
100
AcDbTextStyleTableRecord
  2
Standard
 70
     0
 40
0.0
 41
1.0
 50
0.0
 71
     0
 42
2.5
  3
arial.ttf
  4

1001
ACAD
1000
Arial
1071
       34
  0
STYLE
  5
132
330
3
100
AcDbSymbolTableRecord
100
AcDbTextStyleTableRecord
  2
Opisowy
 70
     0
 40
0.0
 41
1.0
 50
0.0
 71
     0
 42
2.5
  3
arial.ttf
  4

1001
AcadAnnotative
1000
AnnotativeData
1002
{
1070
     1
1070
     1
1002
}
1001
ACAD
1000
Arial
1071
       34
  0
ENDTAB
  0
TABLE
  2
VIEW
  5
6
330
0
100
AcDbSymbolTable
 70
     0
  0
ENDTAB
  0
TABLE
  2
UCS
  5
7
330
0
100
AcDbSymbolTable
 70
     0
  0
ENDTAB
  0
TABLE
  2
APPID
  5
9
330
0
100
AcDbSymbolTable
 70
    11
  0
APPID
  5
12
330
9
100
AcDbSymbolTableRecord
100
AcDbRegAppTableRecord
  2
ACAD
 70
     0
  0
APPID
  5
9E
330
9
100
AcDbSymbolTableRecord
100
AcDbRegAppTableRecord
  2
ACAD_PSEXT
 70
     0
  0
APPID
  5
133
330
9
100
AcDbSymbolTableRecord
100
AcDbRegAppTableRecord
  2
AcadAnnoPO
 70
     0
  0
APPID
  5
134
330
9
100
AcDbSymbolTableRecord
100
AcDbRegAppTableRecord
  2
AcadAnnotative
 70
     0
  0
APPID
  5
135
330
9
100
AcDbSymbolTableRecord
100
AcDbRegAppTableRecord
  2
ACAD_DSTYLE_DIMJAG
 70
     0
  0
APPID
  5
136
330
9
100
AcDbSymbolTableRecord
100
AcDbRegAppTableRecord
  2
ACAD_DSTYLE_DIMTALN
 70
     0
  0
APPID
  5
165
330
9
100
AcDbSymbolTableRecord
100
AcDbRegAppTableRecord
  2
ACAD_MLEADERVER
 70
     0
  0
APPID
  5
217
330
9
100
AcDbSymbolTableRecord
100
AcDbRegAppTableRecord
  2
ACAD_NAV_VCDISPLAY
 70
     0
  0
APPID
  5
2D4
330
9
100
AcDbSymbolTableRecord
100
AcDbRegAppTableRecord
  2
ADE
 70
     0
  0
APPID
  5
2D5
330
9
100
AcDbSymbolTableRecord
100
AcDbRegAppTableRecord
  2
AcAecLayerStandard
 70
     0
  0
APPID
  5
2D6
330
9
100
AcDbSymbolTableRecord
100
AcDbRegAppTableRecord
  2
AcCmTransparency
 70
     0
  0
ENDTAB
  0
TABLE
  2
DIMSTYLE
  5
A
330
0
100
AcDbSymbolTable
 70
     3
100
AcDbDimStyleTable
 71
     2
340
27
340
137
  0
DIMSTYLE
105
1B0
330
A
100
AcDbSymbolTableRecord
100
AcDbDimStyleTableRecord
  2
Standard
 70
     0
340
11
  0
DIMSTYLE
105
137
330
A
100
AcDbSymbolTableRecord
100
AcDbDimStyleTableRecord
  2
Opisowy
 70
     0
 40
0.0
 41
2.5
 42
0.625
 43
3.75
 44
1.25
 73
     0
 74
     0
 77
     1
 78
     8
140
2.5
141
2.5
143
0.03937007874016
147
0.625
171
     3
172
     1
271
     2
272
     2
274
     3
278
    44
283
     0
284
     8
340
11
1001
AcadAnnotative
1000
AnnotativeData
1002
{
1070
     1
1070
     1
1002
}
1001
ACAD_DSTYLE_DIMJAG
1070
   388
1040
1.5
1001
ACAD_DSTYLE_DIMTALN
1070
   392
1070
     0
  0
DIMSTYLE
105
27
330
A
100
AcDbSymbolTableRecord
100
AcDbDimStyleTableRecord
  2
ISO-25
 70
     0
 41
2.5
 42
0.625
 43
3.75
 44
1.25
 73
     0
 74
     0
 77
     1
 78
     8
140
2.5
141
2.5
143
0.03937007874016
147
0.625
171
     3
172
     1
271
     2
272
     2
274
     3
278
    44
283
     0
284
     8
340
11
  0
ENDTAB
  0
TABLE
  2
BLOCK_RECORD
  5
1
330
0
100
AcDbSymbolTable
 70
    12
  0
BLOCK_RECORD
  5
1F
102
{ACAD_XDICTIONARY
360
1CE
102
}
330
1
100
AcDbSymbolTableRecord
100
AcDbBlockTableRecord
  2
*Model_Space
340
22
 70
     0
280
     1
281
     0
  0
BLOCK_RECORD
  5
D2
330
1
100
AcDbSymbolTableRecord
100
AcDbBlockTableRecord
  2
*Paper_Space
340
D3
 70
     0
280
     1
281
     0
  0
BLOCK_RECORD
  5
D6
330
1
100
AcDbSymbolTableRecord
100
AcDbBlockTableRecord
  2
*Paper_Space0
340
D7
 70
     0
280
     1
281
     0
  0
BLOCK_RECORD
  5
28F
102
{ACAD_XDICTIONARY
360
290
102
}
330
1
100
AcDbSymbolTableRecord
100
AcDbBlockTableRecord
  2
b_skr2
340
0
102
{BLKREFS
331
2E2
331
2E5
331
417
331
41A
102
}
 70
     6
280
     1
281
     0
  0
BLOCK_RECORD
  5
297
330
1
100
AcDbSymbolTableRecord
100
AcDbBlockTableRecord
  2
*D2
340
0
 70
     0
280
     1
281
     0
  0
BLOCK_RECORD
  5
2A3
330
1
100
AcDbSymbolTableRecord
100
AcDbBlockTableRecord
  2
*D3
340
0
 70
     0
280
     1
281
     0
  0
BLOCK_RECORD
  5
2AF
330
1
100
AcDbSymbolTableRecord
100
AcDbBlockTableRecord
  2
*D4
340
0
 70
     0
280
     1
281
     0
  0
BLOCK_RECORD
  5
2BB
330
1
100
AcDbSymbolTableRecord
100
AcDbBlockTableRecord
  2
*D5
340
0
 70
     0
280
     1
281
     0
  0
BLOCK_RECORD
  5
2D8
102
{ACAD_XDICTIONARY
360
3D4
102
}
330
1
100
AcDbSymbolTableRecord
100
AcDbBlockTableRecord
  2
A$C7332b4aa
340
0
 70
     6
280
     1
281
     0
  0
BLOCK_RECORD
  5
3DD
330
1
100
AcDbSymbolTableRecord
100
AcDbBlockTableRecord
  2
*D7
340
0
 70
     0
280
     1
281
     0
  0
BLOCK_RECORD
  5
3E9
330
1
100
AcDbSymbolTableRecord
100
AcDbBlockTableRecord
  2
*D8
340
0
 70
     0
280
     1
281
     0
  0
BLOCK_RECORD
  5
3F5
330
1
100
AcDbSymbolTableRecord
100
AcDbBlockTableRecord
  2
*D9
340
0
 70
     0
280
     1
281
     0
  0
BLOCK_RECORD
  5
401
330
1
100
AcDbSymbolTableRecord
100
AcDbBlockTableRecord
  2
*D10
340
0
 70
     0
280
     1
281
     0
  0
BLOCK_RECORD
  5
40D
102
{ACAD_XDICTIONARY
360
509
102
}
330
1
100
AcDbSymbolTableRecord
100
AcDbBlockTableRecord
  2
A$C71167f4d
340
0
102
{BLKREFS
331
50D
102
}
 70
     6
280
     1
281
     0
  0
ENDTAB
  0
ENDSEC
  0
SECTION
  2
BLOCKS
  0
BLOCK
  5
20
330
1F
100
AcDbEntity
  8
0
100
AcDbBlockBegin
  2
*Model_Space
 70
     0
 10
0.0
 20
0.0
 30
0.0
  3
*Model_Space
  1

  0
ENDBLK
  5
21
330
1F
100
AcDbEntity
  8
0
100
AcDbBlockEnd
  0
BLOCK
  5
D4
330
D2
100
AcDbEntity
 67
     1
  8
0
100
AcDbBlockBegin
  2
*Paper_Space
 70
     0
 10
0.0
 20
0.0
 30
0.0
  3
*Paper_Space
  1

  0
ENDBLK
  5
D5
330
D2
100
AcDbEntity
 67
     1
  8
0
100
AcDbBlockEnd
  0
BLOCK
  5
D8
330
D6
100
AcDbEntity
 67
     1
  8
0
100
AcDbBlockBegin
  2
*Paper_Space0
 70
     0
 10
0.0
 20
0.0
 30
0.0
  3
*Paper_Space0
  1

  0
ENDBLK
  5
D9
330
D6
100
AcDbEntity
 67
     1
  8
0
100
AcDbBlockEnd
  0
BLOCK
  5
292
330
28F
100
AcDbEntity
  8
0
 62
   251
100
AcDbBlockBegin
  2
b_skr2
 70
     0
 10
0.0
 20
0.0
 30
0.0
  3
b_skr2
  1

  0
LWPOLYLINE
  5
293
330
28F
100
AcDbEntity
  8
bloki
100
AcDbPolyline
 90
        8
 70
     1
 43
0.0
 10
1.299999999813735
 20
0.5
 10
1.299999999813735
 20
-0.5
 10
1.049999999813735
 20
-0.75
 10
-1.049999999813735
 20
-0.75
 10
-1.299999999813735
 20
-0.5
 10
-1.299999999813735
 20
0.5
 10
-1.049999999813735
 20
0.75
 10
1.049999999813735
 20
0.75
  0
LWPOLYLINE
  5
294
330
28F
100
AcDbEntity
  8
bloki
100
AcDbPolyline
 90
        8
 70
     1
 43
0.0
 10
-0.4000000003725291
 20
-0.2999999988824129
 10
0.4000000003725291
 20
-0.2999999988824129
 42
0.4142135623730951
 10
0.5
 20
-0.1999999992549419
 10
0.5
 20
0.2000000011175871
 42
0.4142135623730951
 10
0.4000000003725291
 20
0.3000000007450581
 10
-0.4000000003725291
 20
0.3000000007450581
 42
0.4142135623730951
 10
-0.5
 20
0.2000000011175871
 10
-0.5
 20
-0.1999999992549419
 42
0.4142135623730951
  0
CIRCLE
  5
295
330
28F
100
AcDbEntity
  8
bloki
100
AcDbCircle
 10
0.0
 20
0.0
 30
0.0
 40
0.13
  0
ENDBLK
  5
296
330
28F
100
AcDbEntity
  8
0
 62
   251
100
AcDbBlockEnd
  0
BLOCK
  5
298
330
297
100
AcDbEntity
  8
0
 62
     5
370
    -3
100
AcDbBlockBegin
  2
*D2
 70
     1
 10
0.0
 20
0.0
 30
0.0
  3
*D2
  1

  0
LINE
  5
299
330
297
100
AcDbEntity
  8
wymiary
 62
     0
440
 16777216
370
    -2
100
AcDbLine
 10
8387317.292896359
 20
5690891.712445004
 30
0.0
 11
8387317.417779396
 21
5690891.874082752
 31
0.0
  0
LINE
  5
29A
330
297
100
AcDbEntity
  8
wymiary
 62
     0
440
 16777216
370
    -2
100
AcDbLine
 10
8387319.195176344
 20
5690890.242723346
 30
0.0
 11
8387319.320059379
 21
5690890.404361093
 31
0.0
  0
LINE
  5
29B
330
297
100
AcDbEntity
  8
wymiary
 62
     0
440
 16777216
370
    -2
100
AcDbLine
 10
8387317.539188105
 20
5690891.622319121
 30
0.0
 11
8387319.04580325
 21
5690890.458292305
 31
0.0
  0
SOLID
  5
29C
330
297
100
AcDbEntity
  8
wymiary
 62
     0
440
 16777216
100
AcDbTrace
 10
8387317.564662673
 20
5690891.655291192
 30
0.0
 11
8387317.513713535
 21
5690891.589347052
 31
0.0
 12
8387317.341355686
 22
5690891.775166543
 32
0.0
 13
8387317.341355686
 23
5690891.775166543
 33
0.0
  0
SOLID
  5
29D
330
297
100
AcDbEntity
  8
wymiary
 62
     0
440
 16777216
100
AcDbTrace
 10
8387319.07127782
 20
5690890.491264375
 30
0.0
 11
8387319.02032868
 21
5690890.425320236
 31
0.0
 12
8387319.243635667
 22
5690890.305444884
 32
0.0
 13
8387319.243635667
 23
5690890.305444884
 33
0.0
  0
MTEXT
  5
29E
330
297
100
AcDbEntity
  8
wymiary
 62
     0
440
 16777216
100
AcDbMText
 10
8387318.138374554
 20
5690891.426412287
 30
0.0
 40
0.25
 41
0.0
 46
0.0
 71
     5
 72
     1
  1
2,4
 11
0.7913296734968616
 21
-0.6113896857515266
 31
0.0
 73
     1
 44
1.0
  0
POINT
  5
29F
330
297
100
AcDbEntity
  8
Defpoints
 62
     0
440
 16777216
100
AcDbPoint
 10
8387317.254684504
 20
5690891.662986898
 30
0.0
  0
POINT
  5
2A0
330
297
100
AcDbEntity
  8
Defpoints
 62
     0
440
 16777216
100
AcDbPoint
 10
8387319.156964489
 20
5690890.193265241
 30
0.0
  0
POINT
  5
2A1
330
297
100
AcDbEntity
  8
Defpoints
 62
     0
440
 16777216
100
AcDbPoint
 10
8387319.243635667
 20
5690890.305444884
 30
0.0
  0
ENDBLK
  5
2A2
330
297
100
AcDbEntity
  8
0
 62
     5
370
    -3
100
AcDbBlockEnd
  0
BLOCK
  5
2A4
330
2A3
100
AcDbEntity
  8
0
 62
     5
370
    -3
100
AcDbBlockBegin
  2
*D3
 70
     1
 10
0.0
 20
0.0
 30
0.0
  3
*D3
  1

  0
LINE
  5
2A5
330
2A3
100
AcDbEntity
  8
wymiary
 62
     0
440
 16777216
370
    -2
100
AcDbLine
 10
8387318.462975017
 20
5690889.212950369
 30
0.0
 11
8387318.895641474
 21
5690888.87620856
 31
0.0
  0
LINE
  5
2A6
330
2A3
100
AcDbEntity
  8
wymiary
 62
     0
440
 16777216
370
    -2
100
AcDbLine
 10
8387319.199907707
 20
5690890.159806522
 30
0.0
 11
8387319.632574163
 21
5690889.823064711
 31
0.0
  0
LINE
  5
2A7
330
2A3
100
AcDbEntity
  8
wymiary
 62
     0
440
 16777216
370
    -2
100
AcDbLine
 10
8387318.950545772
 20
5690889.150271541
 30
0.0
 11
8387319.380381198
 21
5690889.702550363
 31
0.0
  0
SOLID
  5
2A8
330
2A3
100
AcDbEntity
  8
wymiary
 62
     0
440
 16777216
100
AcDbTrace
 10
8387318.917664329
 20
5690889.17586298
 30
0.0
 11
8387318.983427217
 21
5690889.124680103
 31
0.0
 12
8387318.79699714
 22
5690888.952982875
 32
0.0
 13
8387318.79699714
 23
5690888.952982875
 33
0.0
  0
SOLID
  5
2A9
330
2A3
100
AcDbEntity
  8
wymiary
 62
     0
440
 16777216
100
AcDbTrace
 10
8387319.347499754
 20
5690889.728141801
 30
0.0
 11
8387319.413262643
 21
5690889.676958923
 31
0.0
 12
8387319.533929831
 22
5690889.899839028
 32
0.0
 13
8387319.533929831
 23
5690889.899839028
 33
0.0
  0
MTEXT
  5
2AA
330
2A3
100
AcDbEntity
  8
wymiary
 62
     0
440
 16777216
100
AcDbMText
 10
8387318.934524557
 20
5690889.473729821
 30
0.0
 40
0.25
 41
0.0
 46
0.0
 71
     5
 72
     1
  1
1,2
 11
0.6141945277824012
 21
0.7891546629413991
 31
0.0
 73
     1
 44
1.0
  0
POINT
  5
2AB
330
2A3
100
AcDbEntity
  8
Defpoints
 62
     0
440
 16777216
100
AcDbPoint
 10
8387318.413652851
 20
5690889.251337527
 30
0.0
  0
POINT
  5
2AC
330
2A3
100
AcDbEntity
  8
Defpoints
 62
     0
440
 16777216
100
AcDbPoint
 10
8387319.150585542
 20
5690890.198193679
 30
0.0
  0
POINT
  5
2AD
330
2A3
100
AcDbEntity
  8
Defpoints
 62
     0
440
 16777216
100
AcDbPoint
 10
8387319.533929831
 20
5690889.899839028
 30
0.0
  0
ENDBLK
  5
2AE
330
2A3
100
AcDbEntity
  8
0
 62
     5
370
    -3
100
AcDbBlockEnd
  0
BLOCK
  5
2B0
330
2AF
100
AcDbEntity
  8
0
 62
     5
370
    -3
100
AcDbBlockBegin
  2
*D4
 70
     1
 10
0.0
 20
0.0
 30
0.0
  3
*D4
  1

  0
LINE
  5
2B1
330
2AF
100
AcDbEntity
  8
wymiary
 62
     0
440
 16777216
370
    -2
100
AcDbLine
 10
8387316.340300042
 20
5690889.092261973
 30
0.0
 11
8387316.754317524
 21
5690888.768837301
 31
0.0
  0
LINE
  5
2B2
330
2AF
100
AcDbEntity
  8
wymiary
 62
     0
440
 16777216
370
    -2
100
AcDbLine
 10
8387317.159937841
 20
5690890.141484271
 30
0.0
 11
8387317.573955323
 21
5690889.818059599
 31
0.0
  0
LINE
  5
2B3
330
2AF
100
AcDbEntity
  8
wymiary
 62
     0
440
 16777216
370
    -2
100
AcDbLine
 10
8387316.809714603
 20
5690889.042801101
 30
0.0
 11
8387317.321546035
 21
5690889.697998984
 31
0.0
  0
SOLID
  5
2B4
330
2AF
100
AcDbEntity
  8
wymiary
 62
     0
440
 16777216
370
    -3
100
AcDbTrace
 10
8387316.776879234
 20
5690889.068451631
 30
0.0
 11
8387316.842549971
 21
5690889.01715057
 31
0.0
 12
8387316.655811419
 22
5690888.845788893
 32
0.0
 13
8387316.655811419
 23
5690888.845788893
 33
0.0
  0
SOLID
  5
2B5
330
2AF
100
AcDbEntity
  8
wymiary
 62
     0
440
 16777216
370
    -3
100
AcDbTrace
 10
8387317.288710667
 20
5690889.723649514
 30
0.0
 11
8387317.354381403
 21
5690889.672348453
 31
0.0
 12
8387317.475449219
 22
5690889.89501119
 32
0.0
 13
8387317.475449219
 23
5690889.89501119
 33
0.0
  0
MTEXT
  5
2B6
330
2AF
100
AcDbEntity
  8
wymiary
 62
     0
440
 16777216
100
AcDbMText
 10
8387316.920528698
 20
5690889.527905492
 30
0.0
 40
0.25
 41
0.0
 46
0.0
 71
     5
 72
     1
  1
1,3
 11
0.6156127358602907
 21
0.7880488306232096
 31
0.0
 73
     1
 44
1.0
  0
POINT
  5
2B7
330
2AF
100
AcDbEntity
  8
Defpoints
 62
     0
440
 16777216
370
    -3
100
AcDbPoint
 10
8387316.291046991
 20
5690889.130737769
 30
0.0
  0
POINT
  5
2B8
330
2AF
100
AcDbEntity
  8
Defpoints
 62
     0
440
 16777216
370
    -3
100
AcDbPoint
 10
8387317.110684788
 20
5690890.179960067
 30
0.0
  0
POINT
  5
2B9
330
2AF
100
AcDbEntity
  8
Defpoints
 62
     0
440
 16777216
370
    -3
100
AcDbPoint
 10
8387317.475449219
 20
5690889.89501119
 30
0.0
  0
ENDBLK
  5
2BA
330
2AF
100
AcDbEntity
  8
0
 62
     5
370
    -3
100
AcDbBlockEnd
  0
BLOCK
  5
2BC
330
2BB
100
AcDbEntity
  8
0
 62
     5
100
AcDbBlockBegin
  2
*D5
 70
     1
 10
0.0
 20
0.0
 30
0.0
  3
*D5
  1

  0
LINE
  5
2BD
330
2BB
100
AcDbEntity
  8
wymiary
 62
     0
440
 16777216
370
    -2
100
AcDbLine
 10
8387315.622982233
 20
5690889.575235947
 30
0.0
 11
8387315.242443927
 21
5690889.090006475
 31
0.0
  0
LINE
  5
2BE
330
2BB
100
AcDbEntity
  8
wymiary
 62
     0
440
 16777216
370
    -2
100
AcDbLine
 10
8387316.25247842
 20
5690889.081557332
 30
0.0
 11
8387315.871940113
 21
5690888.596327861
 31
0.0
  0
LINE
  5
2BF
330
2BB
100
AcDbEntity
  8
wymiary
 62
     0
440
 16777216
370
    -2
100
AcDbLine
 10
8387315.516302187
 20
5690889.034089989
 30
0.0
 11
8387315.752358347
 21
5690888.848964361
 31
0.0
  0
SOLID
  5
2C0
330
2BB
100
AcDbEntity
  8
wymiary
 62
     0
440
 16777216
100
AcDbTrace
 10
8387315.542014937
 20
5690889.066876657
 30
0.0
 11
8387315.49058944
 21
5690889.001303321
 31
0.0
 12
8387315.319582173
 22
5690889.188366481
 32
0.0
 13
8387315.319582173
 23
5690889.188366481
 33
0.0
  0
SOLID
  5
2C1
330
2BB
100
AcDbEntity
  8
wymiary
 62
     0
440
 16777216
100
AcDbTrace
 10
8387315.778071094
 20
5690888.881751029
 30
0.0
 11
8387315.726645597
 21
5690888.816177692
 31
0.0
 12
8387315.949078361
 22
5690888.694687868
 32
0.0
 13
8387315.949078361
 23
5690888.694687868
 33
0.0
  0
MTEXT
  5
2C2
330
2BB
100
AcDbEntity
  8
wymiary
 62
     0
440
 16777216
100
AcDbMText
 10
8387315.772872822
 20
5690889.101416964
 30
0.0
 40
0.25
 41
0.0
 46
0.0
 71
     5
 72
     1
  1
0,8
 11
0.7868800551309266
 21
-0.617105970508429
 31
0.0
 73
     1
 44
1.0
  0
POINT
  5
2C3
330
2BB
100
AcDbEntity
  8
Defpoints
 62
     0
440
 16777216
100
AcDbPoint
 10
8387315.661551356
 20
5690889.624415949
 30
0.0
  0
POINT
  5
2C4
330
2BB
100
AcDbEntity
  8
Defpoints
 62
     0
440
 16777216
100
AcDbPoint
 10
8387316.291047545
 20
5690889.130737336
 30
0.0
  0
POINT
  5
2C5
330
2BB
100
AcDbEntity
  8
Defpoints
 62
     0
440
 16777216
100
AcDbPoint
 10
8387315.949078361
 20
5690888.694687868
 30
0.0
  0
ENDBLK
  5
2C6
330
2BB
100
AcDbEntity
  8
0
 62
     5
100
AcDbBlockEnd
  0
BLOCK
  5
3D6
330
2D8
100
AcDbEntity
  8
0
100
AcDbBlockBegin
  2
A$C7332b4aa
 70
     0
 10
0.0
 20
0.0
 30
0.0
  3
A$C7332b4aa
  1

  0
LWPOLYLINE
  5
2D9
330
2D8
100
AcDbEntity
  8
SZR_APM
  6
1
100
AcDbPolyline
 90
        4
 70
     1
 43
0.0
 10
8387318.354111293
 20
5690889.402220955
 10
8387318.196589662
 20
5690889.525456242
 10
8387318.134972018
 20
5690889.44669543
 10
8387318.292493647
 20
5690889.323460139
  0
LWPOLYLINE
  5
2DA
330
2D8
100
AcDbEntity
  8
SZR_APM
  6
1
 62
   219
420
  6562149
100
AcDbPolyline
 90
        4
 70
     1
 43
0.0
 10
8387318.695368982
 20
5690889.618024358
 10
8387318.416094247
 20
5690889.265170811
 10
8387318.063240705
 20
5690889.544445544
 10
8387318.342515438
 20
5690889.897299093
  0
CIRCLE
  5
2DB
330
2D8
100
AcDbEntity
  8
SZR_APM
  6
1
 62
   219
420
  6562149
100
AcDbCircle
 10
8387318.378408052
 20
5690889.58006695
 30
0.0
 40
0.15
  0
LINE
  5
2DC
330
2D8
100
AcDbEntity
  8
SZR_APM
  6
1
 62
     1
100
AcDbLine
 10
8387318.838873074
 20
5690889.693396586
 30
0.0
 11
8387318.423992704
 21
5690889.181326241
 31
0.0
  0
LINE
  5
2DD
330
2D8
100
AcDbEntity
  8
SZR_APM
  6
1
 62
     1
100
AcDbLine
 10
8387318.423428848
 20
5690889.180630297
 30
0.0
 11
8387317.164617975
 21
5690890.136240442
 31
0.0
  0
LWPOLYLINE
  5
2DE
330
2D8
100
AcDbEntity
  8
SZR_APM
 62
     1
100
AcDbPolyline
 90
        4
 70
     1
 43
0.0
 10
8387318.20127588
 20
5690889.840824985
 10
8387317.963947268
 20
5690890.024332833
 10
8387317.78043942
 20
5690889.787004221
 10
8387318.017768032
 20
5690889.603496374
  0
LINE
  5
2DF
330
2D8
100
AcDbEntity
  8
SZR_APM
  6
ByBlock
 62
     7
370
    -3
100
AcDbLine
 10
8387316.439136599
 20
5690888.956181103
 30
0.0
 11
8387317.50813579
 21
5690888.124253883
 31
0.0
  0
LINE
  5
2E0
330
2D8
100
AcDbEntity
  8
SZR_APM
  6
ByBlock
 62
     7
370
    -3
100
AcDbLine
 10
8387316.780060807
 20
5690890.332332594
 30
0.0
 11
8387318.689812783
 21
5690888.922901248
 31
0.0
  0
LWPOLYLINE
  5
2E1
330
2D8
100
AcDbEntity
  8
SZR_Teletechnika
  6
2
 48
5.0
100
AcDbPolyline
 90
        5
 70
     0
 43
0.0
 10
8387317.743791486
 20
5690890.280601711
 10
8387317.743791486
 20
5690890.280601711
 10
8387325.353157208
 20
5690900.306512901
 10
8387321.302696863
 20
5690903.377870435
 10
8387269.661768307
 20
5690841.184898281
  0
INSERT
  5
2E2
330
2D8
100
AcDbEntity
  8
tel_studnie
 62
   251
100
AcDbBlockReference
  2
b_skr2
 10
8387269.661768307
 20
5690841.184898281
 30
0.0
 50
318.8275884632953
  0
LWPOLYLINE
  5
2E3
330
2D8
100
AcDbEntity
  8
tel_rury_oslonowe
100
AcDbPolyline
 90
        2
 70
     0
 43
0.0
 10
8387278.329990731
 20
5690852.450428545
 10
8387318.324434072
 20
5690900.520169011
  0
LWPOLYLINE
  5
2E4
330
2D8
100
AcDbEntity
  8
tel_rury_oslonowe
100
AcDbPolyline
 90
        2
 70
     0
 43
0.0
 10
8387319.087830205
 20
5690900.047944916
 10
8387279.152888963
 20
5690851.662410211
  0
INSERT
  5
2E5
330
2D8
100
AcDbEntity
  8
tel_studnie
 62
   251
100
AcDbBlockReference
  2
b_skr2
 10
8387321.302696863
 20
5690903.377870435
 30
0.0
 50
322.3945105951695
  0
LWPOLYLINE
  5
2E6
330
2D8
100
AcDbEntity
  8
SZR_zasilanie
  6
2
 62
     1
 48
5.0
100
AcDbPolyline
 90
        3
 70
     0
 43
0.0
 10
8387318.082611574
 20
5690889.932578908
 10
8387318.082611574
 20
5690889.932578908
 10
8387333.167989137
 20
5690908.611959365
  0
LWPOLYLINE
  5
2E7
330
2D8
100
AcDbEntity
  8
tel_rury_oslonowe
100
AcDbPolyline
 90
        2
 70
     0
 43
0.0
 10
8387318.586086896
 20
5690890.164940421
 10
8387325.070701797
 20
5690898.378615986
  0
LWPOLYLINE
  5
2E8
330
2D8
100
AcDbEntity
  8
tel_rury_oslonowe
100
AcDbPolyline
 90
        2
 70
     0
 43
0.0
 10
8387324.788999714
 20
5690898.641222092
 10
8387318.27477658
 20
5690890.494905126
  0
LINE
  5
2E9
330
2D8
100
AcDbEntity
  8
0
100
AcDbLine
 10
8387333.307794849
 20
5690908.768227825
 30
0.0
 11
8387333.384229648
 21
5690908.394663797
 31
0.0
  0
LINE
  5
2EA
330
2D8
100
AcDbEntity
  8
0
100
AcDbLine
 10
8387333.307794849
 20
5690908.768227825
 30
0.0
 11
8387332.952099454
 21
5690908.829254937
 31
0.0
  0
LINE
  5
2EB
330
2D8
100
AcDbEntity
  8
0
100
AcDbLine
 10
8387333.011042379
 20
5690908.472917364
 30
0.0
 11
8387333.384229647
 21
5690908.394663794
 31
0.0
  0
LINE
  5
2EC
330
2D8
100
AcDbEntity
  8
0
100
AcDbLine
 10
8387333.011042379
 20
5690908.472917364
 30
0.0
 11
8387332.951748623
 21
5690908.828905813
 31
0.0
  0
LWPOLYLINE
  5
2ED
330
2D8
100
AcDbEntity
  8
SZR__APM_Bruk
  6
ByBlock
 62
     5
370
    -3
100
AcDbPolyline
 90
        4
 70
     1
 43
0.0
 10
8387317.254684504
 20
5690891.662986898
 10
8387319.156964487
 20
5690890.193265239
 10
8387318.413652852
 20
5690889.251337527
 10
8387316.511372867
 20
5690890.721059187
  0
LINE
  5
2EE
330
2D8
100
AcDbEntity
  8
SZR__APM_Bruk
  6
ByBlock
 62
     5
370
    -3
100
AcDbLine
 10
8387317.450969321
 20
5690891.269564579
 30
0.0
 11
8387317.389493912
 21
5690891.190692696
 31
0.0
  0
LINE
  5
2EF
330
2D8
100
AcDbEntity
  8
SZR__APM_Bruk
  6
ByBlock
 62
     5
370
    -3
100
AcDbLine
 10
8387317.070944998
 20
5690891.438980487
 30
0.0
 11
8387318.966931553
 21
5690889.961184468
 31
0.0
  0
LINE
  5
2F0
330
2D8
100
AcDbEntity
  8
SZR__APM_Bruk
  6
ByBlock
 62
     5
370
    -3
100
AcDbLine
 10
8387318.809187789
 20
5690890.084135292
 30
0.0
 11
8387318.8706632
 21
5690890.163007174
 31
0.0
  0
LINE
  5
2F1
330
2D8
100
AcDbEntity
  8
SZR__APM_Bruk
  6
ByBlock
 62
     5
370
    -3
100
AcDbLine
 10
8387318.651444026
 20
5690890.207086113
 30
0.0
 11
8387318.712919435
 21
5690890.285957996
 31
0.0
  0
LINE
  5
2F2
330
2D8
100
AcDbEntity
  8
SZR__APM_Bruk
  6
ByBlock
 62
     5
370
    -3
100
AcDbLine
 10
8387318.493700261
 20
5690890.330036936
 30
0.0
 11
8387318.555175671
 21
5690890.40890882
 31
0.0
  0
LINE
  5
2F3
330
2D8
100
AcDbEntity
  8
SZR__APM_Bruk
  6
ByBlock
 62
     5
370
    -3
100
AcDbLine
 10
8387318.335956496
 20
5690890.452987759
 30
0.0
 11
8387318.397431908
 21
5690890.531859642
 31
0.0
  0
LINE
  5
2F4
330
2D8
100
AcDbEntity
  8
SZR__APM_Bruk
  6
ByBlock
 62
     5
370
    -3
100
AcDbLine
 10
8387318.178212732
 20
5690890.575938582
 30
0.0
 11
8387318.239688143
 21
5690890.654810464
 31
0.0
  0
LINE
  5
2F5
330
2D8
100
AcDbEntity
  8
SZR__APM_Bruk
  6
ByBlock
 62
     5
370
    -3
100
AcDbLine
 10
8387318.020468969
 20
5690890.698889403
 30
0.0
 11
8387318.08194438
 21
5690890.777761286
 31
0.0
  0
LINE
  5
2F6
330
2D8
100
AcDbEntity
  8
SZR__APM_Bruk
  6
ByBlock
 62
     5
370
    -3
100
AcDbLine
 10
8387317.862725206
 20
5690890.821840225
 30
0.0
 11
8387317.924200617
 21
5690890.900712108
 31
0.0
  0
LINE
  5
2F7
330
2D8
100
AcDbEntity
  8
SZR__APM_Bruk
  6
ByBlock
 62
     5
370
    -3
100
AcDbLine
 10
8387317.704981441
 20
5690890.944791049
 30
0.0
 11
8387317.766456851
 21
5690891.02366293
 31
0.0
  0
LINE
  5
2F8
330
2D8
100
AcDbEntity
  8
SZR__APM_Bruk
  6
ByBlock
 62
     5
370
    -3
100
AcDbLine
 10
8387317.547237676
 20
5690891.067741872
 30
0.0
 11
8387317.608713086
 21
5690891.146613754
 31
0.0
  0
LINE
  5
2F9
330
2D8
100
AcDbEntity
  8
SZR__APM_Bruk
  6
ByBlock
 62
     5
370
    -3
100
AcDbLine
 10
8387318.8706632
 20
5690890.163007174
 30
0.0
 11
8387319.028406965
 21
5690890.04005635
 31
0.0
  0
LINE
  5
2FA
330
2D8
100
AcDbEntity
  8
SZR__APM_Bruk
  6
ByBlock
 62
     5
370
    -3
100
AcDbLine
 10
8387317.00946959
 20
5690891.360108606
 30
0.0
 11
8387318.905456142
 21
5690889.882312587
 31
0.0
  0
LINE
  5
2FB
330
2D8
100
AcDbEntity
  8
SZR__APM_Bruk
  6
ByBlock
 62
     5
370
    -3
100
AcDbLine
 10
8387318.828980497
 20
5690889.94192029
 30
0.0
 11
8387318.890455906
 21
5690890.020792172
 31
0.0
  0
LINE
  5
2FC
330
2D8
100
AcDbEntity
  8
SZR__APM_Bruk
  6
ByBlock
 62
     5
370
    -3
100
AcDbLine
 10
8387318.671236732
 20
5690890.064871113
 30
0.0
 11
8387318.732712143
 21
5690890.143742994
 31
0.0
  0
LINE
  5
2FD
330
2D8
100
AcDbEntity
  8
SZR__APM_Bruk
  6
ByBlock
 62
     5
370
    -3
100
AcDbLine
 10
8387318.513492967
 20
5690890.187821936
 30
0.0
 11
8387318.574968379
 21
5690890.266693817
 31
0.0
  0
LINE
  5
2FE
330
2D8
100
AcDbEntity
  8
SZR__APM_Bruk
  6
ByBlock
 62
     5
370
    -3
100
AcDbLine
 10
8387318.355749204
 20
5690890.310772759
 30
0.0
 11
8387318.417224616
 21
5690890.38964464
 31
0.0
  0
LINE
  5
2FF
330
2D8
100
AcDbEntity
  8
SZR__APM_Bruk
  6
ByBlock
 62
     5
370
    -3
100
AcDbLine
 10
8387317.724774149
 20
5690890.802576048
 30
0.0
 11
8387317.786249559
 21
5690890.88144793
 31
0.0
  0
LINE
  5
300
330
2D8
100
AcDbEntity
  8
SZR__APM_Bruk
  6
ByBlock
 62
     5
370
    -3
100
AcDbLine
 10
8387317.567030384
 20
5690890.925526871
 30
0.0
 11
8387317.628505794
 21
5690891.004398753
 31
0.0
  0
LINE
  5
301
330
2D8
100
AcDbEntity
  8
SZR__APM_Bruk
  6
ByBlock
 62
     5
370
    -3
100
AcDbLine
 10
8387317.40928662
 20
5690891.048477693
 30
0.0
 11
8387317.470762029
 21
5690891.127349575
 31
0.0
  0
LINE
  5
302
330
2D8
100
AcDbEntity
  8
SZR__APM_Bruk
  6
ByBlock
 62
     5
370
    -3
100
AcDbLine
 10
8387316.947994177
 20
5690891.281236723
 30
0.0
 11
8387318.843980731
 21
5690889.803440703
 31
0.0
  0
LINE
  5
303
330
2D8
100
AcDbEntity
  8
SZR__APM_Bruk
  6
ByBlock
 62
     5
370
    -3
100
AcDbLine
 10
8387318.686236966
 20
5690889.926391528
 30
0.0
 11
8387318.747712377
 21
5690890.00526341
 31
0.0
  0
LINE
  5
304
330
2D8
100
AcDbEntity
  8
SZR__APM_Bruk
  6
ByBlock
 62
     5
370
    -3
100
AcDbLine
 10
8387318.528493203
 20
5690890.04934235
 30
0.0
 11
8387318.589968614
 21
5690890.128214232
 31
0.0
  0
LINE
  5
305
330
2D8
100
AcDbEntity
  8
SZR__APM_Bruk
  6
ByBlock
 62
     5
370
    -3
100
AcDbLine
 10
8387317.582030618
 20
5690890.787047285
 30
0.0
 11
8387317.64350603
 21
5690890.865919167
 31
0.0
  0
LINE
  5
306
330
2D8
100
AcDbEntity
  8
SZR__APM_Bruk
  6
ByBlock
 62
     5
370
    -3
100
AcDbLine
 10
8387317.424286854
 20
5690890.909998109
 30
0.0
 11
8387317.485762265
 21
5690890.98886999
 31
0.0
  0
LINE
  5
307
330
2D8
100
AcDbEntity
  8
SZR__APM_Bruk
  6
ByBlock
 62
     5
370
    -3
100
AcDbLine
 10
8387316.886518764
 20
5690891.202364838
 30
0.0
 11
8387318.782505321
 21
5690889.724568822
 31
0.0
  0
LINE
  5
308
330
2D8
100
AcDbEntity
  8
SZR__APM_Bruk
  6
ByBlock
 62
     5
370
    -3
100
AcDbLine
 10
8387318.706029674
 20
5690889.784176526
 30
0.0
 11
8387318.767505085
 21
5690889.863048409
 31
0.0
  0
LINE
  5
309
330
2D8
100
AcDbEntity
  8
SZR__APM_Bruk
  6
ByBlock
 62
     5
370
    -3
100
AcDbLine
 10
8387318.548285911
 20
5690889.907127349
 30
0.0
 11
8387318.609761322
 21
5690889.985999231
 31
0.0
  0
LINE
  5
30A
330
2D8
100
AcDbEntity
  8
SZR__APM_Bruk
  6
ByBlock
 62
     5
370
    -3
100
AcDbLine
 10
8387318.390542146
 20
5690890.030078171
 30
0.0
 11
8387318.452017558
 21
5690890.108950054
 31
0.0
  0
LINE
  5
30B
330
2D8
100
AcDbEntity
  8
SZR__APM_Bruk
  6
ByBlock
 62
     5
370
    -3
100
AcDbLine
 10
8387317.601823326
 20
5690890.644832284
 30
0.0
 11
8387317.663298738
 21
5690890.723704167
 31
0.0
  0
LINE
  5
30C
330
2D8
100
AcDbEntity
  8
SZR__APM_Bruk
  6
ByBlock
 62
     5
370
    -3
100
AcDbLine
 10
8387317.444079561
 20
5690890.767783107
 30
0.0
 11
8387317.505554971
 21
5690890.846654991
 31
0.0
  0
LINE
  5
30D
330
2D8
100
AcDbEntity
  8
SZR__APM_Bruk
  6
ByBlock
 62
     5
370
    -3
100
AcDbLine
 10
8387317.286335797
 20
5690890.890733929
 30
0.0
 11
8387317.347811206
 21
5690890.969605812
 31
0.0
  0
LINE
  5
30E
330
2D8
100
AcDbEntity
  8
SZR__APM_Bruk
  6
ByBlock
 62
     5
370
    -3
100
AcDbLine
 10
8387316.825043352
 20
5690891.123492958
 30
0.0
 11
8387318.72102991
 21
5690889.64569694
 31
0.0
  0
LINE
  5
30F
330
2D8
100
AcDbEntity
  8
SZR__APM_Bruk
  6
ByBlock
 62
     5
370
    -3
100
AcDbLine
 10
8387318.563286143
 20
5690889.768647764
 30
0.0
 11
8387318.624761556
 21
5690889.847519644
 31
0.0
  0
LINE
  5
310
330
2D8
100
AcDbEntity
  8
SZR__APM_Bruk
  6
ByBlock
 62
     5
370
    -3
100
AcDbLine
 10
8387318.405542382
 20
5690889.891598586
 30
0.0
 11
8387318.467017792
 21
5690889.970470467
 31
0.0
  0
LINE
  5
311
330
2D8
100
AcDbEntity
  8
SZR__APM_Bruk
  6
ByBlock
 62
     5
370
    -3
100
AcDbLine
 10
8387317.459079795
 20
5690890.629303521
 30
0.0
 11
8387317.520555209
 21
5690890.708175403
 31
0.0
  0
LINE
  5
312
330
2D8
100
AcDbEntity
  8
SZR__APM_Bruk
  6
ByBlock
 62
     5
370
    -3
100
AcDbLine
 10
8387317.301336031
 20
5690890.752254345
 30
0.0
 11
8387317.362811442
 21
5690890.831126226
 31
0.0
  0
LINE
  5
313
330
2D8
100
AcDbEntity
  8
SZR__APM_Bruk
  6
ByBlock
 62
     5
370
    -3
100
AcDbLine
 10
8387316.763567943
 20
5690891.044621077
 30
0.0
 11
8387318.301709152
 21
5690889.84574182
 31
0.0
  0
LINE
  5
314
330
2D8
100
AcDbEntity
  8
SZR__APM_Bruk
  6
ByBlock
 62
     5
370
    -3
100
AcDbLine
 10
8387318.656642461
 20
5690889.569094799
 30
0.0
 11
8387318.659554498
 21
5690889.566825059
 31
0.0
  0
LINE
  5
315
330
2D8
100
AcDbEntity
  8
SZR__APM_Bruk
  6
ByBlock
 62
     5
370
    -3
100
AcDbLine
 10
8387318.621867988
 20
5690889.676198552
 30
0.0
 11
8387318.644554264
 21
5690889.705304645
 31
0.0
  0
LINE
  5
316
330
2D8
100
AcDbEntity
  8
SZR__APM_Bruk
  6
ByBlock
 62
     5
370
    -3
100
AcDbLine
 10
8387318.465039845
 20
5690889.800324096
 30
0.0
 11
8387318.486810499
 21
5690889.828255467
 31
0.0
  0
LINE
  5
317
330
2D8
100
AcDbEntity
  8
SZR__APM_Bruk
  6
ByBlock
 62
     5
370
    -3
100
AcDbLine
 10
8387318.267591323
 20
5690889.872334408
 30
0.0
 11
8387318.329066735
 21
5690889.95120629
 31
0.0
  0
LINE
  5
318
330
2D8
100
AcDbEntity
  8
SZR__APM_Bruk
  6
ByBlock
 62
     5
370
    -3
100
AcDbLine
 10
8387317.478872503
 20
5690890.487088521
 30
0.0
 11
8387317.540347916
 21
5690890.565960403
 31
0.0
  0
LINE
  5
319
330
2D8
100
AcDbEntity
  8
SZR__APM_Bruk
  6
ByBlock
 62
     5
370
    -3
100
AcDbLine
 10
8387317.321128739
 20
5690890.610039344
 30
0.0
 11
8387317.38260415
 21
5690890.688911225
 31
0.0
  0
LINE
  5
31A
330
2D8
100
AcDbEntity
  8
SZR__APM_Bruk
  6
ByBlock
 62
     5
370
    -3
100
AcDbLine
 10
8387317.163384974
 20
5690890.732990165
 30
0.0
 11
8387317.224860385
 21
5690890.811862048
 31
0.0
  0
LINE
  5
31B
330
2D8
100
AcDbEntity
  8
SZR__APM_Bruk
  6
ByBlock
 62
     5
370
    -3
100
AcDbLine
 10
8387316.702092531
 20
5690890.965749193
 30
0.0
 11
8387317.445700428
 21
5690890.386156061
 31
0.0
  0
LINE
  5
31C
330
2D8
100
AcDbEntity
  8
SZR__APM_Bruk
  6
ByBlock
 62
     5
370
    -3
100
AcDbLine
 10
8387317.918931721
 20
5690890.017303594
 30
0.0
 11
8387317.943628156
 21
5690889.998054357
 31
0.0
  0
LINE
  5
31D
330
2D8
100
AcDbEntity
  8
SZR__APM_Bruk
  6
ByBlock
 62
     5
370
    -3
100
AcDbLine
 10
8387318.18024558
 20
5690889.813626738
 30
0.0
 11
8387318.239646379
 21
5690889.767327747
 31
0.0
  0
LINE
  5
31E
330
2D8
100
AcDbEntity
  8
SZR__APM_Bruk
  6
ByBlock
 62
     5
370
    -3
100
AcDbLine
 10
8387318.59457969
 20
5690889.490680725
 30
0.0
 11
8387318.598079087
 21
5690889.487953177
 31
0.0
  0
LINE
  5
31F
330
2D8
100
AcDbEntity
  8
SZR__APM_Bruk
  6
ByBlock
 62
     5
370
    -3
100
AcDbLine
 10
8387318.145816161
 20
5690889.883707693
 30
0.0
 11
8387318.186323206
 21
5690889.935677528
 31
0.0
  0
LINE
  5
320
330
2D8
100
AcDbEntity
  8
SZR__APM_Bruk
  6
ByBlock
 62
     5
370
    -3
100
AcDbLine
 10
8387317.987595896
 20
5690890.006047178
 30
0.0
 11
8387318.028579439
 21
5690890.05862835
 31
0.0
  0
LINE
  5
321
330
2D8
100
AcDbEntity
  8
SZR__APM_Bruk
  6
ByBlock
 62
     5
370
    -3
100
AcDbLine
 10
8387317.336128973
 20
5690890.471559757
 30
0.0
 11
8387317.397604384
 21
5690890.550431639
 31
0.0
  0
LINE
  5
322
330
2D8
100
AcDbEntity
  8
SZR__APM_Bruk
  6
ByBlock
 62
     5
370
    -3
100
AcDbLine
 10
8387317.17838521
 20
5690890.594510581
 30
0.0
 11
8387317.239860621
 21
5690890.673382463
 31
0.0
  0
LINE
  5
323
330
2D8
100
AcDbEntity
  8
SZR__APM_Bruk
  6
ByBlock
 62
     5
370
    -3
100
AcDbLine
 10
8387316.64061712
 20
5690890.886877313
 30
0.0
 11
8387317.384225017
 21
5690890.30728418
 31
0.0
  0
LINE
  5
324
330
2D8
100
AcDbEntity
  8
SZR__APM_Bruk
  6
ByBlock
 62
     5
370
    -3
100
AcDbLine
 10
8387317.857456308
 20
5690889.938431713
 30
0.0
 11
8387317.882458415
 21
5690889.918944226
 31
0.0
  0
LINE
  5
325
330
2D8
100
AcDbEntity
  8
SZR__APM_Bruk
  6
ByBlock
 62
     5
370
    -3
100
AcDbLine
 10
8387318.119075839
 20
5690889.734516606
 30
0.0
 11
8387318.177583606
 21
5690889.688913675
 31
0.0
  0
LINE
  5
326
330
2D8
100
AcDbEntity
  8
SZR__APM_Bruk
  6
ByBlock
 62
     5
370
    -3
100
AcDbLine
 10
8387318.532516918
 20
5690889.412266654
 30
0.0
 11
8387318.536603675
 21
5690889.409081295
 31
0.0
  0
LINE
  5
327
330
2D8
100
AcDbEntity
  8
SZR__APM_Bruk
  6
ByBlock
 62
     5
370
    -3
100
AcDbLine
 10
8387318.144640502
 20
5690889.714590645
 30
0.0
 11
8387318.206115912
 21
5690889.793462526
 31
0.0
  0
LINE
  5
328
330
2D8
100
AcDbEntity
  8
SZR__APM_Bruk
  6
ByBlock
 62
     5
370
    -3
100
AcDbLine
 10
8387317.355921682
 20
5690890.329344758
 30
0.0
 11
8387317.417397094
 21
5690890.408216638
 31
0.0
  0
LINE
  5
329
330
2D8
100
AcDbEntity
  8
SZR__APM_Bruk
  6
ByBlock
 62
     5
370
    -3
100
AcDbLine
 10
8387317.198177917
 20
5690890.45229558
 30
0.0
 11
8387317.259653329
 21
5690890.531167461
 31
0.0
  0
LINE
  5
32A
330
2D8
100
AcDbEntity
  8
SZR__APM_Bruk
  6
ByBlock
 62
     5
370
    -3
100
AcDbLine
 10
8387317.040434151
 20
5690890.575246402
 30
0.0
 11
8387317.101909562
 21
5690890.654118284
 31
0.0
  0
LINE
  5
32B
330
2D8
100
AcDbEntity
  8
SZR__APM_Bruk
  6
ByBlock
 62
     5
370
    -3
100
AcDbLine
 10
8387316.57914171
 20
5690890.808005432
 30
0.0
 11
8387317.322749606
 21
5690890.228412298
 31
0.0
  0
LINE
  5
32C
330
2D8
100
AcDbEntity
  8
SZR__APM_Bruk
  6
ByBlock
 62
     5
370
    -3
100
AcDbLine
 10
8387317.795980898
 20
5690889.85955983
 30
0.0
 11
8387317.821288673
 21
5690889.839834094
 31
0.0
  0
LINE
  5
32D
330
2D8
100
AcDbEntity
  8
SZR__APM_Bruk
  6
ByBlock
 62
     5
370
    -3
100
AcDbLine
 10
8387318.057906098
 20
5690889.655406476
 30
0.0
 11
8387318.115520834
 21
5690889.610499602
 31
0.0
  0
LINE
  5
32E
330
2D8
100
AcDbEntity
  8
SZR__APM_Bruk
  6
ByBlock
 62
     5
370
    -3
100
AcDbLine
 10
8387318.470454145
 20
5690889.33385258
 30
0.0
 11
8387318.475128266
 21
5690889.330209413
 31
0.0
  0
LINE
  5
32F
330
2D8
100
AcDbEntity
  8
SZR__APM_Bruk
  6
ByBlock
 62
     5
370
    -3
100
AcDbLine
 10
8387317.21317815
 20
5690890.313815994
 30
0.0
 11
8387317.274653561
 21
5690890.392687875
 31
0.0
  0
LINE
  5
330
330
2D8
100
AcDbEntity
  8
SZR__APM_Bruk
  6
ByBlock
 62
     5
370
    -3
100
AcDbLine
 10
8387317.055434388
 20
5690890.436766817
 30
0.0
 11
8387317.116909798
 21
5690890.515638699
 31
0.0
  0
LINE
  5
331
330
2D8
100
AcDbEntity
  8
SZR__APM_Bruk
  6
ByBlock
 62
     5
370
    -3
100
AcDbLine
 10
8387316.836215209
 20
5690890.480845759
 30
0.0
 11
8387318.413652854
 21
5690889.251337531
 31
0.0
  0
LINE
  5
332
330
2D8
100
AcDbEntity
  8
SZR__APM_Bruk
  6
ByBlock
 62
     5
370
    -3
100
AcDbLine
 10
8387318.337177209
 20
5690889.310945236
 30
0.0
 11
8387318.345220966
 21
5690889.321265237
 31
0.0
  0
LINE
  5
333
330
2D8
100
AcDbEntity
  8
SZR__APM_Bruk
  6
ByBlock
 62
     5
370
    -3
100
AcDbLine
 10
8387318.179433444
 20
5690889.433896058
 30
0.0
 11
8387318.188392821
 21
5690889.445390781
 31
0.0
  0
LINE
  5
334
330
2D8
100
AcDbEntity
  8
SZR__APM_Bruk
  6
ByBlock
 62
     5
370
    -3
100
AcDbLine
 10
8387318.021689679
 20
5690889.55684688
 30
0.0
 11
8387318.083165091
 21
5690889.635718763
 31
0.0
  0
LINE
  5
335
330
2D8
100
AcDbEntity
  8
SZR__APM_Bruk
  6
ByBlock
 62
     5
370
    -3
100
AcDbLine
 10
8387317.863945916
 20
5690889.679797703
 30
0.0
 11
8387317.884681886
 21
5690889.706401589
 31
0.0
  0
LINE
  5
336
330
2D8
100
AcDbEntity
  8
SZR__APM_Bruk
  6
ByBlock
 62
     5
370
    -3
100
AcDbLine
 10
8387317.232970859
 20
5690890.171600992
 30
0.0
 11
8387317.294446271
 21
5690890.250472875
 31
0.0
  0
LINE
  5
337
330
2D8
100
AcDbEntity
  8
SZR__APM_Bruk
  6
ByBlock
 62
     5
370
    -3
100
AcDbLine
 10
8387317.075227095
 20
5690890.294551816
 30
0.0
 11
8387317.136702506
 21
5690890.373423697
 31
0.0
  0
LINE
  5
338
330
2D8
100
AcDbEntity
  8
SZR__APM_Bruk
  6
ByBlock
 62
     5
370
    -3
100
AcDbLine
 10
8387316.91748333
 20
5690890.417502638
 30
0.0
 11
8387316.978958741
 21
5690890.49637452
 31
0.0
  0
LINE
  5
339
330
2D8
100
AcDbEntity
  8
SZR__APM_Bruk
  6
ByBlock
 62
     5
370
    -3
100
AcDbLine
 10
8387315.660450202
 20
5690889.623003186
 30
0.0
 11
8387316.521105956
 21
5690890.72720953
 31
0.0
  0
LINE
  5
33A
330
2D8
100
AcDbEntity
  8
SZR__APM_Bruk
  6
ByBlock
 62
     5
370
    -3
100
AcDbLine
 10
8387316.291046989
 20
5690889.130737769
 30
0.0
 11
8387317.151702744
 21
5690890.234944114
 31
0.0
  0
LINE
  5
33B
330
2D8
100
AcDbEntity
  8
SZR__APM_Bruk
  6
ByBlock
 62
     5
370
    -3
100
AcDbLine
 10
8387317.251542853
 20
5690891.171428517
 30
0.0
 11
8387317.313018264
 21
5690891.250300397
 31
0.0
  0
LINE
  5
33C
330
2D8
100
AcDbEntity
  8
SZR__APM_Bruk
  6
ByBlock
 62
     5
370
    -3
100
AcDbLine
 10
8387317.266543089
 20
5690891.032948932
 30
0.0
 11
8387317.328018498
 21
5690891.111820814
 31
0.0
  0
LINE
  5
33D
330
2D8
100
AcDbEntity
  8
SZR__APM_Bruk
  6
ByBlock
 62
     5
370
    -3
100
AcDbLine
 10
8387317.128592032
 20
5690891.013684754
 30
0.0
 11
8387317.190067443
 21
5690891.092556636
 31
0.0
  0
LINE
  5
33E
330
2D8
100
AcDbEntity
  8
SZR__APM_Bruk
  6
ByBlock
 62
     5
370
    -3
100
AcDbLine
 10
8387317.143592266
 20
5690890.875205167
 30
0.0
 11
8387317.205067677
 21
5690890.954077048
 31
0.0
  0
LINE
  5
33F
330
2D8
100
AcDbEntity
  8
SZR__APM_Bruk
  6
ByBlock
 62
     5
370
    -3
100
AcDbLine
 10
8387317.005641209
 20
5690890.855940989
 30
0.0
 11
8387317.067116621
 21
5690890.934812871
 31
0.0
  0
LINE
  5
340
330
2D8
100
AcDbEntity
  8
SZR__APM_Bruk
  6
ByBlock
 62
     5
370
    -3
100
AcDbLine
 10
8387317.020641443
 20
5690890.717461404
 30
0.0
 11
8387317.082116856
 21
5690890.796333286
 31
0.0
  0
LINE
  5
341
330
2D8
100
AcDbEntity
  8
SZR__APM_Bruk
  6
ByBlock
 62
     5
370
    -3
100
AcDbLine
 10
8387316.882690386
 20
5690890.698197225
 30
0.0
 11
8387316.944165798
 21
5690890.777069106
 31
0.0
  0
LINE
  5
342
330
2D8
100
AcDbEntity
  8
SZR__APM_Bruk
  6
ByBlock
 62
     5
370
    -3
100
AcDbLine
 10
8387316.897690622
 20
5690890.559717639
 30
0.0
 11
8387316.959166032
 21
5690890.638589521
 31
0.0
  0
LINE
  5
343
330
2D8
100
AcDbEntity
  8
SZR__APM_Bruk
  6
ByBlock
 62
     5
370
    -3
100
AcDbLine
 10
8387316.759739565
 20
5690890.540453461
 30
0.0
 11
8387316.821214977
 21
5690890.619325343
 31
0.0
  0
LINE
  5
344
330
2D8
100
AcDbEntity
  8
SZR__APM_Bruk
  6
ByBlock
 62
     5
370
    -3
100
AcDbLine
 10
8387316.61699604
 20
5690890.524924699
 30
0.0
 11
8387316.678471449
 21
5690890.603796582
 31
0.0
  0
LINE
  5
345
330
2D8
100
AcDbEntity
  8
SZR__APM_Bruk
  6
ByBlock
 62
     5
370
    -3
100
AcDbLine
 10
8387316.397788106
 20
5690890.568994878
 30
0.0
 11
8387317.028751921
 21
5690890.077200349
 31
0.0
  0
LINE
  5
346
330
2D8
100
AcDbEntity
  8
SZR__APM_Bruk
  6
ByBlock
 62
     5
370
    -3
100
AcDbLine
 10
8387316.274837285
 20
5690890.411251115
 30
0.0
 11
8387316.9058011
 21
5690889.919456586
 31
0.0
  0
LINE
  5
347
330
2D8
100
AcDbEntity
  8
SZR__APM_Bruk
  6
ByBlock
 62
     5
370
    -3
100
AcDbLine
 10
8387316.151886464
 20
5690890.253507351
 30
0.0
 11
8387316.782850277
 21
5690889.761712822
 31
0.0
  0
LINE
  5
348
330
2D8
100
AcDbEntity
  8
SZR__APM_Bruk
  6
ByBlock
 62
     5
370
    -3
100
AcDbLine
 10
8387316.090411053
 20
5690890.174635471
 30
0.0
 11
8387316.721374865
 21
5690889.682840942
 31
0.0
  0
LINE
  5
349
330
2D8
100
AcDbEntity
  8
SZR__APM_Bruk
  6
ByBlock
 62
     5
370
    -3
100
AcDbLine
 10
8387316.563631101
 20
5690889.805791764
 30
0.0
 11
8387316.625106512
 21
5690889.884663647
 31
0.0
  0
LINE
  5
34A
330
2D8
100
AcDbEntity
  8
SZR__APM_Bruk
  6
ByBlock
 62
     5
370
    -3
100
AcDbLine
 10
8387316.405887338
 20
5690889.928742587
 30
0.0
 11
8387316.467362749
 21
5690890.007614469
 31
0.0
  0
LINE
  5
34B
330
2D8
100
AcDbEntity
  8
SZR__APM_Bruk
  6
ByBlock
 62
     5
370
    -3
100
AcDbLine
 10
8387316.028935639
 20
5690890.095763587
 30
0.0
 11
8387316.659899454
 21
5690889.60396906
 31
0.0
  0
LINE
  5
34C
330
2D8
100
AcDbEntity
  8
SZR__APM_Bruk
  6
ByBlock
 62
     5
370
    -3
100
AcDbLine
 10
8387316.583423809
 20
5690889.663576764
 30
0.0
 11
8387316.64489922
 21
5690889.742448645
 31
0.0
  0
LINE
  5
34D
330
2D8
100
AcDbEntity
  8
SZR__APM_Bruk
  6
ByBlock
 62
     5
370
    -3
100
AcDbLine
 10
8387316.425680046
 20
5690889.786527586
 30
0.0
 11
8387316.487155457
 21
5690889.865399468
 31
0.0
  0
LINE
  5
34E
330
2D8
100
AcDbEntity
  8
SZR__APM_Bruk
  6
ByBlock
 62
     5
370
    -3
100
AcDbLine
 10
8387316.267936281
 20
5690889.909478409
 30
0.0
 11
8387316.329411691
 21
5690889.98835029
 31
0.0
  0
LINE
  5
34F
330
2D8
100
AcDbEntity
  8
SZR__APM_Bruk
  6
ByBlock
 62
     5
370
    -3
100
AcDbLine
 10
8387315.96746023
 20
5690890.016891708
 30
0.0
 11
8387316.598424044
 21
5690889.525097177
 31
0.0
  0
LINE
  5
350
330
2D8
100
AcDbEntity
  8
SZR__APM_Bruk
  6
ByBlock
 62
     5
370
    -3
100
AcDbLine
 10
8387316.440680278
 20
5690889.648048
 30
0.0
 11
8387316.502155689
 21
5690889.726919883
 31
0.0
  0
LINE
  5
351
330
2D8
100
AcDbEntity
  8
SZR__APM_Bruk
  6
ByBlock
 62
     5
370
    -3
100
AcDbLine
 10
8387316.282936517
 20
5690889.770998823
 30
0.0
 11
8387316.344411926
 21
5690889.849870704
 31
0.0
  0
LINE
  5
352
330
2D8
100
AcDbEntity
  8
SZR__APM_Bruk
  6
ByBlock
 62
     5
370
    -3
100
AcDbLine
 10
8387315.905984817
 20
5690889.938019823
 30
0.0
 11
8387316.536948633
 21
5690889.446225297
 31
0.0
  0
LINE
  5
353
330
2D8
100
AcDbEntity
  8
SZR__APM_Bruk
  6
ByBlock
 62
     5
370
    -3
100
AcDbLine
 10
8387316.460472986
 20
5690889.505833
 30
0.0
 11
8387316.521948397
 21
5690889.584704881
 31
0.0
  0
LINE
  5
354
330
2D8
100
AcDbEntity
  8
SZR__APM_Bruk
  6
ByBlock
 62
     5
370
    -3
100
AcDbLine
 10
8387316.302729223
 20
5690889.628783822
 30
0.0
 11
8387316.364204634
 21
5690889.707655704
 31
0.0
  0
LINE
  5
355
330
2D8
100
AcDbEntity
  8
SZR__APM_Bruk
  6
ByBlock
 62
     5
370
    -3
100
AcDbLine
 10
8387316.144985458
 20
5690889.751734645
 30
0.0
 11
8387316.206460869
 21
5690889.830606526
 31
0.0
  0
LINE
  5
356
330
2D8
100
AcDbEntity
  8
SZR__APM_Bruk
  6
ByBlock
 62
     5
370
    -3
100
AcDbLine
 10
8387315.844509407
 20
5690889.859147944
 30
0.0
 11
8387316.475473221
 21
5690889.367353414
 31
0.0
  0
LINE
  5
357
330
2D8
100
AcDbEntity
  8
SZR__APM_Bruk
  6
ByBlock
 62
     5
370
    -3
100
AcDbLine
 10
8387316.317729457
 20
5690889.490304238
 30
0.0
 11
8387316.379204868
 21
5690889.569176119
 31
0.0
  0
LINE
  5
358
330
2D8
100
AcDbEntity
  8
SZR__APM_Bruk
  6
ByBlock
 62
     5
370
    -3
100
AcDbLine
 10
8387316.159985694
 20
5690889.613255059
 30
0.0
 11
8387316.221461103
 21
5690889.692126942
 31
0.0
  0
LINE
  5
359
330
2D8
100
AcDbEntity
  8
SZR__APM_Bruk
  6
ByBlock
 62
     5
370
    -3
100
AcDbLine
 10
8387315.783033994
 20
5690889.78027606
 30
0.0
 11
8387316.41399781
 21
5690889.288481533
 31
0.0
  0
LINE
  5
35A
330
2D8
100
AcDbEntity
  8
SZR__APM_Bruk
  6
ByBlock
 62
     5
370
    -3
100
AcDbLine
 10
8387316.337522165
 20
5690889.348089236
 30
0.0
 11
8387316.398997574
 21
5690889.426961119
 31
0.0
  0
LINE
  5
35B
330
2D8
100
AcDbEntity
  8
SZR__APM_Bruk
  6
ByBlock
 62
     5
370
    -3
100
AcDbLine
 10
8387316.1797784
 20
5690889.471040058
 30
0.0
 11
8387316.241253811
 21
5690889.549911941
 31
0.0
  0
LINE
  5
35C
330
2D8
100
AcDbEntity
  8
SZR__APM_Bruk
  6
ByBlock
 62
     5
370
    -3
100
AcDbLine
 10
8387316.022034635
 20
5690889.593990882
 30
0.0
 11
8387316.083510047
 21
5690889.672862763
 31
0.0
  0
LINE
  5
35D
330
2D8
100
AcDbEntity
  8
SZR__APM_Bruk
  6
ByBlock
 62
     5
370
    -3
100
AcDbLine
 10
8387315.721558586
 20
5690889.70140418
 30
0.0
 11
8387316.352522399
 21
5690889.20960965
 31
0.0
  0
LINE
  5
35E
330
2D8
100
AcDbEntity
  8
SZR__APM_Bruk
  6
ByBlock
 62
     5
370
    -3
100
AcDbLine
 10
8387316.194778632
 20
5690889.332560474
 30
0.0
 11
8387316.256254045
 21
5690889.411432357
 31
0.0
  0
LINE
  5
35F
330
2D8
100
AcDbEntity
  8
SZR__APM_Bruk
  6
ByBlock
 62
     5
370
    -3
100
AcDbLine
 10
8387316.037034871
 20
5690889.455511296
 30
0.0
 11
8387316.098510281
 21
5690889.534383178
 31
0.0
  0
LINE
  5
360
102
{ACAD_REACTORS
330
3A1
102
}
330
2D8
100
AcDbEntity
  8
SZR__APM_Bruk
  6
ByBlock
 62
     5
370
    -3
100
AcDbLine
 10
8387315.661551356
 20
5690889.624415951
 30
0.0
 11
8387316.291046987
 21
5690889.13073777
 31
0.0
  0
LINE
  5
361
330
2D8
100
AcDbEntity
  8
SZR__APM_Bruk
  6
ByBlock
 62
     5
370
    -3
100
AcDbLine
 10
8387316.21457134
 20
5690889.190345473
 30
0.0
 11
8387316.276046753
 21
5690889.269217355
 31
0.0
  0
LINE
  5
362
330
2D8
100
AcDbEntity
  8
SZR__APM_Bruk
  6
ByBlock
 62
     5
370
    -3
100
AcDbLine
 10
8387316.056827579
 20
5690889.313296296
 30
0.0
 11
8387316.118302988
 21
5690889.392168177
 31
0.0
  0
LINE
  5
363
330
2D8
100
AcDbEntity
  8
SZR__APM_Bruk
  6
ByBlock
 62
     5
370
    -3
100
AcDbLine
 10
8387315.899083812
 20
5690889.436247118
 30
0.0
 11
8387315.960559224
 21
5690889.515119001
 31
0.0
  0
LINE
  5
364
330
2D8
100
AcDbEntity
  8
SZR__APM_Bruk
  6
ByBlock
 62
     5
370
    -3
100
AcDbLine
 10
8387318.37074944
 20
5690890.172293173
 30
0.0
 11
8387318.432224851
 21
5690890.251165053
 31
0.0
  0
LINE
  5
365
330
2D8
100
AcDbEntity
  8
SZR__APM_Bruk
  6
ByBlock
 62
     5
370
    -3
100
AcDbLine
 10
8387318.213005679
 20
5690890.295243995
 30
0.0
 11
8387318.274481089
 21
5690890.374115877
 31
0.0
  0
LINE
  5
366
330
2D8
100
AcDbEntity
  8
SZR__APM_Bruk
  6
ByBlock
 62
     5
370
    -3
100
AcDbLine
 10
8387318.055261914
 20
5690890.418194817
 30
0.0
 11
8387318.116737326
 21
5690890.497066699
 31
0.0
  0
LINE
  5
367
330
2D8
100
AcDbEntity
  8
SZR__APM_Bruk
  6
ByBlock
 62
     5
370
    -3
100
AcDbLine
 10
8387317.897518151
 20
5690890.541145639
 30
0.0
 11
8387317.958993563
 21
5690890.620017521
 31
0.0
  0
LINE
  5
368
330
2D8
100
AcDbEntity
  8
SZR__APM_Bruk
  6
ByBlock
 62
     5
370
    -3
100
AcDbLine
 10
8387318.198005441
 20
5690890.43372358
 30
0.0
 11
8387318.259480851
 21
5690890.512595461
 31
0.0
  0
LINE
  5
369
330
2D8
100
AcDbEntity
  8
SZR__APM_Bruk
  6
ByBlock
 62
     5
370
    -3
100
AcDbLine
 10
8387318.040261677
 20
5690890.556674402
 30
0.0
 11
8387318.10173709
 21
5690890.635546284
 31
0.0
  0
LINE
  5
36A
330
2D8
100
AcDbEntity
  8
SZR__APM_Bruk
  6
ByBlock
 62
     5
370
    -3
100
AcDbLine
 10
8387317.878487593
 20
5690890.682766593
 30
0.0
 11
8387317.939963004
 21
5690890.761638476
 31
0.0
  0
LINE
  5
36B
330
2D8
100
AcDbEntity
  8
SZR__APM_Bruk
  6
ByBlock
 62
     5
370
    -3
100
AcDbLine
 10
8387317.739774388
 20
5690890.664096461
 30
0.0
 11
8387317.8012498
 21
5690890.742968344
 31
0.0
  0
LINE
  5
36C
330
2D8
100
AcDbEntity
  8
SZR__APM_Bruk
  6
ByBlock
 62
     5
370
    -3
100
AcDbLine
 10
8387318.232798383
 20
5690890.153028995
 30
0.0
 11
8387318.294273795
 21
5690890.231900876
 31
0.0
  0
LINE
  5
36D
330
2D8
100
AcDbEntity
  8
SZR__APM_Bruk
  6
ByBlock
 62
     5
370
    -3
100
AcDbLine
 10
8387318.07505462
 20
5690890.275979817
 30
0.0
 11
8387318.13653003
 21
5690890.354851699
 31
0.0
  0
LINE
  5
36E
330
2D8
100
AcDbEntity
  8
SZR__APM_Bruk
  6
ByBlock
 62
     5
370
    -3
100
AcDbLine
 10
8387317.917310857
 20
5690890.39893064
 30
0.0
 11
8387317.978786267
 21
5690890.477802521
 31
0.0
  0
LINE
  5
36F
330
2D8
100
AcDbEntity
  8
SZR__APM_Bruk
  6
ByBlock
 62
     5
370
    -3
100
AcDbLine
 10
8387317.759567094
 20
5690890.521881462
 30
0.0
 11
8387317.821042506
 21
5690890.600753342
 31
0.0
  0
LINE
  5
370
330
2D8
100
AcDbEntity
  8
SZR__APM_Bruk
  6
ByBlock
 62
     5
370
    -3
100
AcDbLine
 10
8387318.247798619
 20
5690890.014549408
 30
0.0
 11
8387318.309274029
 21
5690890.093421289
 31
0.0
  0
LINE
  5
371
330
2D8
100
AcDbEntity
  8
SZR__APM_Bruk
  6
ByBlock
 62
     5
370
    -3
100
AcDbLine
 10
8387318.090054854
 20
5690890.13750023
 30
0.0
 11
8387318.151530266
 21
5690890.216372111
 31
0.0
  0
LINE
  5
372
330
2D8
100
AcDbEntity
  8
SZR__APM_Bruk
  6
ByBlock
 62
     5
370
    -3
100
AcDbLine
 10
8387317.932311091
 20
5690890.260451052
 30
0.0
 11
8387317.993786503
 21
5690890.339322934
 31
0.0
  0
LINE
  5
373
330
2D8
100
AcDbEntity
  8
SZR__APM_Bruk
  6
ByBlock
 62
     5
370
    -3
100
AcDbLine
 10
8387317.774567327
 20
5690890.383401875
 30
0.0
 11
8387317.836042738
 21
5690890.462273756
 31
0.0
  0
LINE
  5
374
330
2D8
100
AcDbEntity
  8
SZR__APM_Bruk
  6
ByBlock
 62
     5
370
    -3
100
AcDbLine
 10
8387317.616823564
 20
5690890.506352697
 30
0.0
 11
8387317.678298975
 21
5690890.585224578
 31
0.0
  0
LINE
  5
375
330
2D8
100
AcDbEntity
  8
SZR__APM_Bruk
  6
ByBlock
 62
     5
370
    -3
100
AcDbLine
 10
8387318.10984756
 20
5690889.995285231
 30
0.0
 11
8387318.171322972
 21
5690890.074157112
 31
0.0
  0
LINE
  5
376
330
2D8
100
AcDbEntity
  8
SZR__APM_Bruk
  6
ByBlock
 62
     5
370
    -3
100
AcDbLine
 10
8387317.952103797
 20
5690890.118236052
 30
0.0
 11
8387318.013579209
 21
5690890.197107933
 31
0.0
  0
LINE
  5
377
330
2D8
100
AcDbEntity
  8
SZR__APM_Bruk
  6
ByBlock
 62
     5
370
    -3
100
AcDbLine
 10
8387317.794360034
 20
5690890.241186874
 30
0.0
 11
8387317.855835446
 21
5690890.320058755
 31
0.0
  0
LINE
  5
378
330
2D8
100
AcDbEntity
  8
SZR__APM_Bruk
  6
ByBlock
 62
     5
370
    -3
100
AcDbLine
 10
8387317.632585947
 20
5690890.367279066
 30
0.0
 11
8387317.694061358
 21
5690890.446150947
 31
0.0
  0
LINE
  5
379
330
2D8
100
AcDbEntity
  8
0
 62
     7
100
AcDbLine
 10
8387318.199230096
 20
5690889.389308707
 30
0.0
 11
8387316.8730625
 21
5690888.019688404
 31
0.0
  0
LINE
  5
37A
330
2D8
100
AcDbEntity
  8
0
 62
     7
100
AcDbLine
 10
8387312.066904367
 20
5690888.019688404
 30
0.0
 11
8387316.8730625
 21
5690888.019688404
 31
0.0
  0
MTEXT
  5
37B
330
2D8
100
AcDbEntity
  8
SZR_APM
 62
     7
370
     5
100
AcDbMText
 10
8387312.015895622
 20
5690888.501417407
 30
0.0
 40
0.3
 41
5.547178841196
 46
0.0
 71
     1
 72
     5
  1
{\fVerdana|b0|i0|c238|p34;Czujnik nieinwazyjny}
 73
     1
 44
1.0
101
Embedded Object
 70
     1
 10
1.0
 20
0.0
 30
0.0
 11
8387312.015895622
 21
5690888.501417407
 31
0.0
 40
5.547178841196
 41
0.0
 42
4.324513096037609
 43
0.3987239758226998
 71
     2
 72
     1
 44
5.547178841196
 45
12.5
 73
     0
 74
     0
 46
0.0
  0
MTEXT
  5
37C
330
2D8
100
AcDbEntity
  8
SZR_APM
 62
     7
370
     5
100
AcDbMText
 10
8387312.628579334
 20
5690891.90133331
 30
0.0
 40
0.3
 41
5.547178841196
 46
0.0
 71
     1
 72
     5
  1
{\fVerdana|b0|i0|c238|p34;Szafa teletechniczna \Ptyp: SZA}
 73
     1
 44
1.0
101
Embedded Object
 70
     1
 10
1.0
 20
0.0
 30
0.0
 11
8387312.628579334
 21
5690891.90133331
 31
0.0
 40
5.547178841196
 41
0.0
 42
4.188918737407655
 43
0.9039623908663532
 71
     2
 72
     1
 44
5.547178841196
 45
12.5
 73
     0
 74
     0
 46
0.0
  0
LINE
  5
37D
330
2D8
100
AcDbEntity
  8
0
 62
     7
100
AcDbLine
 10
8387318.948415211
 20
5690887.981468559
 30
0.0
 11
8387323.754573346
 21
5690887.981468559
 31
0.0
  0
MTEXT
  5
37E
330
2D8
100
AcDbEntity
  8
SZR_APM
 62
     7
370
     5
100
AcDbMText
 10
8387319.192152553
 20
5690888.358586617
 30
0.0
 40
0.3
 41
5.547178841196
 46
0.0
 71
     1
 72
     5
  1
{\fVerdana|b0|i0|c238|p34;Osłona przeciwbłotna}
 73
     1
 44
1.0
101
Embedded Object
 70
     1
 10
1.0
 20
0.0
 30
0.0
 11
8387319.192152553
 21
5690888.358586617
 31
0.0
 40
5.547178841196
 41
0.0
 42
4.360577568838146
 43
0.396507723304231
 71
     2
 72
     1
 44
5.547178841196
 45
12.5
 73
     0
 74
     0
 46
0.0
  0
LINE
  5
37F
330
2D8
100
AcDbEntity
  8
0
 62
     7
100
AcDbLine
 10
8387318.948415211
 20
5690887.981468559
 30
0.0
 11
8387318.423428848
 21
5690889.180630297
 31
0.0
  0
LINE
  5
380
330
2D8
100
AcDbEntity
  8
0
 62
     7
100
AcDbLine
 10
8387317.389493912
 20
5690891.190692696
 30
0.0
 11
8387318.255455401
 21
5690892.76168496
 31
0.0
  0
LINE
  5
381
330
2D8
100
AcDbEntity
  8
0
 62
     7
100
AcDbLine
 10
8387318.255455401
 20
5690892.76168496
 30
0.0
 11
8387315.270723116
 21
5690892.761853075
 31
0.0
  0
MTEXT
  5
382
330
2D8
100
AcDbEntity
  8
SZR_APM
 62
     7
370
     5
100
AcDbMText
 10
8387315.242711535
 20
5690893.173473916
 30
0.0
 40
0.3
 41
5.547178841196
 46
0.0
 71
     1
 72
     5
  1
{\fVerdana|b0|i0|c238|p34;Azyl serwisowy\PBRUK}
 73
     1
 44
1.0
101
Embedded Object
 70
     1
 10
1.0
 20
0.0
 30
0.0
 11
8387315.242711535
 21
5690893.173473916
 31
0.0
 40
5.547178841196
 41
0.0
 42
3.118871725990597
 43
0.8197447951645399
 71
     2
 72
     1
 44
5.547178841196
 45
12.5
 73
     0
 74
     0
 46
0.0
  0
LINE
  5
383
330
2D8
100
AcDbEntity
  8
0
 62
     7
100
AcDbLine
 10
8387321.036128554
 20
5690894.618503222
 30
0.0
 11
8387320.912450496
 21
5690894.51970808
 31
0.0
  0
LINE
  5
384
330
2D8
100
AcDbEntity
  8
0
 62
     7
100
AcDbLine
 10
8387316.106292361
 20
5690894.51970808
 30
0.0
 11
8387320.912450496
 21
5690894.51970808
 31
0.0
  0
MTEXT
  5
385
330
2D8
100
AcDbEntity
  8
SZR_APM
 62
     7
370
     5
100
AcDbMText
 10
8387316.055283616
 20
5690895.001437082
 30
0.0
 40
0.3
 41
5.547178841196
 46
0.0
 71
     1
 72
     5
  1
{\fVerdana|b0|i0|c238|p34;Kanał technologiczny \Pwg. odrębnego oprac.}
 73
     1
 44
1.0
101
Embedded Object
 70
     1
 10
1.0
 20
0.0
 30
0.0
 11
8387316.055283616
 21
5690895.001437082
 31
0.0
 40
5.547178841196
 41
0.0
 42
4.464137004701141
 43
0.9122229684351912
 71
     2
 72
     1
 44
5.547178841196
 45
12.5
 73
     0
 74
     0
 46
0.0
  0
LINE
  5
386
330
2D8
100
AcDbEntity
  8
0
 62
     7
100
AcDbLine
 10
8387318.095298445
 20
5690889.806429064
 30
0.0
 11
8387319.693117742
 21
5690890.439249902
 31
0.0
  0
LINE
  5
387
330
2D8
100
AcDbEntity
  8
0
 62
     7
100
AcDbLine
 10
8387319.693117742
 20
5690890.439249902
 30
0.0
 11
8387322.732899542
 21
5690890.439249902
 31
0.0
  0
MTEXT
  5
388
330
2D8
100
AcDbEntity
  8
SZR_APM
 62
     7
370
     5
100
AcDbMText
 10
8387319.642108996
 20
5690890.920978904
 30
0.0
 40
0.3
 41
5.547178841196
 46
0.0
 71
     1
 72
     5
  1
{\fVerdana|b0|i0|c238|p34;Złącze OZ5-A2\Pwg. odr. oprac.}
 73
     1
 44
1.0
101
Embedded Object
 70
     1
 10
1.0
 20
0.0
 30
0.0
 11
8387319.642108996
 21
5690890.920978904
 31
0.0
 40
5.547178841196
 41
0.0
 42
3.096910678307589
 43
0.9122229684351912
 71
     2
 72
     1
 44
5.547178841196
 45
12.5
 73
     0
 74
     0
 46
0.0
  0
LINE
  5
389
330
2D8
100
AcDbEntity
  8
0
100
AcDbLine
 10
8387316.860267894
 20
5690891.399875722
 30
0.0
 11
8387312.589974841
 21
5690891.400925208
 31
0.0
  0
LINE
  5
38A
330
2D8
100
AcDbEntity
  8
0
 62
     7
100
AcDbLine
 10
8387316.387148516
 20
5690890.504088704
 30
0.0
 11
8387315.929756926
 21
5690890.339701379
 31
0.0
  0
LINE
  5
38B
330
2D8
100
AcDbEntity
  8
0
 62
     7
100
AcDbLine
 10
8387315.929756926
 20
5690890.339701379
 30
0.0
 11
8387312.19610559
 21
5690890.341853251
 31
0.0
  0
MTEXT
  5
38C
330
2D8
100
AcDbEntity
  8
SZR_APM
 62
     7
370
     5
100
AcDbMText
 10
8387312.19610559
 20
5690890.747969945
 30
0.0
 40
0.3
 41
5.547178841196
 46
0.0
 71
     1
 72
     5
  1
{\fVerdana|b0|i0|c238|p34;Stopień skarpowy}
 73
     1
 44
1.0
101
Embedded Object
 70
     1
 10
1.0
 20
0.0
 30
0.0
 11
8387312.19610559
 21
5690890.747969945
 31
0.0
 40
5.547178841196
 41
0.0
 42
3.650570852921423
 43
0.4206850235057085
 71
     2
 72
     1
 44
5.547178841196
 45
12.5
 73
     0
 74
     0
 46
0.0
  0
DIMENSION
  5
38D
330
2D8
100
AcDbEntity
  8
wymiary
 62
     7
100
AcDbDimension
280
     0
  2
*D2
 10
8387319.243635667
 20
5690890.305444884
 30
0.0
 11
8387318.00918209
 21
5690891.25919679
 31
0.0
 70
   129
 71
     5
 42
2.403903261292725
 73
     0
 74
     0
 75
     0
  3
ISO-25
100
AcDbAlignedDimension
 13
8387317.254684504
 23
5690891.662986898
 33
0.0
 14
8387319.156964487
 24
5690890.193265239
 34
0.0
1001
ACAD
1000
DSTYLE
1002
{
1070
    41
1040
0.25
1070
    42
1040
0.0625
1070
    44
1040
0.125
1070
   140
1040
0.25
1070
   147
1040
0.0625
1002
}
  0
DIMENSION
  5
38E
330
2D8
100
AcDbEntity
  8
wymiary
 62
     7
100
AcDbDimension
280
     0
  2
*D3
 10
8387319.533929831
 20
5690889.899839028
 30
0.0
 11
8387319.101280453
 21
5690889.343944668
 31
0.0
 70
   129
  1
1,2
 71
     5
 42
1.199835972860455
 73
     0
 74
     0
 75
     0
  3
ISO-25
100
AcDbAlignedDimension
 13
8387318.413652852
 23
5690889.251337527
 33
0.0
 14
8387319.150585542
 24
5690890.198193681
 34
0.0
1001
ACAD
1000
DSTYLE
1002
{
1070
    41
1040
0.25
1070
    42
1040
0.0625
1070
    44
1040
0.125
1070
   140
1040
0.25
1070
   147
1040
0.0625
1002
}
  0
LINE
  5
38F
330
2D8
100
AcDbEntity
  8
0
 62
     7
100
AcDbLine
 10
8387315.355064901
 20
5690889.698380301
 30
0.0
 11
8387311.123651107
 21
5690889.699489851
 31
0.0
  0
MTEXT
  5
390
330
2D8
100
AcDbEntity
  8
SZR_APM
 62
     7
370
     5
100
AcDbMText
 10
8387311.134291229
 20
5690890.143720562
 30
0.0
 40
0.3
 41
5.547178841196
 46
0.0
 71
     1
 72
     5
  1
{\fVerdana|b0|i0|c238|p34;Podejście serwisowe\PBRUK}
 73
     1
 44
1.0
101
Embedded Object
 70
     1
 10
1.0
 20
0.0
 30
0.0
 11
8387311.134291229
 21
5690890.143720562
 31
0.0
 40
5.547178841196
 41
0.0
 42
4.15446608462055
 43
0.8439220953660175
 71
     2
 72
     1
 44
5.547178841196
 45
12.5
 73
     0
 74
     0
 46
0.0
  0
DIMENSION
  5
391
330
2D8
100
AcDbEntity
  8
wymiary
 62
     7
100
AcDbDimension
280
     0
  2
*D4
 10
8387317.475449219
 20
5690889.89501119
 30
0.0
 11
8387317.087050922
 21
5690889.397820659
 31
0.0
 70
   129
  1
1,3
 71
     5
 42
1.331417873501777
 73
     0
 74
     0
 75
     0
  3
ISO-25
100
AcDbAlignedDimension
 13
8387316.291046989
 23
5690889.130737769
 33
0.0
 14
8387317.110684787
 24
5690890.179960065
 34
0.0
1001
ACAD
1000
DSTYLE
1002
{
1070
    41
1040
0.25
1070
    42
1040
0.0625
1070
    44
1040
0.125
1070
   140
1040
0.25
1070
   147
1040
0.0625
1002
}
  0
LINE
  5
392
330
2D8
100
AcDbEntity
  8
0
 62
     7
100
AcDbLine
 10
8387315.863745868
 20
5690889.716242476
 30
0.0
 11
8387315.354742439
 21
5690889.697040433
 31
0.0
  0
LINE
  5
393
330
2D8
100
AcDbEntity
  8
SZR__APM_Bruk
  6
ByBlock
 62
     5
370
    -3
100
AcDbLine
 10
8387316.459263519
 20
5690890.647866762
 30
0.0
 11
8387317.090227332
 21
5690890.156072232
 31
0.0
  0
LINE
  5
394
330
2D8
100
AcDbEntity
  8
SZR__APM_Bruk
  6
ByBlock
 62
     5
370
    -3
100
AcDbLine
 10
8387316.932483567
 20
5690890.279023054
 30
0.0
 11
8387316.993958979
 21
5690890.357894938
 31
0.0
  0
LINE
  5
395
330
2D8
100
AcDbEntity
  8
SZR__APM_Bruk
  6
ByBlock
 62
     5
370
    -3
100
AcDbLine
 10
8387316.774739804
 20
5690890.401973876
 30
0.0
 11
8387316.836215214
 21
5690890.48084576
 31
0.0
  0
LINE
  5
396
330
2D8
100
AcDbEntity
  8
SZR__APM_Bruk
  6
ByBlock
 62
     5
370
    -3
100
AcDbLine
 10
8387316.952276275
 20
5690890.136808055
 30
0.0
 11
8387317.013751687
 21
5690890.215679936
 31
0.0
  0
LINE
  5
397
330
2D8
100
AcDbEntity
  8
SZR__APM_Bruk
  6
ByBlock
 62
     5
370
    -3
100
AcDbLine
 10
8387316.794532512
 20
5690890.259758877
 30
0.0
 11
8387316.856007922
 21
5690890.338630758
 31
0.0
  0
LINE
  5
398
330
2D8
100
AcDbEntity
  8
SZR__APM_Bruk
  6
ByBlock
 62
     5
370
    -3
100
AcDbLine
 10
8387316.636788748
 20
5690890.3827097
 30
0.0
 11
8387316.698264157
 21
5690890.461581581
 31
0.0
  0
LINE
  5
399
330
2D8
100
AcDbEntity
  8
SZR__APM_Bruk
  6
ByBlock
 62
     5
370
    -3
100
AcDbLine
 10
8387316.213361874
 20
5690890.332379234
 30
0.0
 11
8387316.844325688
 21
5690889.840584705
 31
0.0
  0
LINE
  5
39A
330
2D8
100
AcDbEntity
  8
SZR__APM_Bruk
  6
ByBlock
 62
     5
370
    -3
100
AcDbLine
 10
8387316.686581923
 20
5690889.963535528
 30
0.0
 11
8387316.748057333
 21
5690890.04240741
 31
0.0
  0
LINE
  5
39B
330
2D8
100
AcDbEntity
  8
SZR__APM_Bruk
  6
ByBlock
 62
     5
370
    -3
100
AcDbLine
 10
8387316.528838159
 20
5690890.08648635
 30
0.0
 11
8387316.59031357
 21
5690890.165358232
 31
0.0
  0
LINE
  5
39C
330
2D8
100
AcDbEntity
  8
SZR__APM_Bruk
  6
ByBlock
 62
     5
370
    -3
100
AcDbLine
 10
8387316.70637463
 20
5690889.821320527
 30
0.0
 11
8387316.767850041
 21
5690889.900192408
 31
0.0
  0
LINE
  5
39D
330
2D8
100
AcDbEntity
  8
SZR__APM_Bruk
  6
ByBlock
 62
     5
370
    -3
100
AcDbLine
 10
8387316.548630867
 20
5690889.944271349
 30
0.0
 11
8387316.610106278
 21
5690890.023143231
 31
0.0
  0
LINE
  5
39E
330
2D8
100
AcDbEntity
  8
SZR__APM_Bruk
  6
ByBlock
 62
     5
370
    -3
100
AcDbLine
 10
8387316.390887102
 20
5690890.067222173
 30
0.0
 11
8387316.452362513
 21
5690890.146094054
 31
0.0
  0
DIMENSION
  5
39F
102
{ACAD_XDICTIONARY
360
3A0
102
}
102
{ACAD_REACTORS
330
3A1
102
}
330
2D8
100
AcDbEntity
  8
wymiary
 62
     7
100
AcDbDimension
280
     0
  2
*D5
 10
8387315.949078361
 20
5690888.694687868
 30
0.0
 11
8387315.642472453
 21
5690888.935141714
 31
0.0
 70
   129
 71
     5
 42
0.7999900141730905
 73
     0
 74
     0
 75
     0
  3
ISO-25
100
AcDbAlignedDimension
 13
8387315.661551356
 23
5690889.624415951
 33
0.0
 14
8387316.291047545
 24
5690889.130737335
 34
0.0
1001
ACAD
1000
DSTYLE
1002
{
1070
    41
1040
0.25
1070
    42
1040
0.0625
1070
    44
1040
0.125
1070
   140
1040
0.25
1070
   147
1040
0.0625
1002
}
  0
LINE
  5
3A2
330
2D8
100
AcDbEntity
  8
wymiary
  6
ByBlock
 62
     5
100
AcDbLine
 10
8387317.15170274
 20
5690890.234944109
 30
0.0
 11
8387317.309446506
 21
5690890.11199329
 31
0.0
  0
LINE
  5
3A3
330
2D8
100
AcDbEntity
  8
SZR__APM_Bruk
  6
ByBlock
 62
     5
370
    -3
100
AcDbLine
 10
8387315.741707102
 20
5690889.559668865
 30
0.0
 11
8387315.803182511
 21
5690889.638540745
 31
0.0
  0
LINE
  5
3A4
330
2D8
100
AcDbEntity
  8
SZR__APM_Bruk
  6
ByBlock
 62
     5
370
    -3
100
AcDbLine
 10
8387315.878746104
 20
5690889.577762891
 30
0.0
 11
8387315.940221515
 21
5690889.656634773
 31
0.0
  0
LINE
  5
3A5
330
2D8
100
AcDbEntity
  8
SZR__APM_Bruk
  6
ByBlock
 62
     5
370
    -3
100
AcDbLine
 10
8387315.863745868
 20
5690889.716242476
 30
0.0
 11
8387315.92522128
 21
5690889.795114357
 31
0.0
  0
LINE
  5
3A6
330
2D8
100
AcDbEntity
  8
SZR__APM_Bruk
  6
ByBlock
 62
     5
370
    -3
100
AcDbLine
 10
8387316.001696927
 20
5690889.735506655
 30
0.0
 11
8387316.063172338
 21
5690889.814378537
 31
0.0
  0
LINE
  5
3A7
330
2D8
100
AcDbEntity
  8
SZR__APM_Bruk
  6
ByBlock
 62
     5
370
    -3
100
AcDbLine
 10
8387315.986696691
 20
5690889.87398624
 30
0.0
 11
8387316.048172101
 21
5690889.952858121
 31
0.0
  0
LINE
  5
3A8
330
2D8
100
AcDbEntity
  8
SZR__APM_Bruk
  6
ByBlock
 62
     5
370
    -3
100
AcDbLine
 10
8387316.124647748
 20
5690889.893250417
 30
0.0
 11
8387316.186123159
 21
5690889.972122298
 31
0.0
  0
LINE
  5
3A9
330
2D8
100
AcDbEntity
  8
SZR__APM_Bruk
  6
ByBlock
 62
     5
370
    -3
100
AcDbLine
 10
8387316.109647512
 20
5690890.031730003
 30
0.0
 11
8387316.171122924
 21
5690890.110601885
 31
0.0
  0
LINE
  5
3AA
330
2D8
100
AcDbEntity
  8
SZR__APM_Bruk
  6
ByBlock
 62
     5
370
    -3
100
AcDbLine
 10
8387316.247604191
 20
5690890.050989801
 30
0.0
 11
8387316.309079603
 21
5690890.129861683
 31
0.0
  0
LINE
  5
3AB
330
2D8
100
AcDbEntity
  8
SZR__APM_Bruk
  6
ByBlock
 62
     5
370
    -3
100
AcDbLine
 10
8387316.232598335
 20
5690890.189473767
 30
0.0
 11
8387316.294073746
 21
5690890.268345649
 31
0.0
  0
LINE
  5
3AC
330
2D8
100
AcDbEntity
  8
SZR__APM_Bruk
  6
ByBlock
 62
     5
370
    -3
100
AcDbLine
 10
8387316.370549392
 20
5690890.208737944
 30
0.0
 11
8387316.432024803
 21
5690890.287609826
 31
0.0
  0
LINE
  5
3AD
330
2D8
100
AcDbEntity
  8
SZR__APM_Bruk
  6
ByBlock
 62
     5
370
    -3
100
AcDbLine
 10
8387316.478499979
 20
5690890.504961294
 30
0.0
 11
8387316.53997539
 21
5690890.583833176
 31
0.0
  0
LINE
  5
3AE
330
2D8
100
AcDbEntity
  8
SZR__APM_Bruk
  6
ByBlock
 62
     5
370
    -3
100
AcDbLine
 10
8387316.595960891
 20
5690890.655661602
 30
0.0
 11
8387316.657436302
 21
5690890.734533483
 31
0.0
  0
LINE
  5
3AF
330
2D8
100
AcDbEntity
  8
SZR__APM_Bruk
  6
ByBlock
 62
     5
370
    -3
100
AcDbLine
 10
8387316.739401855
 20
5690890.681969234
 30
0.0
 11
8387316.800877266
 21
5690890.760841116
 31
0.0
  0
LINE
  5
3B0
330
2D8
100
AcDbEntity
  8
SZR__APM_Bruk
  6
ByBlock
 62
     5
370
    -3
100
AcDbLine
 10
8387316.72494662
 20
5690890.821148046
 30
0.0
 11
8387316.786422031
 21
5690890.900019929
 31
0.0
  0
LINE
  5
3B1
330
2D8
100
AcDbEntity
  8
SZR__APM_Bruk
  6
ByBlock
 62
     5
370
    -3
100
AcDbLine
 10
8387316.862897678
 20
5690890.840412225
 30
0.0
 11
8387316.924373088
 21
5690890.919284107
 31
0.0
  0
LINE
  5
3B2
330
2D8
100
AcDbEntity
  8
SZR__APM_Bruk
  6
ByBlock
 62
     5
370
    -3
100
AcDbLine
 10
8387316.847897443
 20
5690890.97889181
 30
0.0
 11
8387316.909372854
 21
5690891.057763692
 31
0.0
  0
LINE
  5
3B3
330
2D8
100
AcDbEntity
  8
SZR__APM_Bruk
  6
ByBlock
 62
     5
370
    -3
100
AcDbLine
 10
8387316.985848499
 20
5690890.998155989
 30
0.0
 11
8387317.047323911
 21
5690891.07702787
 31
0.0
  0
LINE
  5
3B4
330
2D8
100
AcDbEntity
  8
SZR__APM_Bruk
  6
ByBlock
 62
     5
370
    -3
100
AcDbLine
 10
8387316.970848262
 20
5690891.136635571
 30
0.0
 11
8387317.032323673
 21
5690891.215507454
 31
0.0
  0
LINE
  5
3B5
330
2D8
100
AcDbEntity
  8
SZR__APM_Bruk
  6
ByBlock
 62
     5
370
    -3
100
AcDbLine
 10
8387317.108799321
 20
5690891.155899753
 30
0.0
 11
8387317.170274734
 21
5690891.234771635
 31
0.0
  0
LINE
  5
3B6
330
2D8
100
AcDbEntity
  8
SZR__APM_Bruk
  6
ByBlock
 62
     5
370
    -3
100
AcDbLine
 10
8387317.093799087
 20
5690891.294379338
 30
0.0
 11
8387317.155274498
 21
5690891.373251219
 31
0.0
  0
LINE
  5
3B7
330
2D8
100
AcDbEntity
  8
SZR__APM_Bruk
  6
ByBlock
 62
     5
370
    -3
100
AcDbLine
 10
8387317.231750143
 20
5690891.313643517
 30
0.0
 11
8387317.293225555
 21
5690891.392515399
 31
0.0
  0
LINE
  5
3B8
330
2D8
100
AcDbEntity
  8
SZR__APM_Bruk
  6
ByBlock
 62
     5
370
    -3
100
AcDbLine
 10
8387317.132420411
 20
5690891.51785237
 30
0.0
 11
8387319.028406967
 21
5690890.040056351
 31
0.0
  0
LINE
  5
3B9
330
2D8
100
AcDbEntity
  8
SZR__APM_Bruk
  6
ByBlock
 62
     5
370
    -3
100
AcDbLine
 10
8387318.95193132
 20
5690890.099664056
 30
0.0
 11
8387319.013406731
 21
5690890.178535937
 31
0.0
  0
LINE
  5
3BA
330
2D8
100
AcDbEntity
  8
SZR__APM_Bruk
  6
ByBlock
 62
     5
370
    -3
100
AcDbLine
 10
8387318.794187557
 20
5690890.222614878
 30
0.0
 11
8387318.855662968
 21
5690890.301486759
 31
0.0
  0
LINE
  5
3BB
330
2D8
100
AcDbEntity
  8
SZR__APM_Bruk
  6
ByBlock
 62
     5
370
    -3
100
AcDbLine
 10
8387318.636443792
 20
5690890.345565701
 30
0.0
 11
8387318.697919203
 21
5690890.424437583
 31
0.0
  0
LINE
  5
3BC
330
2D8
100
AcDbEntity
  8
SZR__APM_Bruk
  6
ByBlock
 62
     5
370
    -3
100
AcDbLine
 10
8387318.478700027
 20
5690890.468516523
 30
0.0
 11
8387318.540175439
 21
5690890.547388407
 31
0.0
  0
LINE
  5
3BD
330
2D8
100
AcDbEntity
  8
SZR__APM_Bruk
  6
ByBlock
 62
     5
370
    -3
100
AcDbLine
 10
8387318.320956264
 20
5690890.591467345
 30
0.0
 11
8387318.382431676
 21
5690890.670339229
 31
0.0
  0
LINE
  5
3BE
330
2D8
100
AcDbEntity
  8
SZR__APM_Bruk
  6
ByBlock
 62
     5
370
    -3
100
AcDbLine
 10
8387318.163212498
 20
5690890.714418169
 30
0.0
 11
8387318.224687911
 21
5690890.793290052
 31
0.0
  0
LINE
  5
3BF
330
2D8
100
AcDbEntity
  8
SZR__APM_Bruk
  6
ByBlock
 62
     5
370
    -3
100
AcDbLine
 10
8387318.005468737
 20
5690890.837368993
 30
0.0
 11
8387318.066944146
 21
5690890.916240874
 31
0.0
  0
LINE
  5
3C0
330
2D8
100
AcDbEntity
  8
SZR__APM_Bruk
  6
ByBlock
 62
     5
370
    -3
100
AcDbLine
 10
8387317.84772497
 20
5690890.960319815
 30
0.0
 11
8387317.909200382
 21
5690891.039191698
 31
0.0
  0
LINE
  5
3C1
330
2D8
100
AcDbEntity
  8
SZR__APM_Bruk
  6
ByBlock
 62
     5
370
    -3
100
AcDbLine
 10
8387317.689981207
 20
5690891.083270637
 30
0.0
 11
8387317.751456619
 21
5690891.16214252
 31
0.0
  0
LINE
  5
3C2
330
2D8
100
AcDbEntity
  8
SZR__APM_Bruk
  6
ByBlock
 62
     5
370
    -3
100
AcDbLine
 10
8387317.532237442
 20
5690891.20622146
 30
0.0
 11
8387317.593712854
 21
5690891.285093342
 31
0.0
  0
LINE
  5
3C3
330
2D8
100
AcDbEntity
  8
SZR__APM_Bruk
  6
ByBlock
 62
     5
370
    -3
100
AcDbLine
 10
8387317.374493679
 20
5690891.329172282
 30
0.0
 11
8387317.435969091
 21
5690891.408044166
 31
0.0
  0
LINE
  5
3C4
330
2D8
100
AcDbEntity
  8
SZR__APM_Bruk
  6
ByBlock
 62
     5
370
    -3
100
AcDbLine
 10
8387317.216749915
 20
5690891.452123106
 30
0.0
 11
8387317.278225324
 21
5690891.530994989
 31
0.0
  0
LINE
  5
3C5
330
2D8
100
AcDbEntity
  8
SZR__APM_Bruk
  6
ByBlock
 62
     5
370
    -3
100
AcDbLine
 10
8387317.196699173
 20
5690891.594456815
 30
0.0
 11
8387319.092685727
 21
5690890.116660796
 31
0.0
  0
LINE
  5
3C6
330
2D8
100
AcDbEntity
  8
SZR__APM_Bruk
  6
ByBlock
 62
     5
370
    -3
100
AcDbLine
 10
8387318.932098654
 20
5690890.241827791
 30
0.0
 11
8387318.993574066
 21
5690890.320699672
 31
0.0
  0
LINE
  5
3C7
330
2D8
100
AcDbEntity
  8
SZR__APM_Bruk
  6
ByBlock
 62
     5
370
    -3
100
AcDbLine
 10
8387318.774354891
 20
5690890.364778613
 30
0.0
 11
8387318.835830303
 21
5690890.443650495
 31
0.0
  0
LINE
  5
3C8
330
2D8
100
AcDbEntity
  8
SZR__APM_Bruk
  6
ByBlock
 62
     5
370
    -3
100
AcDbLine
 10
8387318.616611125
 20
5690890.487729435
 30
0.0
 11
8387318.678086538
 21
5690890.566601318
 31
0.0
  0
LINE
  5
3C9
330
2D8
100
AcDbEntity
  8
SZR__APM_Bruk
  6
ByBlock
 62
     5
370
    -3
100
AcDbLine
 10
8387318.458867364
 20
5690890.610680258
 30
0.0
 11
8387318.520342773
 21
5690890.689552142
 31
0.0
  0
LINE
  5
3CA
330
2D8
100
AcDbEntity
  8
SZR__APM_Bruk
  6
ByBlock
 62
     5
370
    -3
100
AcDbLine
 10
8387318.301123597
 20
5690890.733631081
 30
0.0
 11
8387318.362599007
 21
5690890.812502964
 31
0.0
  0
LINE
  5
3CB
330
2D8
100
AcDbEntity
  8
SZR__APM_Bruk
  6
ByBlock
 62
     5
370
    -3
100
AcDbLine
 10
8387318.143379834
 20
5690890.856581903
 30
0.0
 11
8387318.204855244
 21
5690890.935453785
 31
0.0
  0
LINE
  5
3CC
330
2D8
100
AcDbEntity
  8
SZR__APM_Bruk
  6
ByBlock
 62
     5
370
    -3
100
AcDbLine
 10
8387317.985636068
 20
5690890.979532725
 30
0.0
 11
8387318.047111479
 21
5690891.058404608
 31
0.0
  0
LINE
  5
3CD
330
2D8
100
AcDbEntity
  8
SZR__APM_Bruk
  6
ByBlock
 62
     5
370
    -3
100
AcDbLine
 10
8387317.827892305
 20
5690891.102483549
 30
0.0
 11
8387317.889367716
 21
5690891.181355432
 31
0.0
  0
LINE
  5
3CE
330
2D8
100
AcDbEntity
  8
SZR__APM_Bruk
  6
ByBlock
 62
     5
370
    -3
100
AcDbLine
 10
8387317.669158681
 20
5690891.224164398
 30
0.0
 11
8387317.730634091
 21
5690891.303036281
 31
0.0
  0
LINE
  5
3CF
330
2D8
100
AcDbEntity
  8
SZR__APM_Bruk
  6
ByBlock
 62
     5
370
    -3
100
AcDbLine
 10
8387317.511414916
 20
5690891.34711522
 30
0.0
 11
8387317.572890328
 21
5690891.425987103
 31
0.0
  0
LINE
  5
3D0
330
2D8
100
AcDbEntity
  8
SZR__APM_Bruk
  6
ByBlock
 62
     5
370
    -3
100
AcDbLine
 10
8387317.353671152
 20
5690891.470066044
 30
0.0
 11
8387317.415146563
 21
5690891.548937925
 31
0.0
  0
LINE
  5
3D1
330
2D8
100
AcDbEntity
  8
SZR__APM_Bruk
  6
ByBlock
 62
     5
370
    -3
100
AcDbLine
 10
8387317.195927389
 20
5690891.593016866
 30
0.0
 11
8387317.2574028
 21
5690891.671888749
 31
0.0
  0
LWPOLYLINE
  5
3D2
330
2D8
100
AcDbEntity
  8
SZR_APM
  6
1
100
AcDbPolyline
 90
        4
 70
     1
 43
0.0
 10
8387317.261274194
 20
5690890.149540417
 10
8387317.734505487
 20
5690889.780687948
 10
8387317.98040713
 20
5690890.096175477
 10
8387317.507175842
 20
5690890.465027945
  0
LINE
  5
3D3
330
2D8
100
AcDbEntity
  8
0
 62
     7
100
AcDbLine
 10
8387317.558401459
 20
5690890.141476753
 30
0.0
 11
8387316.860267894
 21
5690891.399875722
 31
0.0
  0
ENDBLK
  5
3D7
330
2D8
100
AcDbEntity
  8
0
100
AcDbBlockEnd
  0
BLOCK
  5
3DE
330
3DD
100
AcDbEntity
  8
0
 62
     5
370
    -3
100
AcDbBlockBegin
  2
*D7
 70
     1
 10
0.0
 20
0.0
 30
0.0
  3
*D7
  1

  0
LINE
  5
3DF
330
3DD
100
AcDbEntity
  8
wymiary
 62
     0
440
 16777216
370
    -2
100
AcDbLine
 10
8387317.292896359
 20
5690891.712445004
 30
0.0
 11
8387317.417779396
 21
5690891.874082752
 31
0.0
  0
LINE
  5
3E0
330
3DD
100
AcDbEntity
  8
wymiary
 62
     0
440
 16777216
370
    -2
100
AcDbLine
 10
8387319.195176344
 20
5690890.242723346
 30
0.0
 11
8387319.320059379
 21
5690890.404361093
 31
0.0
  0
LINE
  5
3E1
330
3DD
100
AcDbEntity
  8
wymiary
 62
     0
440
 16777216
370
    -2
100
AcDbLine
 10
8387317.539188105
 20
5690891.622319121
 30
0.0
 11
8387319.04580325
 21
5690890.458292305
 31
0.0
  0
SOLID
  5
3E2
330
3DD
100
AcDbEntity
  8
wymiary
 62
     0
440
 16777216
100
AcDbTrace
 10
8387317.564662673
 20
5690891.655291192
 30
0.0
 11
8387317.513713535
 21
5690891.589347052
 31
0.0
 12
8387317.341355686
 22
5690891.775166543
 32
0.0
 13
8387317.341355686
 23
5690891.775166543
 33
0.0
  0
SOLID
  5
3E3
330
3DD
100
AcDbEntity
  8
wymiary
 62
     0
440
 16777216
100
AcDbTrace
 10
8387319.07127782
 20
5690890.491264375
 30
0.0
 11
8387319.02032868
 21
5690890.425320236
 31
0.0
 12
8387319.243635667
 22
5690890.305444884
 32
0.0
 13
8387319.243635667
 23
5690890.305444884
 33
0.0
  0
MTEXT
  5
3E4
330
3DD
100
AcDbEntity
  8
wymiary
 62
     0
440
 16777216
100
AcDbMText
 10
8387318.138374554
 20
5690891.426412287
 30
0.0
 40
0.25
 41
0.0
 46
0.0
 71
     5
 72
     1
  1
2,4
 11
0.7913296734968616
 21
-0.6113896857515266
 31
0.0
 73
     1
 44
1.0
  0
POINT
  5
3E5
330
3DD
100
AcDbEntity
  8
Defpoints
 62
     0
440
 16777216
100
AcDbPoint
 10
8387317.254684504
 20
5690891.662986898
 30
0.0
  0
POINT
  5
3E6
330
3DD
100
AcDbEntity
  8
Defpoints
 62
     0
440
 16777216
100
AcDbPoint
 10
8387319.156964489
 20
5690890.193265241
 30
0.0
  0
POINT
  5
3E7
330
3DD
100
AcDbEntity
  8
Defpoints
 62
     0
440
 16777216
100
AcDbPoint
 10
8387319.243635667
 20
5690890.305444884
 30
0.0
  0
ENDBLK
  5
3E8
330
3DD
100
AcDbEntity
  8
0
 62
     5
370
    -3
100
AcDbBlockEnd
  0
BLOCK
  5
3EA
330
3E9
100
AcDbEntity
  8
0
 62
     5
370
    -3
100
AcDbBlockBegin
  2
*D8
 70
     1
 10
0.0
 20
0.0
 30
0.0
  3
*D8
  1

  0
LINE
  5
3EB
330
3E9
100
AcDbEntity
  8
wymiary
 62
     0
440
 16777216
370
    -2
100
AcDbLine
 10
8387318.462975017
 20
5690889.212950369
 30
0.0
 11
8387318.895641474
 21
5690888.87620856
 31
0.0
  0
LINE
  5
3EC
330
3E9
100
AcDbEntity
  8
wymiary
 62
     0
440
 16777216
370
    -2
100
AcDbLine
 10
8387319.199907707
 20
5690890.159806522
 30
0.0
 11
8387319.632574163
 21
5690889.823064711
 31
0.0
  0
LINE
  5
3ED
330
3E9
100
AcDbEntity
  8
wymiary
 62
     0
440
 16777216
370
    -2
100
AcDbLine
 10
8387318.950545772
 20
5690889.150271541
 30
0.0
 11
8387319.380381198
 21
5690889.702550363
 31
0.0
  0
SOLID
  5
3EE
330
3E9
100
AcDbEntity
  8
wymiary
 62
     0
440
 16777216
100
AcDbTrace
 10
8387318.917664329
 20
5690889.17586298
 30
0.0
 11
8387318.983427217
 21
5690889.124680103
 31
0.0
 12
8387318.79699714
 22
5690888.952982875
 32
0.0
 13
8387318.79699714
 23
5690888.952982875
 33
0.0
  0
SOLID
  5
3EF
330
3E9
100
AcDbEntity
  8
wymiary
 62
     0
440
 16777216
100
AcDbTrace
 10
8387319.347499754
 20
5690889.728141801
 30
0.0
 11
8387319.413262643
 21
5690889.676958923
 31
0.0
 12
8387319.533929831
 22
5690889.899839028
 32
0.0
 13
8387319.533929831
 23
5690889.899839028
 33
0.0
  0
MTEXT
  5
3F0
330
3E9
100
AcDbEntity
  8
wymiary
 62
     0
440
 16777216
100
AcDbMText
 10
8387318.934524557
 20
5690889.473729821
 30
0.0
 40
0.25
 41
0.0
 46
0.0
 71
     5
 72
     1
  1
1,2
 11
0.6141945277824012
 21
0.7891546629413991
 31
0.0
 73
     1
 44
1.0
  0
POINT
  5
3F1
330
3E9
100
AcDbEntity
  8
Defpoints
 62
     0
440
 16777216
100
AcDbPoint
 10
8387318.413652851
 20
5690889.251337527
 30
0.0
  0
POINT
  5
3F2
330
3E9
100
AcDbEntity
  8
Defpoints
 62
     0
440
 16777216
100
AcDbPoint
 10
8387319.150585542
 20
5690890.198193679
 30
0.0
  0
POINT
  5
3F3
330
3E9
100
AcDbEntity
  8
Defpoints
 62
     0
440
 16777216
100
AcDbPoint
 10
8387319.533929831
 20
5690889.899839028
 30
0.0
  0
ENDBLK
  5
3F4
330
3E9
100
AcDbEntity
  8
0
 62
     5
370
    -3
100
AcDbBlockEnd
  0
BLOCK
  5
3F6
330
3F5
100
AcDbEntity
  8
0
 62
     5
370
    -3
100
AcDbBlockBegin
  2
*D9
 70
     1
 10
0.0
 20
0.0
 30
0.0
  3
*D9
  1

  0
LINE
  5
3F7
330
3F5
100
AcDbEntity
  8
wymiary
 62
     0
440
 16777216
370
    -2
100
AcDbLine
 10
8387316.340300042
 20
5690889.092261973
 30
0.0
 11
8387316.754317524
 21
5690888.768837301
 31
0.0
  0
LINE
  5
3F8
330
3F5
100
AcDbEntity
  8
wymiary
 62
     0
440
 16777216
370
    -2
100
AcDbLine
 10
8387317.159937841
 20
5690890.141484271
 30
0.0
 11
8387317.573955323
 21
5690889.818059599
 31
0.0
  0
LINE
  5
3F9
330
3F5
100
AcDbEntity
  8
wymiary
 62
     0
440
 16777216
370
    -2
100
AcDbLine
 10
8387316.809714603
 20
5690889.042801101
 30
0.0
 11
8387317.321546035
 21
5690889.697998984
 31
0.0
  0
SOLID
  5
3FA
330
3F5
100
AcDbEntity
  8
wymiary
 62
     0
440
 16777216
370
    -3
100
AcDbTrace
 10
8387316.776879234
 20
5690889.068451631
 30
0.0
 11
8387316.842549971
 21
5690889.01715057
 31
0.0
 12
8387316.655811419
 22
5690888.845788893
 32
0.0
 13
8387316.655811419
 23
5690888.845788893
 33
0.0
  0
SOLID
  5
3FB
330
3F5
100
AcDbEntity
  8
wymiary
 62
     0
440
 16777216
370
    -3
100
AcDbTrace
 10
8387317.288710667
 20
5690889.723649514
 30
0.0
 11
8387317.354381403
 21
5690889.672348453
 31
0.0
 12
8387317.475449219
 22
5690889.89501119
 32
0.0
 13
8387317.475449219
 23
5690889.89501119
 33
0.0
  0
MTEXT
  5
3FC
330
3F5
100
AcDbEntity
  8
wymiary
 62
     0
440
 16777216
100
AcDbMText
 10
8387316.920528698
 20
5690889.527905492
 30
0.0
 40
0.25
 41
0.0
 46
0.0
 71
     5
 72
     1
  1
1,3
 11
0.6156127358602907
 21
0.7880488306232096
 31
0.0
 73
     1
 44
1.0
  0
POINT
  5
3FD
330
3F5
100
AcDbEntity
  8
Defpoints
 62
     0
440
 16777216
370
    -3
100
AcDbPoint
 10
8387316.291046991
 20
5690889.130737769
 30
0.0
  0
POINT
  5
3FE
330
3F5
100
AcDbEntity
  8
Defpoints
 62
     0
440
 16777216
370
    -3
100
AcDbPoint
 10
8387317.110684788
 20
5690890.179960067
 30
0.0
  0
POINT
  5
3FF
330
3F5
100
AcDbEntity
  8
Defpoints
 62
     0
440
 16777216
370
    -3
100
AcDbPoint
 10
8387317.475449219
 20
5690889.89501119
 30
0.0
  0
ENDBLK
  5
400
330
3F5
100
AcDbEntity
  8
0
 62
     5
370
    -3
100
AcDbBlockEnd
  0
BLOCK
  5
402
330
401
100
AcDbEntity
  8
0
 62
     5
100
AcDbBlockBegin
  2
*D10
 70
     1
 10
0.0
 20
0.0
 30
0.0
  3
*D10
  1

  0
LINE
  5
403
330
401
100
AcDbEntity
  8
wymiary
 62
     0
440
 16777216
370
    -2
100
AcDbLine
 10
8387315.622982233
 20
5690889.575235947
 30
0.0
 11
8387315.242443927
 21
5690889.090006475
 31
0.0
  0
LINE
  5
404
330
401
100
AcDbEntity
  8
wymiary
 62
     0
440
 16777216
370
    -2
100
AcDbLine
 10
8387316.25247842
 20
5690889.081557332
 30
0.0
 11
8387315.871940113
 21
5690888.596327861
 31
0.0
  0
LINE
  5
405
330
401
100
AcDbEntity
  8
wymiary
 62
     0
440
 16777216
370
    -2
100
AcDbLine
 10
8387315.516302187
 20
5690889.034089989
 30
0.0
 11
8387315.752358347
 21
5690888.848964361
 31
0.0
  0
SOLID
  5
406
330
401
100
AcDbEntity
  8
wymiary
 62
     0
440
 16777216
100
AcDbTrace
 10
8387315.542014937
 20
5690889.066876657
 30
0.0
 11
8387315.49058944
 21
5690889.001303321
 31
0.0
 12
8387315.319582173
 22
5690889.188366481
 32
0.0
 13
8387315.319582173
 23
5690889.188366481
 33
0.0
  0
SOLID
  5
407
330
401
100
AcDbEntity
  8
wymiary
 62
     0
440
 16777216
100
AcDbTrace
 10
8387315.778071094
 20
5690888.881751029
 30
0.0
 11
8387315.726645597
 21
5690888.816177692
 31
0.0
 12
8387315.949078361
 22
5690888.694687868
 32
0.0
 13
8387315.949078361
 23
5690888.694687868
 33
0.0
  0
MTEXT
  5
408
330
401
100
AcDbEntity
  8
wymiary
 62
     0
440
 16777216
100
AcDbMText
 10
8387315.772872822
 20
5690889.101416964
 30
0.0
 40
0.25
 41
0.0
 46
0.0
 71
     5
 72
     1
  1
0,8
 11
0.7868800551309266
 21
-0.617105970508429
 31
0.0
 73
     1
 44
1.0
  0
POINT
  5
409
330
401
100
AcDbEntity
  8
Defpoints
 62
     0
440
 16777216
100
AcDbPoint
 10
8387315.661551356
 20
5690889.624415949
 30
0.0
  0
POINT
  5
40A
330
401
100
AcDbEntity
  8
Defpoints
 62
     0
440
 16777216
100
AcDbPoint
 10
8387316.291047545
 20
5690889.130737336
 30
0.0
  0
POINT
  5
40B
330
401
100
AcDbEntity
  8
Defpoints
 62
     0
440
 16777216
100
AcDbPoint
 10
8387315.949078361
 20
5690888.694687868
 30
0.0
  0
ENDBLK
  5
40C
330
401
100
AcDbEntity
  8
0
 62
     5
100
AcDbBlockEnd
  0
BLOCK
  5
50B
330
40D
100
AcDbEntity
  8
0
100
AcDbBlockBegin
  2
A$C71167f4d
 70
     0
 10
0.0
 20
0.0
 30
0.0
  3
A$C71167f4d
  1

  0
LWPOLYLINE
  5
40E
330
40D
100
AcDbEntity
  8
SZR_APM
  6
1
100
AcDbPolyline
 90
        4
 70
     1
 43
0.0
 10
8387318.354111293
 20
5690889.402220955
 10
8387318.196589662
 20
5690889.525456242
 10
8387318.134972018
 20
5690889.44669543
 10
8387318.292493647
 20
5690889.323460139
  0
LWPOLYLINE
  5
40F
330
40D
100
AcDbEntity
  8
SZR_APM
  6
1
 62
   219
420
  6562149
100
AcDbPolyline
 90
        4
 70
     1
 43
0.0
 10
8387318.695368982
 20
5690889.618024358
 10
8387318.416094247
 20
5690889.265170811
 10
8387318.063240705
 20
5690889.544445544
 10
8387318.342515438
 20
5690889.897299093
  0
CIRCLE
  5
410
330
40D
100
AcDbEntity
  8
SZR_APM
  6
1
 62
   219
420
  6562149
100
AcDbCircle
 10
8387318.378408052
 20
5690889.58006695
 30
0.0
 40
0.15
  0
LINE
  5
411
330
40D
100
AcDbEntity
  8
SZR_APM
  6
1
 62
     1
100
AcDbLine
 10
8387318.838873074
 20
5690889.693396586
 30
0.0
 11
8387318.423992704
 21
5690889.181326241
 31
0.0
  0
LINE
  5
412
330
40D
100
AcDbEntity
  8
SZR_APM
  6
1
 62
     1
100
AcDbLine
 10
8387318.423428848
 20
5690889.180630297
 30
0.0
 11
8387317.164617975
 21
5690890.136240442
 31
0.0
  0
LWPOLYLINE
  5
413
330
40D
100
AcDbEntity
  8
SZR_APM
 62
     1
100
AcDbPolyline
 90
        4
 70
     1
 43
0.0
 10
8387318.20127588
 20
5690889.840824985
 10
8387317.963947268
 20
5690890.024332833
 10
8387317.78043942
 20
5690889.787004221
 10
8387318.017768032
 20
5690889.603496374
  0
LINE
  5
414
330
40D
100
AcDbEntity
  8
SZR_APM
  6
ByBlock
 62
     7
370
    -3
100
AcDbLine
 10
8387316.439136599
 20
5690888.956181103
 30
0.0
 11
8387317.50813579
 21
5690888.124253883
 31
0.0
  0
LINE
  5
415
330
40D
100
AcDbEntity
  8
SZR_APM
  6
ByBlock
 62
     7
370
    -3
100
AcDbLine
 10
8387316.780060807
 20
5690890.332332594
 30
0.0
 11
8387318.689812783
 21
5690888.922901248
 31
0.0
  0
LWPOLYLINE
  5
416
330
40D
100
AcDbEntity
  8
SZR_Teletechnika
  6
2
 48
5.0
100
AcDbPolyline
 90
        5
 70
     0
 43
0.0
 10
8387317.743791486
 20
5690890.280601711
 10
8387317.743791486
 20
5690890.280601711
 10
8387325.353157208
 20
5690900.306512901
 10
8387321.302696863
 20
5690903.377870435
 10
8387269.661768307
 20
5690841.184898281
  0
INSERT
  5
417
330
40D
100
AcDbEntity
  8
tel_studnie
 62
   251
100
AcDbBlockReference
  2
b_skr2
 10
8387269.661768307
 20
5690841.184898281
 30
0.0
 50
318.8275884632953
  0
LWPOLYLINE
  5
418
330
40D
100
AcDbEntity
  8
tel_rury_oslonowe
100
AcDbPolyline
 90
        2
 70
     0
 43
0.0
 10
8387278.329990731
 20
5690852.450428545
 10
8387318.324434072
 20
5690900.520169011
  0
LWPOLYLINE
  5
419
330
40D
100
AcDbEntity
  8
tel_rury_oslonowe
100
AcDbPolyline
 90
        2
 70
     0
 43
0.0
 10
8387319.087830205
 20
5690900.047944916
 10
8387279.152888963
 20
5690851.662410211
  0
INSERT
  5
41A
330
40D
100
AcDbEntity
  8
tel_studnie
 62
   251
100
AcDbBlockReference
  2
b_skr2
 10
8387321.302696863
 20
5690903.377870435
 30
0.0
 50
322.3945105951695
  0
LWPOLYLINE
  5
41B
330
40D
100
AcDbEntity
  8
SZR_zasilanie
  6
2
 62
     1
 48
5.0
100
AcDbPolyline
 90
        3
 70
     0
 43
0.0
 10
8387318.082611574
 20
5690889.932578908
 10
8387318.082611574
 20
5690889.932578908
 10
8387333.167989137
 20
5690908.611959365
  0
LWPOLYLINE
  5
41C
330
40D
100
AcDbEntity
  8
tel_rury_oslonowe
100
AcDbPolyline
 90
        2
 70
     0
 43
0.0
 10
8387318.586086896
 20
5690890.164940421
 10
8387325.070701797
 20
5690898.378615986
  0
LWPOLYLINE
  5
41D
330
40D
100
AcDbEntity
  8
tel_rury_oslonowe
100
AcDbPolyline
 90
        2
 70
     0
 43
0.0
 10
8387324.788999714
 20
5690898.641222092
 10
8387318.27477658
 20
5690890.494905126
  0
LINE
  5
41E
330
40D
100
AcDbEntity
  8
0
100
AcDbLine
 10
8387333.307794849
 20
5690908.768227825
 30
0.0
 11
8387333.384229648
 21
5690908.394663797
 31
0.0
  0
LINE
  5
41F
330
40D
100
AcDbEntity
  8
0
100
AcDbLine
 10
8387333.307794849
 20
5690908.768227825
 30
0.0
 11
8387332.952099454
 21
5690908.829254937
 31
0.0
  0
LINE
  5
420
330
40D
100
AcDbEntity
  8
0
100
AcDbLine
 10
8387333.011042379
 20
5690908.472917364
 30
0.0
 11
8387333.384229647
 21
5690908.394663794
 31
0.0
  0
LINE
  5
421
330
40D
100
AcDbEntity
  8
0
100
AcDbLine
 10
8387333.011042379
 20
5690908.472917364
 30
0.0
 11
8387332.951748623
 21
5690908.828905813
 31
0.0
  0
LWPOLYLINE
  5
422
330
40D
100
AcDbEntity
  8
SZR__APM_Bruk
  6
ByBlock
 62
     5
370
    -3
100
AcDbPolyline
 90
        4
 70
     1
 43
0.0
 10
8387317.254684504
 20
5690891.662986898
 10
8387319.156964487
 20
5690890.193265239
 10
8387318.413652852
 20
5690889.251337527
 10
8387316.511372867
 20
5690890.721059187
  0
LINE
  5
423
330
40D
100
AcDbEntity
  8
SZR__APM_Bruk
  6
ByBlock
 62
     5
370
    -3
100
AcDbLine
 10
8387317.450969321
 20
5690891.269564579
 30
0.0
 11
8387317.389493912
 21
5690891.190692696
 31
0.0
  0
LINE
  5
424
330
40D
100
AcDbEntity
  8
SZR__APM_Bruk
  6
ByBlock
 62
     5
370
    -3
100
AcDbLine
 10
8387317.070944998
 20
5690891.438980487
 30
0.0
 11
8387318.966931553
 21
5690889.961184468
 31
0.0
  0
LINE
  5
425
330
40D
100
AcDbEntity
  8
SZR__APM_Bruk
  6
ByBlock
 62
     5
370
    -3
100
AcDbLine
 10
8387318.809187789
 20
5690890.084135292
 30
0.0
 11
8387318.8706632
 21
5690890.163007174
 31
0.0
  0
LINE
  5
426
330
40D
100
AcDbEntity
  8
SZR__APM_Bruk
  6
ByBlock
 62
     5
370
    -3
100
AcDbLine
 10
8387318.651444026
 20
5690890.207086113
 30
0.0
 11
8387318.712919435
 21
5690890.285957996
 31
0.0
  0
LINE
  5
427
330
40D
100
AcDbEntity
  8
SZR__APM_Bruk
  6
ByBlock
 62
     5
370
    -3
100
AcDbLine
 10
8387318.493700261
 20
5690890.330036936
 30
0.0
 11
8387318.555175671
 21
5690890.40890882
 31
0.0
  0
LINE
  5
428
330
40D
100
AcDbEntity
  8
SZR__APM_Bruk
  6
ByBlock
 62
     5
370
    -3
100
AcDbLine
 10
8387318.335956496
 20
5690890.452987759
 30
0.0
 11
8387318.397431908
 21
5690890.531859642
 31
0.0
  0
LINE
  5
429
330
40D
100
AcDbEntity
  8
SZR__APM_Bruk
  6
ByBlock
 62
     5
370
    -3
100
AcDbLine
 10
8387318.178212732
 20
5690890.575938582
 30
0.0
 11
8387318.239688143
 21
5690890.654810464
 31
0.0
  0
LINE
  5
42A
330
40D
100
AcDbEntity
  8
SZR__APM_Bruk
  6
ByBlock
 62
     5
370
    -3
100
AcDbLine
 10
8387318.020468969
 20
5690890.698889403
 30
0.0
 11
8387318.08194438
 21
5690890.777761286
 31
0.0
  0
LINE
  5
42B
330
40D
100
AcDbEntity
  8
SZR__APM_Bruk
  6
ByBlock
 62
     5
370
    -3
100
AcDbLine
 10
8387317.862725206
 20
5690890.821840225
 30
0.0
 11
8387317.924200617
 21
5690890.900712108
 31
0.0
  0
LINE
  5
42C
330
40D
100
AcDbEntity
  8
SZR__APM_Bruk
  6
ByBlock
 62
     5
370
    -3
100
AcDbLine
 10
8387317.704981441
 20
5690890.944791049
 30
0.0
 11
8387317.766456851
 21
5690891.02366293
 31
0.0
  0
LINE
  5
42D
330
40D
100
AcDbEntity
  8
SZR__APM_Bruk
  6
ByBlock
 62
     5
370
    -3
100
AcDbLine
 10
8387317.547237676
 20
5690891.067741872
 30
0.0
 11
8387317.608713086
 21
5690891.146613754
 31
0.0
  0
LINE
  5
42E
330
40D
100
AcDbEntity
  8
SZR__APM_Bruk
  6
ByBlock
 62
     5
370
    -3
100
AcDbLine
 10
8387318.8706632
 20
5690890.163007174
 30
0.0
 11
8387319.028406965
 21
5690890.04005635
 31
0.0
  0
LINE
  5
42F
330
40D
100
AcDbEntity
  8
SZR__APM_Bruk
  6
ByBlock
 62
     5
370
    -3
100
AcDbLine
 10
8387317.00946959
 20
5690891.360108606
 30
0.0
 11
8387318.905456142
 21
5690889.882312587
 31
0.0
  0
LINE
  5
430
330
40D
100
AcDbEntity
  8
SZR__APM_Bruk
  6
ByBlock
 62
     5
370
    -3
100
AcDbLine
 10
8387318.828980497
 20
5690889.94192029
 30
0.0
 11
8387318.890455906
 21
5690890.020792172
 31
0.0
  0
LINE
  5
431
330
40D
100
AcDbEntity
  8
SZR__APM_Bruk
  6
ByBlock
 62
     5
370
    -3
100
AcDbLine
 10
8387318.671236732
 20
5690890.064871113
 30
0.0
 11
8387318.732712143
 21
5690890.143742994
 31
0.0
  0
LINE
  5
432
330
40D
100
AcDbEntity
  8
SZR__APM_Bruk
  6
ByBlock
 62
     5
370
    -3
100
AcDbLine
 10
8387318.513492967
 20
5690890.187821936
 30
0.0
 11
8387318.574968379
 21
5690890.266693817
 31
0.0
  0
LINE
  5
433
330
40D
100
AcDbEntity
  8
SZR__APM_Bruk
  6
ByBlock
 62
     5
370
    -3
100
AcDbLine
 10
8387318.355749204
 20
5690890.310772759
 30
0.0
 11
8387318.417224616
 21
5690890.38964464
 31
0.0
  0
LINE
  5
434
330
40D
100
AcDbEntity
  8
SZR__APM_Bruk
  6
ByBlock
 62
     5
370
    -3
100
AcDbLine
 10
8387317.724774149
 20
5690890.802576048
 30
0.0
 11
8387317.786249559
 21
5690890.88144793
 31
0.0
  0
LINE
  5
435
330
40D
100
AcDbEntity
  8
SZR__APM_Bruk
  6
ByBlock
 62
     5
370
    -3
100
AcDbLine
 10
8387317.567030384
 20
5690890.925526871
 30
0.0
 11
8387317.628505794
 21
5690891.004398753
 31
0.0
  0
LINE
  5
436
330
40D
100
AcDbEntity
  8
SZR__APM_Bruk
  6
ByBlock
 62
     5
370
    -3
100
AcDbLine
 10
8387317.40928662
 20
5690891.048477693
 30
0.0
 11
8387317.470762029
 21
5690891.127349575
 31
0.0
  0
LINE
  5
437
330
40D
100
AcDbEntity
  8
SZR__APM_Bruk
  6
ByBlock
 62
     5
370
    -3
100
AcDbLine
 10
8387316.947994177
 20
5690891.281236723
 30
0.0
 11
8387318.843980731
 21
5690889.803440703
 31
0.0
  0
LINE
  5
438
330
40D
100
AcDbEntity
  8
SZR__APM_Bruk
  6
ByBlock
 62
     5
370
    -3
100
AcDbLine
 10
8387318.686236966
 20
5690889.926391528
 30
0.0
 11
8387318.747712377
 21
5690890.00526341
 31
0.0
  0
LINE
  5
439
330
40D
100
AcDbEntity
  8
SZR__APM_Bruk
  6
ByBlock
 62
     5
370
    -3
100
AcDbLine
 10
8387318.528493203
 20
5690890.04934235
 30
0.0
 11
8387318.589968614
 21
5690890.128214232
 31
0.0
  0
LINE
  5
43A
330
40D
100
AcDbEntity
  8
SZR__APM_Bruk
  6
ByBlock
 62
     5
370
    -3
100
AcDbLine
 10
8387317.582030618
 20
5690890.787047285
 30
0.0
 11
8387317.64350603
 21
5690890.865919167
 31
0.0
  0
LINE
  5
43B
330
40D
100
AcDbEntity
  8
SZR__APM_Bruk
  6
ByBlock
 62
     5
370
    -3
100
AcDbLine
 10
8387317.424286854
 20
5690890.909998109
 30
0.0
 11
8387317.485762265
 21
5690890.98886999
 31
0.0
  0
LINE
  5
43C
330
40D
100
AcDbEntity
  8
SZR__APM_Bruk
  6
ByBlock
 62
     5
370
    -3
100
AcDbLine
 10
8387316.886518764
 20
5690891.202364838
 30
0.0
 11
8387318.782505321
 21
5690889.724568822
 31
0.0
  0
LINE
  5
43D
330
40D
100
AcDbEntity
  8
SZR__APM_Bruk
  6
ByBlock
 62
     5
370
    -3
100
AcDbLine
 10
8387318.706029674
 20
5690889.784176526
 30
0.0
 11
8387318.767505085
 21
5690889.863048409
 31
0.0
  0
LINE
  5
43E
330
40D
100
AcDbEntity
  8
SZR__APM_Bruk
  6
ByBlock
 62
     5
370
    -3
100
AcDbLine
 10
8387318.548285911
 20
5690889.907127349
 30
0.0
 11
8387318.609761322
 21
5690889.985999231
 31
0.0
  0
LINE
  5
43F
330
40D
100
AcDbEntity
  8
SZR__APM_Bruk
  6
ByBlock
 62
     5
370
    -3
100
AcDbLine
 10
8387318.390542146
 20
5690890.030078171
 30
0.0
 11
8387318.452017558
 21
5690890.108950054
 31
0.0
  0
LINE
  5
440
330
40D
100
AcDbEntity
  8
SZR__APM_Bruk
  6
ByBlock
 62
     5
370
    -3
100
AcDbLine
 10
8387317.601823326
 20
5690890.644832284
 30
0.0
 11
8387317.663298738
 21
5690890.723704167
 31
0.0
  0
LINE
  5
441
330
40D
100
AcDbEntity
  8
SZR__APM_Bruk
  6
ByBlock
 62
     5
370
    -3
100
AcDbLine
 10
8387317.444079561
 20
5690890.767783107
 30
0.0
 11
8387317.505554971
 21
5690890.846654991
 31
0.0
  0
LINE
  5
442
330
40D
100
AcDbEntity
  8
SZR__APM_Bruk
  6
ByBlock
 62
     5
370
    -3
100
AcDbLine
 10
8387317.286335797
 20
5690890.890733929
 30
0.0
 11
8387317.347811206
 21
5690890.969605812
 31
0.0
  0
LINE
  5
443
330
40D
100
AcDbEntity
  8
SZR__APM_Bruk
  6
ByBlock
 62
     5
370
    -3
100
AcDbLine
 10
8387316.825043352
 20
5690891.123492958
 30
0.0
 11
8387318.72102991
 21
5690889.64569694
 31
0.0
  0
LINE
  5
444
330
40D
100
AcDbEntity
  8
SZR__APM_Bruk
  6
ByBlock
 62
     5
370
    -3
100
AcDbLine
 10
8387318.563286143
 20
5690889.768647764
 30
0.0
 11
8387318.624761556
 21
5690889.847519644
 31
0.0
  0
LINE
  5
445
330
40D
100
AcDbEntity
  8
SZR__APM_Bruk
  6
ByBlock
 62
     5
370
    -3
100
AcDbLine
 10
8387318.405542382
 20
5690889.891598586
 30
0.0
 11
8387318.467017792
 21
5690889.970470467
 31
0.0
  0
LINE
  5
446
330
40D
100
AcDbEntity
  8
SZR__APM_Bruk
  6
ByBlock
 62
     5
370
    -3
100
AcDbLine
 10
8387317.459079795
 20
5690890.629303521
 30
0.0
 11
8387317.520555209
 21
5690890.708175403
 31
0.0
  0
LINE
  5
447
330
40D
100
AcDbEntity
  8
SZR__APM_Bruk
  6
ByBlock
 62
     5
370
    -3
100
AcDbLine
 10
8387317.301336031
 20
5690890.752254345
 30
0.0
 11
8387317.362811442
 21
5690890.831126226
 31
0.0
  0
LINE
  5
448
330
40D
100
AcDbEntity
  8
SZR__APM_Bruk
  6
ByBlock
 62
     5
370
    -3
100
AcDbLine
 10
8387316.763567943
 20
5690891.044621077
 30
0.0
 11
8387318.301709152
 21
5690889.84574182
 31
0.0
  0
LINE
  5
449
330
40D
100
AcDbEntity
  8
SZR__APM_Bruk
  6
ByBlock
 62
     5
370
    -3
100
AcDbLine
 10
8387318.656642461
 20
5690889.569094799
 30
0.0
 11
8387318.659554498
 21
5690889.566825059
 31
0.0
  0
LINE
  5
44A
330
40D
100
AcDbEntity
  8
SZR__APM_Bruk
  6
ByBlock
 62
     5
370
    -3
100
AcDbLine
 10
8387318.621867988
 20
5690889.676198552
 30
0.0
 11
8387318.644554264
 21
5690889.705304645
 31
0.0
  0
LINE
  5
44B
330
40D
100
AcDbEntity
  8
SZR__APM_Bruk
  6
ByBlock
 62
     5
370
    -3
100
AcDbLine
 10
8387318.465039845
 20
5690889.800324096
 30
0.0
 11
8387318.486810499
 21
5690889.828255467
 31
0.0
  0
LINE
  5
44C
330
40D
100
AcDbEntity
  8
SZR__APM_Bruk
  6
ByBlock
 62
     5
370
    -3
100
AcDbLine
 10
8387318.267591323
 20
5690889.872334408
 30
0.0
 11
8387318.329066735
 21
5690889.95120629
 31
0.0
  0
LINE
  5
44D
330
40D
100
AcDbEntity
  8
SZR__APM_Bruk
  6
ByBlock
 62
     5
370
    -3
100
AcDbLine
 10
8387317.478872503
 20
5690890.487088521
 30
0.0
 11
8387317.540347916
 21
5690890.565960403
 31
0.0
  0
LINE
  5
44E
330
40D
100
AcDbEntity
  8
SZR__APM_Bruk
  6
ByBlock
 62
     5
370
    -3
100
AcDbLine
 10
8387317.321128739
 20
5690890.610039344
 30
0.0
 11
8387317.38260415
 21
5690890.688911225
 31
0.0
  0
LINE
  5
44F
330
40D
100
AcDbEntity
  8
SZR__APM_Bruk
  6
ByBlock
 62
     5
370
    -3
100
AcDbLine
 10
8387317.163384974
 20
5690890.732990165
 30
0.0
 11
8387317.224860385
 21
5690890.811862048
 31
0.0
  0
LINE
  5
450
330
40D
100
AcDbEntity
  8
SZR__APM_Bruk
  6
ByBlock
 62
     5
370
    -3
100
AcDbLine
 10
8387316.702092531
 20
5690890.965749193
 30
0.0
 11
8387317.445700428
 21
5690890.386156061
 31
0.0
  0
LINE
  5
451
330
40D
100
AcDbEntity
  8
SZR__APM_Bruk
  6
ByBlock
 62
     5
370
    -3
100
AcDbLine
 10
8387317.918931721
 20
5690890.017303594
 30
0.0
 11
8387317.943628156
 21
5690889.998054357
 31
0.0
  0
LINE
  5
452
330
40D
100
AcDbEntity
  8
SZR__APM_Bruk
  6
ByBlock
 62
     5
370
    -3
100
AcDbLine
 10
8387318.18024558
 20
5690889.813626738
 30
0.0
 11
8387318.239646379
 21
5690889.767327747
 31
0.0
  0
LINE
  5
453
330
40D
100
AcDbEntity
  8
SZR__APM_Bruk
  6
ByBlock
 62
     5
370
    -3
100
AcDbLine
 10
8387318.59457969
 20
5690889.490680725
 30
0.0
 11
8387318.598079087
 21
5690889.487953177
 31
0.0
  0
LINE
  5
454
330
40D
100
AcDbEntity
  8
SZR__APM_Bruk
  6
ByBlock
 62
     5
370
    -3
100
AcDbLine
 10
8387318.145816161
 20
5690889.883707693
 30
0.0
 11
8387318.186323206
 21
5690889.935677528
 31
0.0
  0
LINE
  5
455
330
40D
100
AcDbEntity
  8
SZR__APM_Bruk
  6
ByBlock
 62
     5
370
    -3
100
AcDbLine
 10
8387317.987595896
 20
5690890.006047178
 30
0.0
 11
8387318.028579439
 21
5690890.05862835
 31
0.0
  0
LINE
  5
456
330
40D
100
AcDbEntity
  8
SZR__APM_Bruk
  6
ByBlock
 62
     5
370
    -3
100
AcDbLine
 10
8387317.336128973
 20
5690890.471559757
 30
0.0
 11
8387317.397604384
 21
5690890.550431639
 31
0.0
  0
LINE
  5
457
330
40D
100
AcDbEntity
  8
SZR__APM_Bruk
  6
ByBlock
 62
     5
370
    -3
100
AcDbLine
 10
8387317.17838521
 20
5690890.594510581
 30
0.0
 11
8387317.239860621
 21
5690890.673382463
 31
0.0
  0
LINE
  5
458
330
40D
100
AcDbEntity
  8
SZR__APM_Bruk
  6
ByBlock
 62
     5
370
    -3
100
AcDbLine
 10
8387316.64061712
 20
5690890.886877313
 30
0.0
 11
8387317.384225017
 21
5690890.30728418
 31
0.0
  0
LINE
  5
459
330
40D
100
AcDbEntity
  8
SZR__APM_Bruk
  6
ByBlock
 62
     5
370
    -3
100
AcDbLine
 10
8387317.857456308
 20
5690889.938431713
 30
0.0
 11
8387317.882458415
 21
5690889.918944226
 31
0.0
  0
LINE
  5
45A
330
40D
100
AcDbEntity
  8
SZR__APM_Bruk
  6
ByBlock
 62
     5
370
    -3
100
AcDbLine
 10
8387318.119075839
 20
5690889.734516606
 30
0.0
 11
8387318.177583606
 21
5690889.688913675
 31
0.0
  0
LINE
  5
45B
330
40D
100
AcDbEntity
  8
SZR__APM_Bruk
  6
ByBlock
 62
     5
370
    -3
100
AcDbLine
 10
8387318.532516918
 20
5690889.412266654
 30
0.0
 11
8387318.536603675
 21
5690889.409081295
 31
0.0
  0
LINE
  5
45C
330
40D
100
AcDbEntity
  8
SZR__APM_Bruk
  6
ByBlock
 62
     5
370
    -3
100
AcDbLine
 10
8387318.144640502
 20
5690889.714590645
 30
0.0
 11
8387318.206115912
 21
5690889.793462526
 31
0.0
  0
LINE
  5
45D
330
40D
100
AcDbEntity
  8
SZR__APM_Bruk
  6
ByBlock
 62
     5
370
    -3
100
AcDbLine
 10
8387317.355921682
 20
5690890.329344758
 30
0.0
 11
8387317.417397094
 21
5690890.408216638
 31
0.0
  0
LINE
  5
45E
330
40D
100
AcDbEntity
  8
SZR__APM_Bruk
  6
ByBlock
 62
     5
370
    -3
100
AcDbLine
 10
8387317.198177917
 20
5690890.45229558
 30
0.0
 11
8387317.259653329
 21
5690890.531167461
 31
0.0
  0
LINE
  5
45F
330
40D
100
AcDbEntity
  8
SZR__APM_Bruk
  6
ByBlock
 62
     5
370
    -3
100
AcDbLine
 10
8387317.040434151
 20
5690890.575246402
 30
0.0
 11
8387317.101909562
 21
5690890.654118284
 31
0.0
  0
LINE
  5
460
330
40D
100
AcDbEntity
  8
SZR__APM_Bruk
  6
ByBlock
 62
     5
370
    -3
100
AcDbLine
 10
8387316.57914171
 20
5690890.808005432
 30
0.0
 11
8387317.322749606
 21
5690890.228412298
 31
0.0
  0
LINE
  5
461
330
40D
100
AcDbEntity
  8
SZR__APM_Bruk
  6
ByBlock
 62
     5
370
    -3
100
AcDbLine
 10
8387317.795980898
 20
5690889.85955983
 30
0.0
 11
8387317.821288673
 21
5690889.839834094
 31
0.0
  0
LINE
  5
462
330
40D
100
AcDbEntity
  8
SZR__APM_Bruk
  6
ByBlock
 62
     5
370
    -3
100
AcDbLine
 10
8387318.057906098
 20
5690889.655406476
 30
0.0
 11
8387318.115520834
 21
5690889.610499602
 31
0.0
  0
LINE
  5
463
330
40D
100
AcDbEntity
  8
SZR__APM_Bruk
  6
ByBlock
 62
     5
370
    -3
100
AcDbLine
 10
8387318.470454145
 20
5690889.33385258
 30
0.0
 11
8387318.475128266
 21
5690889.330209413
 31
0.0
  0
LINE
  5
464
330
40D
100
AcDbEntity
  8
SZR__APM_Bruk
  6
ByBlock
 62
     5
370
    -3
100
AcDbLine
 10
8387317.21317815
 20
5690890.313815994
 30
0.0
 11
8387317.274653561
 21
5690890.392687875
 31
0.0
  0
LINE
  5
465
330
40D
100
AcDbEntity
  8
SZR__APM_Bruk
  6
ByBlock
 62
     5
370
    -3
100
AcDbLine
 10
8387317.055434388
 20
5690890.436766817
 30
0.0
 11
8387317.116909798
 21
5690890.515638699
 31
0.0
  0
LINE
  5
466
330
40D
100
AcDbEntity
  8
SZR__APM_Bruk
  6
ByBlock
 62
     5
370
    -3
100
AcDbLine
 10
8387316.836215209
 20
5690890.480845759
 30
0.0
 11
8387318.413652854
 21
5690889.251337531
 31
0.0
  0
LINE
  5
467
330
40D
100
AcDbEntity
  8
SZR__APM_Bruk
  6
ByBlock
 62
     5
370
    -3
100
AcDbLine
 10
8387318.337177209
 20
5690889.310945236
 30
0.0
 11
8387318.345220966
 21
5690889.321265237
 31
0.0
  0
LINE
  5
468
330
40D
100
AcDbEntity
  8
SZR__APM_Bruk
  6
ByBlock
 62
     5
370
    -3
100
AcDbLine
 10
8387318.179433444
 20
5690889.433896058
 30
0.0
 11
8387318.188392821
 21
5690889.445390781
 31
0.0
  0
LINE
  5
469
330
40D
100
AcDbEntity
  8
SZR__APM_Bruk
  6
ByBlock
 62
     5
370
    -3
100
AcDbLine
 10
8387318.021689679
 20
5690889.55684688
 30
0.0
 11
8387318.083165091
 21
5690889.635718763
 31
0.0
  0
LINE
  5
46A
330
40D
100
AcDbEntity
  8
SZR__APM_Bruk
  6
ByBlock
 62
     5
370
    -3
100
AcDbLine
 10
8387317.863945916
 20
5690889.679797703
 30
0.0
 11
8387317.884681886
 21
5690889.706401589
 31
0.0
  0
LINE
  5
46B
330
40D
100
AcDbEntity
  8
SZR__APM_Bruk
  6
ByBlock
 62
     5
370
    -3
100
AcDbLine
 10
8387317.232970859
 20
5690890.171600992
 30
0.0
 11
8387317.294446271
 21
5690890.250472875
 31
0.0
  0
LINE
  5
46C
330
40D
100
AcDbEntity
  8
SZR__APM_Bruk
  6
ByBlock
 62
     5
370
    -3
100
AcDbLine
 10
8387317.075227095
 20
5690890.294551816
 30
0.0
 11
8387317.136702506
 21
5690890.373423697
 31
0.0
  0
LINE
  5
46D
330
40D
100
AcDbEntity
  8
SZR__APM_Bruk
  6
ByBlock
 62
     5
370
    -3
100
AcDbLine
 10
8387316.91748333
 20
5690890.417502638
 30
0.0
 11
8387316.978958741
 21
5690890.49637452
 31
0.0
  0
LINE
  5
46E
330
40D
100
AcDbEntity
  8
SZR__APM_Bruk
  6
ByBlock
 62
     5
370
    -3
100
AcDbLine
 10
8387315.660450202
 20
5690889.623003186
 30
0.0
 11
8387316.521105956
 21
5690890.72720953
 31
0.0
  0
LINE
  5
46F
330
40D
100
AcDbEntity
  8
SZR__APM_Bruk
  6
ByBlock
 62
     5
370
    -3
100
AcDbLine
 10
8387316.291046989
 20
5690889.130737769
 30
0.0
 11
8387317.151702744
 21
5690890.234944114
 31
0.0
  0
LINE
  5
470
330
40D
100
AcDbEntity
  8
SZR__APM_Bruk
  6
ByBlock
 62
     5
370
    -3
100
AcDbLine
 10
8387317.251542853
 20
5690891.171428517
 30
0.0
 11
8387317.313018264
 21
5690891.250300397
 31
0.0
  0
LINE
  5
471
330
40D
100
AcDbEntity
  8
SZR__APM_Bruk
  6
ByBlock
 62
     5
370
    -3
100
AcDbLine
 10
8387317.266543089
 20
5690891.032948932
 30
0.0
 11
8387317.328018498
 21
5690891.111820814
 31
0.0
  0
LINE
  5
472
330
40D
100
AcDbEntity
  8
SZR__APM_Bruk
  6
ByBlock
 62
     5
370
    -3
100
AcDbLine
 10
8387317.128592032
 20
5690891.013684754
 30
0.0
 11
8387317.190067443
 21
5690891.092556636
 31
0.0
  0
LINE
  5
473
330
40D
100
AcDbEntity
  8
SZR__APM_Bruk
  6
ByBlock
 62
     5
370
    -3
100
AcDbLine
 10
8387317.143592266
 20
5690890.875205167
 30
0.0
 11
8387317.205067677
 21
5690890.954077048
 31
0.0
  0
LINE
  5
474
330
40D
100
AcDbEntity
  8
SZR__APM_Bruk
  6
ByBlock
 62
     5
370
    -3
100
AcDbLine
 10
8387317.005641209
 20
5690890.855940989
 30
0.0
 11
8387317.067116621
 21
5690890.934812871
 31
0.0
  0
LINE
  5
475
330
40D
100
AcDbEntity
  8
SZR__APM_Bruk
  6
ByBlock
 62
     5
370
    -3
100
AcDbLine
 10
8387317.020641443
 20
5690890.717461404
 30
0.0
 11
8387317.082116856
 21
5690890.796333286
 31
0.0
  0
LINE
  5
476
330
40D
100
AcDbEntity
  8
SZR__APM_Bruk
  6
ByBlock
 62
     5
370
    -3
100
AcDbLine
 10
8387316.882690386
 20
5690890.698197225
 30
0.0
 11
8387316.944165798
 21
5690890.777069106
 31
0.0
  0
LINE
  5
477
330
40D
100
AcDbEntity
  8
SZR__APM_Bruk
  6
ByBlock
 62
     5
370
    -3
100
AcDbLine
 10
8387316.897690622
 20
5690890.559717639
 30
0.0
 11
8387316.959166032
 21
5690890.638589521
 31
0.0
  0
LINE
  5
478
330
40D
100
AcDbEntity
  8
SZR__APM_Bruk
  6
ByBlock
 62
     5
370
    -3
100
AcDbLine
 10
8387316.759739565
 20
5690890.540453461
 30
0.0
 11
8387316.821214977
 21
5690890.619325343
 31
0.0
  0
LINE
  5
479
330
40D
100
AcDbEntity
  8
SZR__APM_Bruk
  6
ByBlock
 62
     5
370
    -3
100
AcDbLine
 10
8387316.61699604
 20
5690890.524924699
 30
0.0
 11
8387316.678471449
 21
5690890.603796582
 31
0.0
  0
LINE
  5
47A
330
40D
100
AcDbEntity
  8
SZR__APM_Bruk
  6
ByBlock
 62
     5
370
    -3
100
AcDbLine
 10
8387316.397788106
 20
5690890.568994878
 30
0.0
 11
8387317.028751921
 21
5690890.077200349
 31
0.0
  0
LINE
  5
47B
330
40D
100
AcDbEntity
  8
SZR__APM_Bruk
  6
ByBlock
 62
     5
370
    -3
100
AcDbLine
 10
8387316.274837285
 20
5690890.411251115
 30
0.0
 11
8387316.9058011
 21
5690889.919456586
 31
0.0
  0
LINE
  5
47C
330
40D
100
AcDbEntity
  8
SZR__APM_Bruk
  6
ByBlock
 62
     5
370
    -3
100
AcDbLine
 10
8387316.151886464
 20
5690890.253507351
 30
0.0
 11
8387316.782850277
 21
5690889.761712822
 31
0.0
  0
LINE
  5
47D
330
40D
100
AcDbEntity
  8
SZR__APM_Bruk
  6
ByBlock
 62
     5
370
    -3
100
AcDbLine
 10
8387316.090411053
 20
5690890.174635471
 30
0.0
 11
8387316.721374865
 21
5690889.682840942
 31
0.0
  0
LINE
  5
47E
330
40D
100
AcDbEntity
  8
SZR__APM_Bruk
  6
ByBlock
 62
     5
370
    -3
100
AcDbLine
 10
8387316.563631101
 20
5690889.805791764
 30
0.0
 11
8387316.625106512
 21
5690889.884663647
 31
0.0
  0
LINE
  5
47F
330
40D
100
AcDbEntity
  8
SZR__APM_Bruk
  6
ByBlock
 62
     5
370
    -3
100
AcDbLine
 10
8387316.405887338
 20
5690889.928742587
 30
0.0
 11
8387316.467362749
 21
5690890.007614469
 31
0.0
  0
LINE
  5
480
330
40D
100
AcDbEntity
  8
SZR__APM_Bruk
  6
ByBlock
 62
     5
370
    -3
100
AcDbLine
 10
8387316.028935639
 20
5690890.095763587
 30
0.0
 11
8387316.659899454
 21
5690889.60396906
 31
0.0
  0
LINE
  5
481
330
40D
100
AcDbEntity
  8
SZR__APM_Bruk
  6
ByBlock
 62
     5
370
    -3
100
AcDbLine
 10
8387316.583423809
 20
5690889.663576764
 30
0.0
 11
8387316.64489922
 21
5690889.742448645
 31
0.0
  0
LINE
  5
482
330
40D
100
AcDbEntity
  8
SZR__APM_Bruk
  6
ByBlock
 62
     5
370
    -3
100
AcDbLine
 10
8387316.425680046
 20
5690889.786527586
 30
0.0
 11
8387316.487155457
 21
5690889.865399468
 31
0.0
  0
LINE
  5
483
330
40D
100
AcDbEntity
  8
SZR__APM_Bruk
  6
ByBlock
 62
     5
370
    -3
100
AcDbLine
 10
8387316.267936281
 20
5690889.909478409
 30
0.0
 11
8387316.329411691
 21
5690889.98835029
 31
0.0
  0
LINE
  5
484
330
40D
100
AcDbEntity
  8
SZR__APM_Bruk
  6
ByBlock
 62
     5
370
    -3
100
AcDbLine
 10
8387315.96746023
 20
5690890.016891708
 30
0.0
 11
8387316.598424044
 21
5690889.525097177
 31
0.0
  0
LINE
  5
485
330
40D
100
AcDbEntity
  8
SZR__APM_Bruk
  6
ByBlock
 62
     5
370
    -3
100
AcDbLine
 10
8387316.440680278
 20
5690889.648048
 30
0.0
 11
8387316.502155689
 21
5690889.726919883
 31
0.0
  0
LINE
  5
486
330
40D
100
AcDbEntity
  8
SZR__APM_Bruk
  6
ByBlock
 62
     5
370
    -3
100
AcDbLine
 10
8387316.282936517
 20
5690889.770998823
 30
0.0
 11
8387316.344411926
 21
5690889.849870704
 31
0.0
  0
LINE
  5
487
330
40D
100
AcDbEntity
  8
SZR__APM_Bruk
  6
ByBlock
 62
     5
370
    -3
100
AcDbLine
 10
8387315.905984817
 20
5690889.938019823
 30
0.0
 11
8387316.536948633
 21
5690889.446225297
 31
0.0
  0
LINE
  5
488
330
40D
100
AcDbEntity
  8
SZR__APM_Bruk
  6
ByBlock
 62
     5
370
    -3
100
AcDbLine
 10
8387316.460472986
 20
5690889.505833
 30
0.0
 11
8387316.521948397
 21
5690889.584704881
 31
0.0
  0
LINE
  5
489
330
40D
100
AcDbEntity
  8
SZR__APM_Bruk
  6
ByBlock
 62
     5
370
    -3
100
AcDbLine
 10
8387316.302729223
 20
5690889.628783822
 30
0.0
 11
8387316.364204634
 21
5690889.707655704
 31
0.0
  0
LINE
  5
48A
330
40D
100
AcDbEntity
  8
SZR__APM_Bruk
  6
ByBlock
 62
     5
370
    -3
100
AcDbLine
 10
8387316.144985458
 20
5690889.751734645
 30
0.0
 11
8387316.206460869
 21
5690889.830606526
 31
0.0
  0
LINE
  5
48B
330
40D
100
AcDbEntity
  8
SZR__APM_Bruk
  6
ByBlock
 62
     5
370
    -3
100
AcDbLine
 10
8387315.844509407
 20
5690889.859147944
 30
0.0
 11
8387316.475473221
 21
5690889.367353414
 31
0.0
  0
LINE
  5
48C
330
40D
100
AcDbEntity
  8
SZR__APM_Bruk
  6
ByBlock
 62
     5
370
    -3
100
AcDbLine
 10
8387316.317729457
 20
5690889.490304238
 30
0.0
 11
8387316.379204868
 21
5690889.569176119
 31
0.0
  0
LINE
  5
48D
330
40D
100
AcDbEntity
  8
SZR__APM_Bruk
  6
ByBlock
 62
     5
370
    -3
100
AcDbLine
 10
8387316.159985694
 20
5690889.613255059
 30
0.0
 11
8387316.221461103
 21
5690889.692126942
 31
0.0
  0
LINE
  5
48E
330
40D
100
AcDbEntity
  8
SZR__APM_Bruk
  6
ByBlock
 62
     5
370
    -3
100
AcDbLine
 10
8387315.783033994
 20
5690889.78027606
 30
0.0
 11
8387316.41399781
 21
5690889.288481533
 31
0.0
  0
LINE
  5
48F
330
40D
100
AcDbEntity
  8
SZR__APM_Bruk
  6
ByBlock
 62
     5
370
    -3
100
AcDbLine
 10
8387316.337522165
 20
5690889.348089236
 30
0.0
 11
8387316.398997574
 21
5690889.426961119
 31
0.0
  0
LINE
  5
490
330
40D
100
AcDbEntity
  8
SZR__APM_Bruk
  6
ByBlock
 62
     5
370
    -3
100
AcDbLine
 10
8387316.1797784
 20
5690889.471040058
 30
0.0
 11
8387316.241253811
 21
5690889.549911941
 31
0.0
  0
LINE
  5
491
330
40D
100
AcDbEntity
  8
SZR__APM_Bruk
  6
ByBlock
 62
     5
370
    -3
100
AcDbLine
 10
8387316.022034635
 20
5690889.593990882
 30
0.0
 11
8387316.083510047
 21
5690889.672862763
 31
0.0
  0
LINE
  5
492
330
40D
100
AcDbEntity
  8
SZR__APM_Bruk
  6
ByBlock
 62
     5
370
    -3
100
AcDbLine
 10
8387315.721558586
 20
5690889.70140418
 30
0.0
 11
8387316.352522399
 21
5690889.20960965
 31
0.0
  0
LINE
  5
493
330
40D
100
AcDbEntity
  8
SZR__APM_Bruk
  6
ByBlock
 62
     5
370
    -3
100
AcDbLine
 10
8387316.194778632
 20
5690889.332560474
 30
0.0
 11
8387316.256254045
 21
5690889.411432357
 31
0.0
  0
LINE
  5
494
330
40D
100
AcDbEntity
  8
SZR__APM_Bruk
  6
ByBlock
 62
     5
370
    -3
100
AcDbLine
 10
8387316.037034871
 20
5690889.455511296
 30
0.0
 11
8387316.098510281
 21
5690889.534383178
 31
0.0
  0
LINE
  5
495
102
{ACAD_REACTORS
330
4D6
102
}
330
40D
100
AcDbEntity
  8
SZR__APM_Bruk
  6
ByBlock
 62
     5
370
    -3
100
AcDbLine
 10
8387315.661551356
 20
5690889.624415951
 30
0.0
 11
8387316.291046987
 21
5690889.13073777
 31
0.0
  0
LINE
  5
496
330
40D
100
AcDbEntity
  8
SZR__APM_Bruk
  6
ByBlock
 62
     5
370
    -3
100
AcDbLine
 10
8387316.21457134
 20
5690889.190345473
 30
0.0
 11
8387316.276046753
 21
5690889.269217355
 31
0.0
  0
LINE
  5
497
330
40D
100
AcDbEntity
  8
SZR__APM_Bruk
  6
ByBlock
 62
     5
370
    -3
100
AcDbLine
 10
8387316.056827579
 20
5690889.313296296
 30
0.0
 11
8387316.118302988
 21
5690889.392168177
 31
0.0
  0
LINE
  5
498
330
40D
100
AcDbEntity
  8
SZR__APM_Bruk
  6
ByBlock
 62
     5
370
    -3
100
AcDbLine
 10
8387315.899083812
 20
5690889.436247118
 30
0.0
 11
8387315.960559224
 21
5690889.515119001
 31
0.0
  0
LINE
  5
499
330
40D
100
AcDbEntity
  8
SZR__APM_Bruk
  6
ByBlock
 62
     5
370
    -3
100
AcDbLine
 10
8387318.37074944
 20
5690890.172293173
 30
0.0
 11
8387318.432224851
 21
5690890.251165053
 31
0.0
  0
LINE
  5
49A
330
40D
100
AcDbEntity
  8
SZR__APM_Bruk
  6
ByBlock
 62
     5
370
    -3
100
AcDbLine
 10
8387318.213005679
 20
5690890.295243995
 30
0.0
 11
8387318.274481089
 21
5690890.374115877
 31
0.0
  0
LINE
  5
49B
330
40D
100
AcDbEntity
  8
SZR__APM_Bruk
  6
ByBlock
 62
     5
370
    -3
100
AcDbLine
 10
8387318.055261914
 20
5690890.418194817
 30
0.0
 11
8387318.116737326
 21
5690890.497066699
 31
0.0
  0
LINE
  5
49C
330
40D
100
AcDbEntity
  8
SZR__APM_Bruk
  6
ByBlock
 62
     5
370
    -3
100
AcDbLine
 10
8387317.897518151
 20
5690890.541145639
 30
0.0
 11
8387317.958993563
 21
5690890.620017521
 31
0.0
  0
LINE
  5
49D
330
40D
100
AcDbEntity
  8
SZR__APM_Bruk
  6
ByBlock
 62
     5
370
    -3
100
AcDbLine
 10
8387318.198005441
 20
5690890.43372358
 30
0.0
 11
8387318.259480851
 21
5690890.512595461
 31
0.0
  0
LINE
  5
49E
330
40D
100
AcDbEntity
  8
SZR__APM_Bruk
  6
ByBlock
 62
     5
370
    -3
100
AcDbLine
 10
8387318.040261677
 20
5690890.556674402
 30
0.0
 11
8387318.10173709
 21
5690890.635546284
 31
0.0
  0
LINE
  5
49F
330
40D
100
AcDbEntity
  8
SZR__APM_Bruk
  6
ByBlock
 62
     5
370
    -3
100
AcDbLine
 10
8387317.878487593
 20
5690890.682766593
 30
0.0
 11
8387317.939963004
 21
5690890.761638476
 31
0.0
  0
LINE
  5
4A0
330
40D
100
AcDbEntity
  8
SZR__APM_Bruk
  6
ByBlock
 62
     5
370
    -3
100
AcDbLine
 10
8387317.739774388
 20
5690890.664096461
 30
0.0
 11
8387317.8012498
 21
5690890.742968344
 31
0.0
  0
LINE
  5
4A1
330
40D
100
AcDbEntity
  8
SZR__APM_Bruk
  6
ByBlock
 62
     5
370
    -3
100
AcDbLine
 10
8387318.232798383
 20
5690890.153028995
 30
0.0
 11
8387318.294273795
 21
5690890.231900876
 31
0.0
  0
LINE
  5
4A2
330
40D
100
AcDbEntity
  8
SZR__APM_Bruk
  6
ByBlock
 62
     5
370
    -3
100
AcDbLine
 10
8387318.07505462
 20
5690890.275979817
 30
0.0
 11
8387318.13653003
 21
5690890.354851699
 31
0.0
  0
LINE
  5
4A3
330
40D
100
AcDbEntity
  8
SZR__APM_Bruk
  6
ByBlock
 62
     5
370
    -3
100
AcDbLine
 10
8387317.917310857
 20
5690890.39893064
 30
0.0
 11
8387317.978786267
 21
5690890.477802521
 31
0.0
  0
LINE
  5
4A4
330
40D
100
AcDbEntity
  8
SZR__APM_Bruk
  6
ByBlock
 62
     5
370
    -3
100
AcDbLine
 10
8387317.759567094
 20
5690890.521881462
 30
0.0
 11
8387317.821042506
 21
5690890.600753342
 31
0.0
  0
LINE
  5
4A5
330
40D
100
AcDbEntity
  8
SZR__APM_Bruk
  6
ByBlock
 62
     5
370
    -3
100
AcDbLine
 10
8387318.247798619
 20
5690890.014549408
 30
0.0
 11
8387318.309274029
 21
5690890.093421289
 31
0.0
  0
LINE
  5
4A6
330
40D
100
AcDbEntity
  8
SZR__APM_Bruk
  6
ByBlock
 62
     5
370
    -3
100
AcDbLine
 10
8387318.090054854
 20
5690890.13750023
 30
0.0
 11
8387318.151530266
 21
5690890.216372111
 31
0.0
  0
LINE
  5
4A7
330
40D
100
AcDbEntity
  8
SZR__APM_Bruk
  6
ByBlock
 62
     5
370
    -3
100
AcDbLine
 10
8387317.932311091
 20
5690890.260451052
 30
0.0
 11
8387317.993786503
 21
5690890.339322934
 31
0.0
  0
LINE
  5
4A8
330
40D
100
AcDbEntity
  8
SZR__APM_Bruk
  6
ByBlock
 62
     5
370
    -3
100
AcDbLine
 10
8387317.774567327
 20
5690890.383401875
 30
0.0
 11
8387317.836042738
 21
5690890.462273756
 31
0.0
  0
LINE
  5
4A9
330
40D
100
AcDbEntity
  8
SZR__APM_Bruk
  6
ByBlock
 62
     5
370
    -3
100
AcDbLine
 10
8387317.616823564
 20
5690890.506352697
 30
0.0
 11
8387317.678298975
 21
5690890.585224578
 31
0.0
  0
LINE
  5
4AA
330
40D
100
AcDbEntity
  8
SZR__APM_Bruk
  6
ByBlock
 62
     5
370
    -3
100
AcDbLine
 10
8387318.10984756
 20
5690889.995285231
 30
0.0
 11
8387318.171322972
 21
5690890.074157112
 31
0.0
  0
LINE
  5
4AB
330
40D
100
AcDbEntity
  8
SZR__APM_Bruk
  6
ByBlock
 62
     5
370
    -3
100
AcDbLine
 10
8387317.952103797
 20
5690890.118236052
 30
0.0
 11
8387318.013579209
 21
5690890.197107933
 31
0.0
  0
LINE
  5
4AC
330
40D
100
AcDbEntity
  8
SZR__APM_Bruk
  6
ByBlock
 62
     5
370
    -3
100
AcDbLine
 10
8387317.794360034
 20
5690890.241186874
 30
0.0
 11
8387317.855835446
 21
5690890.320058755
 31
0.0
  0
LINE
  5
4AD
330
40D
100
AcDbEntity
  8
SZR__APM_Bruk
  6
ByBlock
 62
     5
370
    -3
100
AcDbLine
 10
8387317.632585947
 20
5690890.367279066
 30
0.0
 11
8387317.694061358
 21
5690890.446150947
 31
0.0
  0
LINE
  5
4AE
330
40D
100
AcDbEntity
  8
0
 62
     7
100
AcDbLine
 10
8387318.199230096
 20
5690889.389308707
 30
0.0
 11
8387316.8730625
 21
5690888.019688404
 31
0.0
  0
LINE
  5
4AF
330
40D
100
AcDbEntity
  8
0
 62
     7
100
AcDbLine
 10
8387312.066904367
 20
5690888.019688404
 30
0.0
 11
8387316.8730625
 21
5690888.019688404
 31
0.0
  0
MTEXT
  5
4B0
330
40D
100
AcDbEntity
  8
SZR_APM
 62
     7
370
     5
100
AcDbMText
 10
8387312.015895622
 20
5690888.501417407
 30
0.0
 40
0.3
 41
5.547178841196
 46
0.0
 71
     1
 72
     5
  1
{\fVerdana|b0|i0|c238|p34;Czujnik nieinwazyjny}
 73
     1
 44
1.0
101
Embedded Object
 70
     1
 10
1.0
 20
0.0
 30
0.0
 11
8387312.015895622
 21
5690888.501417407
 31
0.0
 40
5.547178841196
 41
0.0
 42
4.324513096037609
 43
0.3987239758226998
 71
     2
 72
     1
 44
5.547178841196
 45
12.5
 73
     0
 74
     0
 46
0.0
  0
MTEXT
  5
4B1
330
40D
100
AcDbEntity
  8
SZR_APM
 62
     7
370
     5
100
AcDbMText
 10
8387312.628579334
 20
5690891.90133331
 30
0.0
 40
0.3
 41
5.547178841196
 46
0.0
 71
     1
 72
     5
  1
{\fVerdana|b0|i0|c238|p34;Szafa teletechniczna \Ptyp: SZA}
 73
     1
 44
1.0
101
Embedded Object
 70
     1
 10
1.0
 20
0.0
 30
0.0
 11
8387312.628579334
 21
5690891.90133331
 31
0.0
 40
5.547178841196
 41
0.0
 42
4.188918737407655
 43
0.9039623908663532
 71
     2
 72
     1
 44
5.547178841196
 45
12.5
 73
     0
 74
     0
 46
0.0
  0
LINE
  5
4B2
330
40D
100
AcDbEntity
  8
0
 62
     7
100
AcDbLine
 10
8387318.948415211
 20
5690887.981468559
 30
0.0
 11
8387323.754573346
 21
5690887.981468559
 31
0.0
  0
MTEXT
  5
4B3
330
40D
100
AcDbEntity
  8
SZR_APM
 62
     7
370
     5
100
AcDbMText
 10
8387319.192152553
 20
5690888.358586617
 30
0.0
 40
0.3
 41
5.547178841196
 46
0.0
 71
     1
 72
     5
  1
{\fVerdana|b0|i0|c238|p34;Osłona przeciwbłotna}
 73
     1
 44
1.0
101
Embedded Object
 70
     1
 10
1.0
 20
0.0
 30
0.0
 11
8387319.192152553
 21
5690888.358586617
 31
0.0
 40
5.547178841196
 41
0.0
 42
4.360577568838146
 43
0.396507723304231
 71
     2
 72
     1
 44
5.547178841196
 45
12.5
 73
     0
 74
     0
 46
0.0
  0
LINE
  5
4B4
330
40D
100
AcDbEntity
  8
0
 62
     7
100
AcDbLine
 10
8387318.948415211
 20
5690887.981468559
 30
0.0
 11
8387318.423428848
 21
5690889.180630297
 31
0.0
  0
LINE
  5
4B5
330
40D
100
AcDbEntity
  8
0
 62
     7
100
AcDbLine
 10
8387317.389493912
 20
5690891.190692696
 30
0.0
 11
8387318.255455401
 21
5690892.76168496
 31
0.0
  0
LINE
  5
4B6
330
40D
100
AcDbEntity
  8
0
 62
     7
100
AcDbLine
 10
8387318.255455401
 20
5690892.76168496
 30
0.0
 11
8387315.270723116
 21
5690892.761853075
 31
0.0
  0
MTEXT
  5
4B7
330
40D
100
AcDbEntity
  8
SZR_APM
 62
     7
370
     5
100
AcDbMText
 10
8387315.242711535
 20
5690893.173473916
 30
0.0
 40
0.3
 41
5.547178841196
 46
0.0
 71
     1
 72
     5
  1
{\fVerdana|b0|i0|c238|p34;Azyl serwisowy\PBRUK}
 73
     1
 44
1.0
101
Embedded Object
 70
     1
 10
1.0
 20
0.0
 30
0.0
 11
8387315.242711535
 21
5690893.173473916
 31
0.0
 40
5.547178841196
 41
0.0
 42
3.118871725990597
 43
0.8197447951645399
 71
     2
 72
     1
 44
5.547178841196
 45
12.5
 73
     0
 74
     0
 46
0.0
  0
LINE
  5
4B8
330
40D
100
AcDbEntity
  8
0
 62
     7
100
AcDbLine
 10
8387321.036128554
 20
5690894.618503222
 30
0.0
 11
8387320.912450496
 21
5690894.51970808
 31
0.0
  0
LINE
  5
4B9
330
40D
100
AcDbEntity
  8
0
 62
     7
100
AcDbLine
 10
8387316.106292361
 20
5690894.51970808
 30
0.0
 11
8387320.912450496
 21
5690894.51970808
 31
0.0
  0
MTEXT
  5
4BA
330
40D
100
AcDbEntity
  8
SZR_APM
 62
     7
370
     5
100
AcDbMText
 10
8387316.055283616
 20
5690895.001437082
 30
0.0
 40
0.3
 41
5.547178841196
 46
0.0
 71
     1
 72
     5
  1
{\fVerdana|b0|i0|c238|p34;Kanał technologiczny \Pwg. odrębnego oprac.}
 73
     1
 44
1.0
101
Embedded Object
 70
     1
 10
1.0
 20
0.0
 30
0.0
 11
8387316.055283616
 21
5690895.001437082
 31
0.0
 40
5.547178841196
 41
0.0
 42
4.464137004701141
 43
0.9122229684351912
 71
     2
 72
     1
 44
5.547178841196
 45
12.5
 73
     0
 74
     0
 46
0.0
  0
LINE
  5
4BB
330
40D
100
AcDbEntity
  8
0
 62
     7
100
AcDbLine
 10
8387318.095298445
 20
5690889.806429064
 30
0.0
 11
8387319.693117742
 21
5690890.439249902
 31
0.0
  0
LINE
  5
4BC
330
40D
100
AcDbEntity
  8
0
 62
     7
100
AcDbLine
 10
8387319.693117742
 20
5690890.439249902
 30
0.0
 11
8387322.732899542
 21
5690890.439249902
 31
0.0
  0
MTEXT
  5
4BD
330
40D
100
AcDbEntity
  8
SZR_APM
 62
     7
370
     5
100
AcDbMText
 10
8387319.642108996
 20
5690890.920978904
 30
0.0
 40
0.3
 41
5.547178841196
 46
0.0
 71
     1
 72
     5
  1
{\fVerdana|b0|i0|c238|p34;Złącze OZ5-A2\Pwg. odr. oprac.}
 73
     1
 44
1.0
101
Embedded Object
 70
     1
 10
1.0
 20
0.0
 30
0.0
 11
8387319.642108996
 21
5690890.920978904
 31
0.0
 40
5.547178841196
 41
0.0
 42
3.096910678307589
 43
0.9122229684351912
 71
     2
 72
     1
 44
5.547178841196
 45
12.5
 73
     0
 74
     0
 46
0.0
  0
LINE
  5
4BE
330
40D
100
AcDbEntity
  8
0
100
AcDbLine
 10
8387316.860267894
 20
5690891.399875722
 30
0.0
 11
8387312.589974841
 21
5690891.400925208
 31
0.0
  0
LINE
  5
4BF
330
40D
100
AcDbEntity
  8
0
 62
     7
100
AcDbLine
 10
8387316.387148516
 20
5690890.504088704
 30
0.0
 11
8387315.929756926
 21
5690890.339701379
 31
0.0
  0
LINE
  5
4C0
330
40D
100
AcDbEntity
  8
0
 62
     7
100
AcDbLine
 10
8387315.929756926
 20
5690890.339701379
 30
0.0
 11
8387312.19610559
 21
5690890.341853251
 31
0.0
  0
MTEXT
  5
4C1
330
40D
100
AcDbEntity
  8
SZR_APM
 62
     7
370
     5
100
AcDbMText
 10
8387312.19610559
 20
5690890.747969945
 30
0.0
 40
0.3
 41
5.547178841196
 46
0.0
 71
     1
 72
     5
  1
{\fVerdana|b0|i0|c238|p34;Stopień skarpowy}
 73
     1
 44
1.0
101
Embedded Object
 70
     1
 10
1.0
 20
0.0
 30
0.0
 11
8387312.19610559
 21
5690890.747969945
 31
0.0
 40
5.547178841196
 41
0.0
 42
3.650570852921423
 43
0.4206850235057085
 71
     2
 72
     1
 44
5.547178841196
 45
12.5
 73
     0
 74
     0
 46
0.0
  0
DIMENSION
  5
4C2
330
40D
100
AcDbEntity
  8
wymiary
 62
     7
100
AcDbDimension
280
     0
  2
*D7
 10
8387319.243635667
 20
5690890.305444884
 30
0.0
 11
8387318.00918209
 21
5690891.25919679
 31
0.0
 70
   129
 71
     5
 42
2.403903261292725
 73
     0
 74
     0
 75
     0
  3
ISO-25
100
AcDbAlignedDimension
 13
8387317.254684504
 23
5690891.662986898
 33
0.0
 14
8387319.156964487
 24
5690890.193265239
 34
0.0
1001
ACAD
1000
DSTYLE
1002
{
1070
    41
1040
0.25
1070
    42
1040
0.0625
1070
    44
1040
0.125
1070
   140
1040
0.25
1070
   147
1040
0.0625
1002
}
  0
DIMENSION
  5
4C3
330
40D
100
AcDbEntity
  8
wymiary
 62
     7
100
AcDbDimension
280
     0
  2
*D8
 10
8387319.533929831
 20
5690889.899839028
 30
0.0
 11
8387319.101280453
 21
5690889.343944668
 31
0.0
 70
   129
  1
1,2
 71
     5
 42
1.199835972860455
 73
     0
 74
     0
 75
     0
  3
ISO-25
100
AcDbAlignedDimension
 13
8387318.413652852
 23
5690889.251337527
 33
0.0
 14
8387319.150585542
 24
5690890.198193681
 34
0.0
1001
ACAD
1000
DSTYLE
1002
{
1070
    41
1040
0.25
1070
    42
1040
0.0625
1070
    44
1040
0.125
1070
   140
1040
0.25
1070
   147
1040
0.0625
1002
}
  0
LINE
  5
4C4
330
40D
100
AcDbEntity
  8
0
 62
     7
100
AcDbLine
 10
8387315.355064901
 20
5690889.698380301
 30
0.0
 11
8387311.123651107
 21
5690889.699489851
 31
0.0
  0
MTEXT
  5
4C5
330
40D
100
AcDbEntity
  8
SZR_APM
 62
     7
370
     5
100
AcDbMText
 10
8387311.134291229
 20
5690890.143720562
 30
0.0
 40
0.3
 41
5.547178841196
 46
0.0
 71
     1
 72
     5
  1
{\fVerdana|b0|i0|c238|p34;Podejście serwisowe\PBRUK}
 73
     1
 44
1.0
101
Embedded Object
 70
     1
 10
1.0
 20
0.0
 30
0.0
 11
8387311.134291229
 21
5690890.143720562
 31
0.0
 40
5.547178841196
 41
0.0
 42
4.15446608462055
 43
0.8439220953660175
 71
     2
 72
     1
 44
5.547178841196
 45
12.5
 73
     0
 74
     0
 46
0.0
  0
DIMENSION
  5
4C6
330
40D
100
AcDbEntity
  8
wymiary
 62
     7
100
AcDbDimension
280
     0
  2
*D9
 10
8387317.475449219
 20
5690889.89501119
 30
0.0
 11
8387317.087050922
 21
5690889.397820659
 31
0.0
 70
   129
  1
1,3
 71
     5
 42
1.331417873501777
 73
     0
 74
     0
 75
     0
  3
ISO-25
100
AcDbAlignedDimension
 13
8387316.291046989
 23
5690889.130737769
 33
0.0
 14
8387317.110684787
 24
5690890.179960065
 34
0.0
1001
ACAD
1000
DSTYLE
1002
{
1070
    41
1040
0.25
1070
    42
1040
0.0625
1070
    44
1040
0.125
1070
   140
1040
0.25
1070
   147
1040
0.0625
1002
}
  0
LINE
  5
4C7
330
40D
100
AcDbEntity
  8
0
 62
     7
100
AcDbLine
 10
8387315.863745868
 20
5690889.716242476
 30
0.0
 11
8387315.354742439
 21
5690889.697040433
 31
0.0
  0
LINE
  5
4C8
330
40D
100
AcDbEntity
  8
SZR__APM_Bruk
  6
ByBlock
 62
     5
370
    -3
100
AcDbLine
 10
8387316.459263519
 20
5690890.647866762
 30
0.0
 11
8387317.090227332
 21
5690890.156072232
 31
0.0
  0
LINE
  5
4C9
330
40D
100
AcDbEntity
  8
SZR__APM_Bruk
  6
ByBlock
 62
     5
370
    -3
100
AcDbLine
 10
8387316.932483567
 20
5690890.279023054
 30
0.0
 11
8387316.993958979
 21
5690890.357894938
 31
0.0
  0
LINE
  5
4CA
330
40D
100
AcDbEntity
  8
SZR__APM_Bruk
  6
ByBlock
 62
     5
370
    -3
100
AcDbLine
 10
8387316.774739804
 20
5690890.401973876
 30
0.0
 11
8387316.836215214
 21
5690890.48084576
 31
0.0
  0
LINE
  5
4CB
330
40D
100
AcDbEntity
  8
SZR__APM_Bruk
  6
ByBlock
 62
     5
370
    -3
100
AcDbLine
 10
8387316.952276275
 20
5690890.136808055
 30
0.0
 11
8387317.013751687
 21
5690890.215679936
 31
0.0
  0
LINE
  5
4CC
330
40D
100
AcDbEntity
  8
SZR__APM_Bruk
  6
ByBlock
 62
     5
370
    -3
100
AcDbLine
 10
8387316.794532512
 20
5690890.259758877
 30
0.0
 11
8387316.856007922
 21
5690890.338630758
 31
0.0
  0
LINE
  5
4CD
330
40D
100
AcDbEntity
  8
SZR__APM_Bruk
  6
ByBlock
 62
     5
370
    -3
100
AcDbLine
 10
8387316.636788748
 20
5690890.3827097
 30
0.0
 11
8387316.698264157
 21
5690890.461581581
 31
0.0
  0
LINE
  5
4CE
330
40D
100
AcDbEntity
  8
SZR__APM_Bruk
  6
ByBlock
 62
     5
370
    -3
100
AcDbLine
 10
8387316.213361874
 20
5690890.332379234
 30
0.0
 11
8387316.844325688
 21
5690889.840584705
 31
0.0
  0
LINE
  5
4CF
330
40D
100
AcDbEntity
  8
SZR__APM_Bruk
  6
ByBlock
 62
     5
370
    -3
100
AcDbLine
 10
8387316.686581923
 20
5690889.963535528
 30
0.0
 11
8387316.748057333
 21
5690890.04240741
 31
0.0
  0
LINE
  5
4D0
330
40D
100
AcDbEntity
  8
SZR__APM_Bruk
  6
ByBlock
 62
     5
370
    -3
100
AcDbLine
 10
8387316.528838159
 20
5690890.08648635
 30
0.0
 11
8387316.59031357
 21
5690890.165358232
 31
0.0
  0
LINE
  5
4D1
330
40D
100
AcDbEntity
  8
SZR__APM_Bruk
  6
ByBlock
 62
     5
370
    -3
100
AcDbLine
 10
8387316.70637463
 20
5690889.821320527
 30
0.0
 11
8387316.767850041
 21
5690889.900192408
 31
0.0
  0
LINE
  5
4D2
330
40D
100
AcDbEntity
  8
SZR__APM_Bruk
  6
ByBlock
 62
     5
370
    -3
100
AcDbLine
 10
8387316.548630867
 20
5690889.944271349
 30
0.0
 11
8387316.610106278
 21
5690890.023143231
 31
0.0
  0
LINE
  5
4D3
330
40D
100
AcDbEntity
  8
SZR__APM_Bruk
  6
ByBlock
 62
     5
370
    -3
100
AcDbLine
 10
8387316.390887102
 20
5690890.067222173
 30
0.0
 11
8387316.452362513
 21
5690890.146094054
 31
0.0
  0
DIMENSION
  5
4D4
102
{ACAD_XDICTIONARY
360
4D5
102
}
102
{ACAD_REACTORS
330
4D6
102
}
330
40D
100
AcDbEntity
  8
wymiary
 62
     7
100
AcDbDimension
280
     0
  2
*D10
 10
8387315.949078361
 20
5690888.694687868
 30
0.0
 11
8387315.642472453
 21
5690888.935141714
 31
0.0
 70
   129
 71
     5
 42
0.7999900141730905
 73
     0
 74
     0
 75
     0
  3
ISO-25
100
AcDbAlignedDimension
 13
8387315.661551356
 23
5690889.624415951
 33
0.0
 14
8387316.291047545
 24
5690889.130737335
 34
0.0
1001
ACAD
1000
DSTYLE
1002
{
1070
    41
1040
0.25
1070
    42
1040
0.0625
1070
    44
1040
0.125
1070
   140
1040
0.25
1070
   147
1040
0.0625
1002
}
  0
LINE
  5
4D7
330
40D
100
AcDbEntity
  8
wymiary
  6
ByBlock
 62
     5
100
AcDbLine
 10
8387317.15170274
 20
5690890.234944109
 30
0.0
 11
8387317.309446506
 21
5690890.11199329
 31
0.0
  0
LINE
  5
4D8
330
40D
100
AcDbEntity
  8
SZR__APM_Bruk
  6
ByBlock
 62
     5
370
    -3
100
AcDbLine
 10
8387315.741707102
 20
5690889.559668865
 30
0.0
 11
8387315.803182511
 21
5690889.638540745
 31
0.0
  0
LINE
  5
4D9
330
40D
100
AcDbEntity
  8
SZR__APM_Bruk
  6
ByBlock
 62
     5
370
    -3
100
AcDbLine
 10
8387315.878746104
 20
5690889.577762891
 30
0.0
 11
8387315.940221515
 21
5690889.656634773
 31
0.0
  0
LINE
  5
4DA
330
40D
100
AcDbEntity
  8
SZR__APM_Bruk
  6
ByBlock
 62
     5
370
    -3
100
AcDbLine
 10
8387315.863745868
 20
5690889.716242476
 30
0.0
 11
8387315.92522128
 21
5690889.795114357
 31
0.0
  0
LINE
  5
4DB
330
40D
100
AcDbEntity
  8
SZR__APM_Bruk
  6
ByBlock
 62
     5
370
    -3
100
AcDbLine
 10
8387316.001696927
 20
5690889.735506655
 30
0.0
 11
8387316.063172338
 21
5690889.814378537
 31
0.0
  0
LINE
  5
4DC
330
40D
100
AcDbEntity
  8
SZR__APM_Bruk
  6
ByBlock
 62
     5
370
    -3
100
AcDbLine
 10
8387315.986696691
 20
5690889.87398624
 30
0.0
 11
8387316.048172101
 21
5690889.952858121
 31
0.0
  0
LINE
  5
4DD
330
40D
100
AcDbEntity
  8
SZR__APM_Bruk
  6
ByBlock
 62
     5
370
    -3
100
AcDbLine
 10
8387316.124647748
 20
5690889.893250417
 30
0.0
 11
8387316.186123159
 21
5690889.972122298
 31
0.0
  0
LINE
  5
4DE
330
40D
100
AcDbEntity
  8
SZR__APM_Bruk
  6
ByBlock
 62
     5
370
    -3
100
AcDbLine
 10
8387316.109647512
 20
5690890.031730003
 30
0.0
 11
8387316.171122924
 21
5690890.110601885
 31
0.0
  0
LINE
  5
4DF
330
40D
100
AcDbEntity
  8
SZR__APM_Bruk
  6
ByBlock
 62
     5
370
    -3
100
AcDbLine
 10
8387316.247604191
 20
5690890.050989801
 30
0.0
 11
8387316.309079603
 21
5690890.129861683
 31
0.0
  0
LINE
  5
4E0
330
40D
100
AcDbEntity
  8
SZR__APM_Bruk
  6
ByBlock
 62
     5
370
    -3
100
AcDbLine
 10
8387316.232598335
 20
5690890.189473767
 30
0.0
 11
8387316.294073746
 21
5690890.268345649
 31
0.0
  0
LINE
  5
4E1
330
40D
100
AcDbEntity
  8
SZR__APM_Bruk
  6
ByBlock
 62
     5
370
    -3
100
AcDbLine
 10
8387316.370549392
 20
5690890.208737944
 30
0.0
 11
8387316.432024803
 21
5690890.287609826
 31
0.0
  0
LINE
  5
4E2
330
40D
100
AcDbEntity
  8
SZR__APM_Bruk
  6
ByBlock
 62
     5
370
    -3
100
AcDbLine
 10
8387316.478499979
 20
5690890.504961294
 30
0.0
 11
8387316.53997539
 21
5690890.583833176
 31
0.0
  0
LINE
  5
4E3
330
40D
100
AcDbEntity
  8
SZR__APM_Bruk
  6
ByBlock
 62
     5
370
    -3
100
AcDbLine
 10
8387316.595960891
 20
5690890.655661602
 30
0.0
 11
8387316.657436302
 21
5690890.734533483
 31
0.0
  0
LINE
  5
4E4
330
40D
100
AcDbEntity
  8
SZR__APM_Bruk
  6
ByBlock
 62
     5
370
    -3
100
AcDbLine
 10
8387316.739401855
 20
5690890.681969234
 30
0.0
 11
8387316.800877266
 21
5690890.760841116
 31
0.0
  0
LINE
  5
4E5
330
40D
100
AcDbEntity
  8
SZR__APM_Bruk
  6
ByBlock
 62
     5
370
    -3
100
AcDbLine
 10
8387316.72494662
 20
5690890.821148046
 30
0.0
 11
8387316.786422031
 21
5690890.900019929
 31
0.0
  0
LINE
  5
4E6
330
40D
100
AcDbEntity
  8
SZR__APM_Bruk
  6
ByBlock
 62
     5
370
    -3
100
AcDbLine
 10
8387316.862897678
 20
5690890.840412225
 30
0.0
 11
8387316.924373088
 21
5690890.919284107
 31
0.0
  0
LINE
  5
4E7
330
40D
100
AcDbEntity
  8
SZR__APM_Bruk
  6
ByBlock
 62
     5
370
    -3
100
AcDbLine
 10
8387316.847897443
 20
5690890.97889181
 30
0.0
 11
8387316.909372854
 21
5690891.057763692
 31
0.0
  0
LINE
  5
4E8
330
40D
100
AcDbEntity
  8
SZR__APM_Bruk
  6
ByBlock
 62
     5
370
    -3
100
AcDbLine
 10
8387316.985848499
 20
5690890.998155989
 30
0.0
 11
8387317.047323911
 21
5690891.07702787
 31
0.0
  0
LINE
  5
4E9
330
40D
100
AcDbEntity
  8
SZR__APM_Bruk
  6
ByBlock
 62
     5
370
    -3
100
AcDbLine
 10
8387316.970848262
 20
5690891.136635571
 30
0.0
 11
8387317.032323673
 21
5690891.215507454
 31
0.0
  0
LINE
  5
4EA
330
40D
100
AcDbEntity
  8
SZR__APM_Bruk
  6
ByBlock
 62
     5
370
    -3
100
AcDbLine
 10
8387317.108799321
 20
5690891.155899753
 30
0.0
 11
8387317.170274734
 21
5690891.234771635
 31
0.0
  0
LINE
  5
4EB
330
40D
100
AcDbEntity
  8
SZR__APM_Bruk
  6
ByBlock
 62
     5
370
    -3
100
AcDbLine
 10
8387317.093799087
 20
5690891.294379338
 30
0.0
 11
8387317.155274498
 21
5690891.373251219
 31
0.0
  0
LINE
  5
4EC
330
40D
100
AcDbEntity
  8
SZR__APM_Bruk
  6
ByBlock
 62
     5
370
    -3
100
AcDbLine
 10
8387317.231750143
 20
5690891.313643517
 30
0.0
 11
8387317.293225555
 21
5690891.392515399
 31
0.0
  0
LINE
  5
4ED
330
40D
100
AcDbEntity
  8
SZR__APM_Bruk
  6
ByBlock
 62
     5
370
    -3
100
AcDbLine
 10
8387317.132420411
 20
5690891.51785237
 30
0.0
 11
8387319.028406967
 21
5690890.040056351
 31
0.0
  0
LINE
  5
4EE
330
40D
100
AcDbEntity
  8
SZR__APM_Bruk
  6
ByBlock
 62
     5
370
    -3
100
AcDbLine
 10
8387318.95193132
 20
5690890.099664056
 30
0.0
 11
8387319.013406731
 21
5690890.178535937
 31
0.0
  0
LINE
  5
4EF
330
40D
100
AcDbEntity
  8
SZR__APM_Bruk
  6
ByBlock
 62
     5
370
    -3
100
AcDbLine
 10
8387318.794187557
 20
5690890.222614878
 30
0.0
 11
8387318.855662968
 21
5690890.301486759
 31
0.0
  0
LINE
  5
4F0
330
40D
100
AcDbEntity
  8
SZR__APM_Bruk
  6
ByBlock
 62
     5
370
    -3
100
AcDbLine
 10
8387318.636443792
 20
5690890.345565701
 30
0.0
 11
8387318.697919203
 21
5690890.424437583
 31
0.0
  0
LINE
  5
4F1
330
40D
100
AcDbEntity
  8
SZR__APM_Bruk
  6
ByBlock
 62
     5
370
    -3
100
AcDbLine
 10
8387318.478700027
 20
5690890.468516523
 30
0.0
 11
8387318.540175439
 21
5690890.547388407
 31
0.0
  0
LINE
  5
4F2
330
40D
100
AcDbEntity
  8
SZR__APM_Bruk
  6
ByBlock
 62
     5
370
    -3
100
AcDbLine
 10
8387318.320956264
 20
5690890.591467345
 30
0.0
 11
8387318.382431676
 21
5690890.670339229
 31
0.0
  0
LINE
  5
4F3
330
40D
100
AcDbEntity
  8
SZR__APM_Bruk
  6
ByBlock
 62
     5
370
    -3
100
AcDbLine
 10
8387318.163212498
 20
5690890.714418169
 30
0.0
 11
8387318.224687911
 21
5690890.793290052
 31
0.0
  0
LINE
  5
4F4
330
40D
100
AcDbEntity
  8
SZR__APM_Bruk
  6
ByBlock
 62
     5
370
    -3
100
AcDbLine
 10
8387318.005468737
 20
5690890.837368993
 30
0.0
 11
8387318.066944146
 21
5690890.916240874
 31
0.0
  0
LINE
  5
4F5
330
40D
100
AcDbEntity
  8
SZR__APM_Bruk
  6
ByBlock
 62
     5
370
    -3
100
AcDbLine
 10
8387317.84772497
 20
5690890.960319815
 30
0.0
 11
8387317.909200382
 21
5690891.039191698
 31
0.0
  0
LINE
  5
4F6
330
40D
100
AcDbEntity
  8
SZR__APM_Bruk
  6
ByBlock
 62
     5
370
    -3
100
AcDbLine
 10
8387317.689981207
 20
5690891.083270637
 30
0.0
 11
8387317.751456619
 21
5690891.16214252
 31
0.0
  0
LINE
  5
4F7
330
40D
100
AcDbEntity
  8
SZR__APM_Bruk
  6
ByBlock
 62
     5
370
    -3
100
AcDbLine
 10
8387317.532237442
 20
5690891.20622146
 30
0.0
 11
8387317.593712854
 21
5690891.285093342
 31
0.0
  0
LINE
  5
4F8
330
40D
100
AcDbEntity
  8
SZR__APM_Bruk
  6
ByBlock
 62
     5
370
    -3
100
AcDbLine
 10
8387317.374493679
 20
5690891.329172282
 30
0.0
 11
8387317.435969091
 21
5690891.408044166
 31
0.0
  0
LINE
  5
4F9
330
40D
100
AcDbEntity
  8
SZR__APM_Bruk
  6
ByBlock
 62
     5
370
    -3
100
AcDbLine
 10
8387317.216749915
 20
5690891.452123106
 30
0.0
 11
8387317.278225324
 21
5690891.530994989
 31
0.0
  0
LINE
  5
4FA
330
40D
100
AcDbEntity
  8
SZR__APM_Bruk
  6
ByBlock
 62
     5
370
    -3
100
AcDbLine
 10
8387317.196699173
 20
5690891.594456815
 30
0.0
 11
8387319.092685727
 21
5690890.116660796
 31
0.0
  0
LINE
  5
4FB
330
40D
100
AcDbEntity
  8
SZR__APM_Bruk
  6
ByBlock
 62
     5
370
    -3
100
AcDbLine
 10
8387318.932098654
 20
5690890.241827791
 30
0.0
 11
8387318.993574066
 21
5690890.320699672
 31
0.0
  0
LINE
  5
4FC
330
40D
100
AcDbEntity
  8
SZR__APM_Bruk
  6
ByBlock
 62
     5
370
    -3
100
AcDbLine
 10
8387318.774354891
 20
5690890.364778613
 30
0.0
 11
8387318.835830303
 21
5690890.443650495
 31
0.0
  0
LINE
  5
4FD
330
40D
100
AcDbEntity
  8
SZR__APM_Bruk
  6
ByBlock
 62
     5
370
    -3
100
AcDbLine
 10
8387318.616611125
 20
5690890.487729435
 30
0.0
 11
8387318.678086538
 21
5690890.566601318
 31
0.0
  0
LINE
  5
4FE
330
40D
100
AcDbEntity
  8
SZR__APM_Bruk
  6
ByBlock
 62
     5
370
    -3
100
AcDbLine
 10
8387318.458867364
 20
5690890.610680258
 30
0.0
 11
8387318.520342773
 21
5690890.689552142
 31
0.0
  0
LINE
  5
4FF
330
40D
100
AcDbEntity
  8
SZR__APM_Bruk
  6
ByBlock
 62
     5
370
    -3
100
AcDbLine
 10
8387318.301123597
 20
5690890.733631081
 30
0.0
 11
8387318.362599007
 21
5690890.812502964
 31
0.0
  0
LINE
  5
500
330
40D
100
AcDbEntity
  8
SZR__APM_Bruk
  6
ByBlock
 62
     5
370
    -3
100
AcDbLine
 10
8387318.143379834
 20
5690890.856581903
 30
0.0
 11
8387318.204855244
 21
5690890.935453785
 31
0.0
  0
LINE
  5
501
330
40D
100
AcDbEntity
  8
SZR__APM_Bruk
  6
ByBlock
 62
     5
370
    -3
100
AcDbLine
 10
8387317.985636068
 20
5690890.979532725
 30
0.0
 11
8387318.047111479
 21
5690891.058404608
 31
0.0
  0
LINE
  5
502
330
40D
100
AcDbEntity
  8
SZR__APM_Bruk
  6
ByBlock
 62
     5
370
    -3
100
AcDbLine
 10
8387317.827892305
 20
5690891.102483549
 30
0.0
 11
8387317.889367716
 21
5690891.181355432
 31
0.0
  0
LINE
  5
503
330
40D
100
AcDbEntity
  8
SZR__APM_Bruk
  6
ByBlock
 62
     5
370
    -3
100
AcDbLine
 10
8387317.669158681
 20
5690891.224164398
 30
0.0
 11
8387317.730634091
 21
5690891.303036281
 31
0.0
  0
LINE
  5
504
330
40D
100
AcDbEntity
  8
SZR__APM_Bruk
  6
ByBlock
 62
     5
370
    -3
100
AcDbLine
 10
8387317.511414916
 20
5690891.34711522
 30
0.0
 11
8387317.572890328
 21
5690891.425987103
 31
0.0
  0
LINE
  5
505
330
40D
100
AcDbEntity
  8
SZR__APM_Bruk
  6
ByBlock
 62
     5
370
    -3
100
AcDbLine
 10
8387317.353671152
 20
5690891.470066044
 30
0.0
 11
8387317.415146563
 21
5690891.548937925
 31
0.0
  0
LINE
  5
506
330
40D
100
AcDbEntity
  8
SZR__APM_Bruk
  6
ByBlock
 62
     5
370
    -3
100
AcDbLine
 10
8387317.195927389
 20
5690891.593016866
 30
0.0
 11
8387317.2574028
 21
5690891.671888749
 31
0.0
  0
LWPOLYLINE
  5
507
330
40D
100
AcDbEntity
  8
SZR_APM
  6
1
100
AcDbPolyline
 90
        4
 70
     1
 43
0.0
 10
8387317.261274194
 20
5690890.149540417
 10
8387317.734505487
 20
5690889.780687948
 10
8387317.98040713
 20
5690890.096175477
 10
8387317.507175842
 20
5690890.465027945
  0
LINE
  5
508
330
40D
100
AcDbEntity
  8
0
 62
     7
100
AcDbLine
 10
8387317.558401459
 20
5690890.141476753
 30
0.0
 11
8387316.860267894
 21
5690891.399875722
 31
0.0
  0
ENDBLK
  5
50C
330
40D
100
AcDbEntity
  8
0
100
AcDbBlockEnd
  0
ENDSEC
  0
SECTION
  2
ENTITIES
  0
INSERT
  5
50D
330
1F
100
AcDbEntity
  8
0
100
AcDbBlockReference
  2
A$C71167f4d
 10
0.0
 20
0.0
 30
0.0
  0
ENDSEC
  0
SECTION
  2
OBJECTS
  0
DICTIONARY
  5
C
330
0
100
AcDbDictionary
281
     1
  3
ACAD_CIP_PREVIOUS_PRODUCT_INFO
350
216
  3
ACAD_COLOR
350
6B
  3
ACAD_DETAILVIEWSTYLE
350
21B
  3
ACAD_GROUP
350
D
  3
ACAD_LAYOUT
350
1A
  3
ACAD_MATERIAL
350
6A
  3
ACAD_MLEADERSTYLE
350
12D
  3
ACAD_MLINESTYLE
350
17
  3
ACAD_PLOTSETTINGS
350
19
  3
ACAD_PLOTSTYLENAME
350
E
  3
ACAD_SCALELIST
350
10C
  3
ACAD_SECTIONVIEWSTYLE
350
219
  3
ACAD_TABLESTYLE
350
7E
  3
ACAD_VISUALSTYLE
350
EF
  3
ACDB_RECOMPOSE_DATA
350
50F
  3
AcDbVariableDictionary
350
5E
  3
AEC_PROPERTY_SET_DEFS
350
3D8
  0
DICTIONARY
  5
1FF
330
2
100
AcDbDictionary
280
     1
281
     1
  3
ACAD_LAYERSTATES
360
200
  0
DICTIONARY
  5
13C
330
10
100
AcDbDictionary
280
     1
281
     1
  0
DICTIONARY
  5
2D1
330
2D0
100
AcDbDictionary
280
     1
281
     1
  0
DICTIONARY
  5
1CE
330
1F
100
AcDbDictionary
280
     1
281
     1
  0
DICTIONARY
  5
290
330
28F
100
AcDbDictionary
280
     1
281
     1
  3
ACAD_SORTENTS
360
291
  0
DICTIONARY
  5
3D4
330
2D8
100
AcDbDictionary
280
     1
281
     1
  3
ACAD_SORTENTS
360
3D5
  0
DICTIONARY
  5
509
330
40D
100
AcDbDictionary
280
     1
281
     1
  3
ACAD_SORTENTS
360
50A
  0
DICTIONARY
  5
3A0
330
39F
100
AcDbDictionary
280
     1
281
     1
  3
ACAD_DIMASSOC
360
3A1
  0
DICTIONARY
  5
4D5
330
4D4
100
AcDbDictionary
280
     1
281
     1
  3
ACAD_DIMASSOC
360
4D6
  0
XRECORD
  5
216
102
{ACAD_REACTORS
330
C
102
}
330
C
100
AcDbXrecord
280
     1
300
ACDLT
300
2020
300

  0
DICTIONARY
  5
6B
102
{ACAD_REACTORS
330
C
102
}
330
C
100
AcDbDictionary
281
     1
  0
DICTIONARY
  5
21B
102
{ACAD_REACTORS
330
C
102
}
330
C
100
AcDbDictionary
281
     1
  3
Metric50
350
21C
  0
DICTIONARY
  5
D
102
{ACAD_REACTORS
330
C
102
}
330
C
100
AcDbDictionary
281
     1
  0
DICTIONARY
  5
1A
102
{ACAD_REACTORS
330
C
102
}
330
C
100
AcDbDictionary
281
     1
  3
Model
350
22
  3
Układ1
350
D3
  3
Układ2
350
D7
  0
DICTIONARY
  5
6A
102
{ACAD_REACTORS
330
C
102
}
330
C
100
AcDbDictionary
281
     1
  3
ByBlock
350
ED
  3
ByLayer
350
EC
  3
Global
350
EE
  0
DICTIONARY
  5
12D
102
{ACAD_REACTORS
330
C
102
}
330
C
100
AcDbDictionary
281
     1
  3
Opisowy
350
13B
  3
Standard
350
12E
  0
DICTIONARY
  5
17
102
{ACAD_REACTORS
330
C
102
}
330
C
100
AcDbDictionary
281
     1
  3
Standard
350
18
  0
DICTIONARY
  5
19
102
{ACAD_REACTORS
330
C
102
}
330
C
100
AcDbDictionary
281
     1
  0
ACDBDICTIONARYWDFLT
  5
E
102
{ACAD_REACTORS
330
C
102
}
330
C
100
AcDbDictionary
281
     1
  3
Normal
350
F
100
AcDbDictionaryWithDefault
340
F
  0
DICTIONARY
  5
10C
102
{ACAD_REACTORS
330
C
102
}
330
C
100
AcDbDictionary
281
     1
  3
*A1
350
2D7
  3
A0
350
10D
  3
A1
350
1BE
  3
A2
350
1BF
  3
A3
350
1C0
  3
A4
350
1C1
  3
A5
350
1C2
  3
A6
350
1C3
  3
A7
350
1C4
  3
A8
350
1C5
  3
A9
350
1C6
  3
B0
350
1C7
  3
B1
350
1C8
  3
B2
350
1C9
  3
B3
350
1CA
  3
B4
350
1CB
  3
B5
350
1CC
  3
B6
350
1CD
  0
DICTIONARY
  5
219
102
{ACAD_REACTORS
330
C
102
}
330
C
100
AcDbDictionary
281
     1
  3
Metric50
350
21A
  0
DICTIONARY
  5
7E
102
{ACAD_REACTORS
330
C
102
}
330
C
100
AcDbDictionary
281
     1
  3
Standard
350
7F
  0
DICTIONARY
  5
EF
102
{ACAD_REACTORS
330
C
102
}
330
C
100
AcDbDictionary
281
     1
  3
2dWireframe
350
F5
  3
Basic
350
F4
  3
Brighten
350
FB
  3
ColorChange
350
FF
  3
Conceptual
350
F8
  3
Dim
350
FA
  3
EdgeColorOff
350
1E6
  3
Facepattern
350
FE
  3
Flat
350
F0
  3
FlatWithEdges
350
F1
  3
Gouraud
350
F2
  3
GouraudWithEdges
350
F3
  3
Hidden
350
F7
  3
JitterOff
350
1E4
  3
Linepattern
350
FD
  3
OverhangOff
350
1E5
  3
Realistic
350
F9
  3
Shaded
350
1F3
  3
Shaded with edges
350
1F2
  3
Shades of Gray
350
1EF
  3
Sketchy
350
1F0
  3
Thicken
350
FC
  3
Wireframe
350
F6
  3
X-Ray
350
1F1
  0
XRECORD
  5
50F
102
{ACAD_REACTORS
330
C
102
}
330
C
100
AcDbXrecord
280
     1
 90
        1
330
7F
  0
DICTIONARY
  5
5E
102
{ACAD_REACTORS
330
C
102
}
330
C
100
AcDbDictionary
281
     1
  3
CANNOSCALE
350
146
  3
CENTEREXE
350
259
  3
CENTERLTYPEFILE
350
25A
  3
CMLEADERSTYLE
350
145
  3
CTABLESTYLE
350
84
  3
CVIEWDETAILSTYLE
350
227
  3
CVIEWSECTIONSTYLE
350
228
  3
DIMASSOC
350
5F
  3
HIDETEXT
350
63
  3
LAYEREVAL
350
1AE
  3
LAYERNOTIFY
350
1AF
  0
DICTIONARY
  5
3D8
102
{ACAD_REACTORS
330
C
102
}
330
C
100
AcDbDictionary
281
     1
  0
DICTIONARY
  5
200
102
{ACAD_REACTORS
330
1FF
102
}
330
1FF
100
AcDbDictionary
281
     1
  0
SORTENTSTABLE
  5
291
102
{ACAD_REACTORS
330
290
102
}
330
290
100
AcDbSortentsTable
330
28F
  0
SORTENTSTABLE
  5
3D5
102
{ACAD_REACTORS
330
3D4
102
}
330
3D4
100
AcDbSortentsTable
330
2D8
  0
SORTENTSTABLE
  5
50A
102
{ACAD_REACTORS
330
509
102
}
330
509
100
AcDbSortentsTable
330
40D
  0
DIMASSOC
  5
3A1
102
{ACAD_REACTORS
330
3A0
102
}
330
3A0
100
AcDbDimAssoc
330
39F
 90
        1
 70
     0
 71
     0
  1
AcDbOsnapPointRef
 72
    13
331
360
 73
     2
 91
        0
 40
0.0
 10
0.0
 20
0.0
 30
2.000000000000000E+50
 75
     0
  0
DIMASSOC
  5
4D6
102
{ACAD_REACTORS
330
4D5
102
}
330
4D5
100
AcDbDimAssoc
330
4D4
 90
        1
 70
     0
 71
     0
  1
AcDbOsnapPointRef
 72
    13
331
495
 73
     2
 91
        0
 40
0.0
 10
0.0
 20
0.0
 30
2.000000000000000E+50
 75
     0
  0
ACDBDETAILVIEWSTYLE
  5
21C
102
{ACAD_REACTORS
330
21B
102
}
330
21B
100
AcDbModelDocViewStyle
 70
     0
  3
Metric50
290
     0
300
Metric50
 90
        0
100
AcDbDetailViewStyle
 70
     0
 71
     0
 90
        3
 71
     1
340
11
 62
   256
 40
5.0
340
0
 62
   256
 40
5.0
300

 40
0.0
280
     1
 71
     2
340
16
 90
       25
 62
   256
 71
     3
340
11
 62
   256
 40
5.0
 90
        0
 40
15.0
 90
        1
300
%<\AcVar ViewDetailId>% (%<\AcVar ViewScale \f "%sn">%)
 71
     4
340
16
 90
       25
 62
   256
340
16
 90
       25
 62
   256
280
     0
  0
LAYOUT
  5
22
102
{ACAD_XDICTIONARY
360
205
102
}
102
{ACAD_REACTORS
330
1A
102
}
330
1A
100
AcDbPlotSettings
  1

  2
none_device
  4
ISO_A4_(210.00_x_297.00_MM)
  6

 40
7.5
 41
20.0
 42
7.5
 43
20.0
 44
210.0
 45
297.0
 46
11.54999923706054
 47
-13.65000009536743
 48
0.0
 49
0.0
140
0.0
141
0.0
142
1.0
143
8.704084754739808
 70
 11952
 72
     1
 73
     0
 74
     0
  7

 75
     0
147
0.1148885871608098
 76
     0
 77
     2
 78
   300
148
0.0
149
0.0
100
AcDbLayout
  1
Model
 70
     1
 71
     0
 10
0.0
 20
0.0
 11
12.0
 21
9.0
 12
0.0
 22
0.0
 32
0.0
 14
0.0
 24
0.0
 34
0.0
 15
0.0
 25
0.0
 35
0.0
146
0.0
 13
0.0
 23
0.0
 33
0.0
 16
1.0
 26
0.0
 36
0.0
 17
0.0
 27
1.0
 37
0.0
 76
     0
330
1F
331
EA
1001
ACAD_PSEXT
1000
None
1000
None
1000
Not applicable
1000
The layout will not be plotted unless a new plotter configuration name is selected.
1070
     0
  0
LAYOUT
  5
D3
102
{ACAD_REACTORS
330
1A
102
}
330
1A
100
AcDbPlotSettings
  1

  2
C:\Documents and Settings\basas\Application Data\Autodesk\AutoCAD 2005\R16.1\enu\plotters\Default Windows System Printer.pc3
  4

  6

 40
0.0
 41
0.0
 42
0.0
 43
0.0
 44
0.0
 45
0.0
 46
0.0
 47
0.0
 48
0.0
 49
0.0
140
0.0
141
0.0
142
1.0
143
1.0
 70
   688
 72
     0
 73
     0
 74
     5
  7

 75
    16
147
1.0
 76
     0
 77
     2
 78
   300
148
0.0
149
0.0
100
AcDbLayout
  1
Układ1
 70
     1
 71
     1
 10
0.0
 20
0.0
 11
12.0
 21
9.0
 12
0.0
 22
0.0
 32
0.0
 14
0.0
 24
0.0
 34
0.0
 15
0.0
 25
0.0
 35
0.0
146
0.0
 13
0.0
 23
0.0
 33
0.0
 16
1.0
 26
0.0
 36
0.0
 17
0.0
 27
1.0
 37
0.0
 76
     0
330
D2
  0
LAYOUT
  5
D7
102
{ACAD_REACTORS
330
1A
102
}
330
1A
100
AcDbPlotSettings
  1

  2
C:\Documents and Settings\basas\Application Data\Autodesk\AutoCAD 2005\R16.1\enu\plotters\Default Windows System Printer.pc3
  4

  6

 40
0.0
 41
0.0
 42
0.0
 43
0.0
 44
0.0
 45
0.0
 46
0.0
 47
0.0
 48
0.0
 49
0.0
140
0.0
141
0.0
142
1.0
143
1.0
 70
   688
 72
     0
 73
     0
 74
     5
  7

 75
    16
147
1.0
 76
     0
 77
     2
 78
   300
148
0.0
149
0.0
100
AcDbLayout
  1
Układ2
 70
     1
 71
     2
 10
0.0
 20
0.0
 11
12.0
 21
9.0
 12
0.0
 22
0.0
 32
0.0
 14
0.0
 24
0.0
 34
0.0
 15
0.0
 25
0.0
 35
0.0
146
0.0
 13
0.0
 23
0.0
 33
0.0
 16
1.0
 26
0.0
 36
0.0
 17
0.0
 27
1.0
 37
0.0
 76
     0
330
D6
  0
MATERIAL
  5
ED
102
{ACAD_XDICTIONARY
360
1F9
102
}
102
{ACAD_REACTORS
330
6A
102
}
330
6A
100
AcDbMaterial
  1
ByBlock
 94
       63
  0
MATERIAL
  5
EC
102
{ACAD_XDICTIONARY
360
1F7
102
}
102
{ACAD_REACTORS
330
6A
102
}
330
6A
100
AcDbMaterial
  1
ByLayer
 94
       63
  0
MATERIAL
  5
EE
102
{ACAD_XDICTIONARY
360
173
102
}
102
{ACAD_REACTORS
330
6A
102
}
330
6A
100
AcDbMaterial
  1
Global
 43
0.0007999999797903
 43
0.0
 43
0.0
 43
0.0
 43
0.0
 43
0.0007999999797903
 43
0.0
 43
0.0
 43
0.0
 43
0.0
 43
1.0
 43
0.0
 43
0.0
 43
0.0
 43
0.0
 43
1.0
 49
0.0007999999797903
 49
0.0
 49
0.0
 49
0.0
 49
0.0
 49
0.0007999999797903
 49
0.0
 49
0.0
 49
0.0
 49
0.0
 49
1.0
 49
0.0
 49
0.0
 49
0.0
 49
0.0
 49
1.0
142
0.0007999999797903
142
0.0
142
0.0
142
0.0
142
0.0
142
0.0007999999797903
142
0.0
142
0.0
142
0.0
142
0.0
142
1.0
142
0.0
142
0.0
142
0.0
142
0.0
142
1.0
144
0.0007999999797903
144
0.0
144
0.0
144
0.0
144
0.0
144
0.0007999999797903
144
0.0
144
0.0
144
0.0
144
0.0
144
1.0
144
0.0
144
0.0
144
0.0
144
0.0
144
1.0
 94
       63
1001
ACAD
1070
    -1
1070
     3
1070
     0
1000

1071
        0
1070
     0
  0
MLEADERSTYLE
  5
13B
102
{ACAD_REACTORS
330
12D
102
}
330
12D
100
AcDbMLeaderStyle
179
     2
170
     2
171
     1
172
     0
 90
        2
 40
0.0
 41
0.0
173
     1
 91
-1056964608
340
14
 92
       -2
290
     1
 42
2.0
291
     1
 43
8.0
  3
Standard
 44
4.0
300

342
11
174
     1
178
     1
175
     1
176
     0
 93
-1056964608
 45
4.0
292
     0
297
     0
 46
4.0
 94
-1056964608
 47
1.0
 49
1.0
140
1.0
293
     1
141
0.0
294
     1
177
     0
142
1.0
295
     0
296
     1
143
3.75
271
     0
272
     9
273
     9
298
     0
  0
MLEADERSTYLE
  5
12E
102
{ACAD_REACTORS
330
12D
102
}
330
12D
100
AcDbMLeaderStyle
179
     2
170
     2
171
     1
172
     0
 90
        2
 40
0.0
 41
0.0
173
     1
 91
-1056964608
340
14
 92
       -2
290
     1
 42
2.0
291
     1
 43
8.0
  3
Standard
 44
4.0
300

342
11
174
     1
178
     1
175
     1
176
     0
 93
-1056964608
 45
4.0
292
     0
297
     0
 46
4.0
 94
-1056964608
 47
1.0
 49
1.0
140
1.0
293
     1
141
0.0
294
     1
177
     0
142
1.0
295
     0
296
     0
143
3.75
271
     0
272
     9
273
     9
298
     0
  0
MLINESTYLE
  5
18
102
{ACAD_REACTORS
330
17
102
}
330
17
100
AcDbMlineStyle
  2
STANDARD
 70
     0
  3

 62
   256
 51
90.0
 52
90.0
 71
     2
 49
0.5
 62
   256
  6
BYLAYER
 49
-0.5
 62
   256
  6
BYLAYER
  0
ACDBPLACEHOLDER
  5
F
102
{ACAD_REACTORS
330
E
102
}
330
E
  0
SCALE
  5
2D7
102
{ACAD_REACTORS
330
10C
102
}
330
10C
100
AcDbScale
 70
     0
300
1:1000
140
1.0
141
1.0
290
     0
  0
SCALE
  5
10D
102
{ACAD_REACTORS
330
10C
102
}
330
10C
100
AcDbScale
 70
     0
300
1:1
140
1.0
141
1.0
290
     1
  0
SCALE
  5
1BE
102
{ACAD_REACTORS
330
10C
102
}
330
10C
100
AcDbScale
 70
     0
300
1:2
140
1.0
141
2.0
290
     0
  0
SCALE
  5
1BF
102
{ACAD_REACTORS
330
10C
102
}
330
10C
100
AcDbScale
 70
     0
300
1:4
140
1.0
141
4.0
290
     0
  0
SCALE
  5
1C0
102
{ACAD_REACTORS
330
10C
102
}
330
10C
100
AcDbScale
 70
     0
300
1:5
140
1.0
141
5.0
290
     0
  0
SCALE
  5
1C1
102
{ACAD_REACTORS
330
10C
102
}
330
10C
100
AcDbScale
 70
     0
300
1:8
140
1.0
141
8.0
290
     0
  0
SCALE
  5
1C2
102
{ACAD_REACTORS
330
10C
102
}
330
10C
100
AcDbScale
 70
     0
300
1:10
140
1.0
141
10.0
290
     0
  0
SCALE
  5
1C3
102
{ACAD_REACTORS
330
10C
102
}
330
10C
100
AcDbScale
 70
     0
300
1:16
140
1.0
141
16.0
290
     0
  0
SCALE
  5
1C4
102
{ACAD_REACTORS
330
10C
102
}
330
10C
100
AcDbScale
 70
     0
300
1:20
140
1.0
141
20.0
290
     0
  0
SCALE
  5
1C5
102
{ACAD_REACTORS
330
10C
102
}
330
10C
100
AcDbScale
 70
     0
300
1:30
140
1.0
141
30.0
290
     0
  0
SCALE
  5
1C6
102
{ACAD_REACTORS
330
10C
102
}
330
10C
100
AcDbScale
 70
     0
300
1:40
140
1.0
141
40.0
290
     0
  0
SCALE
  5
1C7
102
{ACAD_REACTORS
330
10C
102
}
330
10C
100
AcDbScale
 70
     0
300
1:50
140
1.0
141
50.0
290
     0
  0
SCALE
  5
1C8
102
{ACAD_REACTORS
330
10C
102
}
330
10C
100
AcDbScale
 70
     0
300
1:100
140
1.0
141
100.0
290
     0
  0
SCALE
  5
1C9
102
{ACAD_REACTORS
330
10C
102
}
330
10C
100
AcDbScale
 70
     0
300
2:1
140
2.0
141
1.0
290
     0
  0
SCALE
  5
1CA
102
{ACAD_REACTORS
330
10C
102
}
330
10C
100
AcDbScale
 70
     0
300
4:1
140
4.0
141
1.0
290
     0
  0
SCALE
  5
1CB
102
{ACAD_REACTORS
330
10C
102
}
330
10C
100
AcDbScale
 70
     0
300
8:1
140
8.0
141
1.0
290
     0
  0
SCALE
  5
1CC
102
{ACAD_REACTORS
330
10C
102
}
330
10C
100
AcDbScale
 70
     0
300
10:1
140
10.0
141
1.0
290
     0
  0
SCALE
  5
1CD
102
{ACAD_REACTORS
330
10C
102
}
330
10C
100
AcDbScale
 70
     0
300
100:1
140
100.0
141
1.0
290
     0
  0
ACDBSECTIONVIEWSTYLE
  5
21A
102
{ACAD_REACTORS
330
219
102
}
330
219
100
AcDbModelDocViewStyle
 70
     0
  3
Metric50
290
     0
300
Metric50
 90
        0
100
AcDbSectionViewStyle
 70
     0
 71
     0
 90
      102
 71
     1
340
11
 62
   256
 40
5.0
340
0
340
0
 62
   256
 40
5.0
300
I, O, Q, S, X, Z
 40
10.0
 90
        0
 40
2.5
 90
        0
 71
     2
340
16
 90
       25
 62
   256
340
16
 90
       50
 62
   256
 40
5.0
 40
2.5
 40
5.0
 71
     3
340
11
 62
   256
 40
5.0
 90
        0
 40
15.0
 90
        1
300
%<\AcVar ViewSectionStartId>%-%<\AcVar ViewSectionEndId>% (%<\AcVar ViewScale \f "%sn">%)
 71
     4
 62
   256
 62
   257
300
ANSI31
 40
1.0
 90
        0
290
     0
290
     0
 90
        6
 40
0.0
 40
1.570796326794896
 40
0.2617993877991494
 40
1.308996938995747
 40
-0.2617993877991494
 40
1.832595714594046
  0
TABLESTYLE
  5
7F
102
{ACAD_XDICTIONARY
360
162
102
}
102
{ACAD_REACTORS
330
7E
102
}
330
7E
100
AcDbTableStyle
280
     0
  3
Standard
 70
     0
 71
     0
 40
1.5
 41
1.5
280
     0
281
     0
  7
Standard
140
4.5
170
     2
 62
     0
 63
     7
283
     0
 90
      512
 91
        0
  1

274
    -2
284
     1
 64
     0
275
    -2
285
     1
 65
     0
276
    -2
286
     1
 66
     0
277
    -2
287
     1
 67
     0
278
    -2
288
     1
 68
     0
279
    -2
289
     1
 69
     0
  7
Standard
140
6.0
170
     5
 62
     0
 63
     7
283
     0
 90
      512
 91
        0
  1

274
    -2
284
     1
 64
     0
275
    -2
285
     1
 65
     0
276
    -2
286
     1
 66
     0
277
    -2
287
     1
 67
     0
278
    -2
288
     1
 68
     0
279
    -2
289
     1
 69
     0
  7
Standard
140
4.5
170
     5
 62
     0
 63
     7
283
     0
 90
      512
 91
        0
  1

274
    -2
284
     1
 64
     0
275
    -2
285
     1
 65
     0
276
    -2
286
     1
 66
     0
277
    -2
287
     1
 67
     0
278
    -2
288
     1
 68
     0
279
    -2
289
     1
 69
     0
  0
VISUALSTYLE
  5
F5
102
{ACAD_REACTORS
330
EF
102
}
330
EF
100
AcDbVisualStyle
  2
2dWireframe
 70
     4
177
     3
291
     0
 70
    58
 90
        0
176
     1
 90
        2
176
     1
 90
        1
176
     1
 90
        0
176
     1
 40
0.6
176
     1
 40
30.0
176
     1
 62
     7
420
 16777215
176
     1
 90
        1
176
     1
 90
        4
176
     1
 62
     7
176
     1
 62
   257
176
     1
 90
        1
176
     1
 90
        1
176
     1
 40
1.0
176
     1
 90
        0
176
     1
 62
   257
176
     1
 40
1.0
176
     1
 90
        1
176
     1
 90
        6
176
     1
 90
        2
176
     1
 62
     7
176
     1
 90
        5
176
     1
 90
        0
176
     1
 90
        0
176
     1
290
     0
176
     1
 90
        1
176
     1
 40
0.0
176
     1
 90
        0
176
     1
290
     1
176
     1
290
     1
176
     1
290
     0
176
     1
290
     0
176
     1
290
     0
176
     1
290
     0
176
     1
290
     0
176
     1
290
     0
176
     1
290
     0
176
     1
 90
       50
176
     1
 40
0.0
176
     1
 40
1.0
176
     1
 90
        0
176
     1
 62
    18
420
        0
176
     1
 90
       50
176
     1
 90
        3
176
     1
 62
     5
420
      255
176
     1
290
     0
176
     1
 90
       50
176
     1
 90
       50
176
     1
 90
       50
176
     1
290
     0
176
     1
 90
       50
176
     1
 62
   256
176
     0
 40
1.0
176
     0
 90
        2
176
     1
  1
strokes_ogs.tif
176
     1
290
     0
176
     1
 40
1.0
176
     1
 40
1.0
176
     1
  0
VISUALSTYLE
  5
F4
102
{ACAD_REACTORS
330
EF
102
}
330
EF
100
AcDbVisualStyle
  2
Basic
 70
     7
177
     3
291
     1
 70
    58
 90
        1
176
     1
 90
        0
176
     1
 90
        1
176
     1
 90
        0
176
     1
 40
0.6
176
     1
 40
30.0
176
     1
 62
     7
420
 16777215
176
     1
 90
        0
176
     1
 90
        4
176
     1
 62
     7
176
     1
 62
   257
176
     1
 90
        1
176
     1
 90
        1
176
     1
 40
1.0
176
     1
 90
        8
176
     1
 62
     7
176
     1
 40
1.0
176
     1
 90
        1
176
     1
 90
        6
176
     1
 90
        2
176
     1
 62
     7
176
     1
 90
        5
176
     1
 90
        0
176
     1
 90
        0
176
     1
290
     0
176
     1
 90
        1
176
     1
 40
0.0
176
     1
 90
        0
176
     1
290
     0
176
     1
290
     1
176
     1
290
     1
176
     1
290
     0
176
     1
290
     0
176
     1
290
     0
176
     1
290
     0
176
     1
290
     0
176
     1
290
     0
176
     1
 90
       50
176
     1
 40
0.0
176
     1
 40
1.0
176
     1
 90
        0
176
     1
 62
    18
420
        0
176
     1
 90
       50
176
     1
 90
        3
176
     1
 62
     5
420
      255
176
     1
290
     0
176
     1
 90
       50
176
     1
 90
       50
176
     1
 90
       50
176
     1
290
     0
176
     1
 90
       50
176
     1
 62
   256
176
     0
 40
1.0
176
     0
 90
        2
176
     1
  1
strokes_ogs.tif
176
     1
290
     0
176
     1
 40
1.0
176
     1
 40
1.0
176
     1
  0
VISUALSTYLE
  5
FB
102
{ACAD_REACTORS
330
EF
102
}
330
EF
100
AcDbVisualStyle
  2
Brighten
 70
    12
177
     3
291
     1
 70
    58
 90
        2
176
     1
 90
        2
176
     1
 90
        1
176
     1
 90
        0
176
     1
 40
0.6
176
     1
 40
30.0
176
     1
 62
     7
420
 16777215
176
     1
 90
        1
176
     1
 90
        4
176
     1
 62
     7
176
     1
 62
   257
176
     1
 90
        1
176
     1
 90
        1
176
     1
 40
1.0
176
     1
 90
        8
176
     1
 62
     7
176
     1
 40
1.0
176
     1
 90
        1
176
     1
 90
        6
176
     1
 90
        2
176
     1
 62
     7
176
     1
 90
        5
176
     1
 90
        0
176
     1
 90
        0
176
     1
290
     0
176
     1
 90
        1
176
     1
 40
50.0
176
     1
 90
        0
176
     1
290
     0
176
     1
290
     1
176
     1
290
     1
176
     1
290
     0
176
     1
290
     0
176
     1
290
     0
176
     1
290
     0
176
     1
290
     0
176
     1
290
     0
176
     1
 90
       50
176
     1
 40
0.0
176
     1
 40
1.0
176
     1
 90
        0
176
     1
 62
    18
420
        0
176
     1
 90
       50
176
     1
 90
        3
176
     1
 62
     5
420
      255
176
     1
290
     0
176
     1
 90
       50
176
     1
 90
       50
176
     1
 90
       50
176
     1
290
     0
176
     1
 90
       50
176
     1
 62
   256
176
     0
 40
1.0
176
     0
 90
        2
176
     1
  1
strokes_ogs.tif
176
     1
290
     0
176
     1
 40
1.0
176
     1
 40
1.0
176
     1
  0
VISUALSTYLE
  5
FF
102
{ACAD_REACTORS
330
EF
102
}
330
EF
100
AcDbVisualStyle
  2
ColorChange
 70
    16
177
     3
291
     1
 70
    58
 90
        2
176
     1
 90
        2
176
     1
 90
        3
176
     1
 90
        0
176
     1
 40
0.6
176
     1
 40
30.0
176
     1
 62
     8
420
  8421504
176
     1
 90
        1
176
     1
 90
        4
176
     1
 62
     7
176
     1
 62
   257
176
     1
 90
        1
176
     1
 90
        1
176
     1
 40
1.0
176
     1
 90
        8
176
     1
 62
     8
420
  8421504
176
     1
 40
1.0
176
     1
 90
        1
176
     1
 90
        6
176
     1
 90
        2
176
     1
 62
     7
176
     1
 90
        5
176
     1
 90
        0
176
     1
 90
        0
176
     1
290
     0
176
     1
 90
        1
176
     1
 40
0.0
176
     1
 90
        0
176
     1
290
     0
176
     1
290
     1
176
     1
290
     1
176
     1
290
     0
176
     1
290
     0
176
     1
290
     0
176
     1
290
     0
176
     1
290
     0
176
     1
290
     0
176
     1
 90
       50
176
     1
 40
0.0
176
     1
 40
1.0
176
     1
 90
        0
176
     1
 62
    18
420
        0
176
     1
 90
       50
176
     1
 90
        3
176
     1
 62
     5
420
      255
176
     1
290
     0
176
     1
 90
       50
176
     1
 90
       50
176
     1
 90
       50
176
     1
290
     0
176
     1
 90
       50
176
     1
 62
   256
176
     0
 40
1.0
176
     0
 90
        2
176
     1
  1
strokes_ogs.tif
176
     1
290
     0
176
     1
 40
1.0
176
     1
 40
1.0
176
     1
  0
VISUALSTYLE
  5
F8
102
{ACAD_REACTORS
330
EF
102
}
330
EF
100
AcDbVisualStyle
  2
Conceptual
 70
     9
177
     3
291
     0
 70
    58
 90
        3
176
     1
 90
        2
176
     1
 90
        1
176
     1
 90
        0
176
     1
 40
0.6
176
     1
 40
30.0
176
     1
 62
     7
420
 16777215
176
     1
 90
        2
176
     1
 90
        2
176
     1
 62
     7
176
     1
 62
   257
176
     1
 90
        1
176
     1
 90
        1
176
     1
 40
40.0
176
     1
 90
        8
176
     1
 62
     7
176
     1
 40
1.0
176
     1
 90
        1
176
     1
 90
        6
176
     1
 90
        2
176
     1
 62
     7
176
     1
 90
        3
176
     1
 90
        0
176
     1
 90
        0
176
     1
290
     0
176
     1
 90
        1
176
     1
 40
0.0
176
     1
 90
        0
176
     1
290
     0
176
     1
290
     1
176
     1
290
     1
176
     1
290
     0
176
     1
290
     0
176
     1
290
     0
176
     1
290
     0
176
     1
290
     0
176
     1
290
     0
176
     1
 90
       50
176
     1
 40
0.0
176
     1
 40
1.0
176
     1
 90
        0
176
     1
 62
    18
420
        0
176
     1
 90
       50
176
     1
 90
        3
176
     1
 62
     5
420
      255
176
     1
290
     0
176
     1
 90
       50
176
     1
 90
       50
176
     1
 90
       50
176
     1
290
     0
176
     1
 90
       50
176
     1
 62
   256
176
     0
 40
1.0
176
     0
 90
        2
176
     1
  1
strokes_ogs.tif
176
     1
290
     0
176
     1
 40
1.0
176
     1
 40
1.0
176
     1
  0
VISUALSTYLE
  5
FA
102
{ACAD_REACTORS
330
EF
102
}
330
EF
100
AcDbVisualStyle
  2
Dim
 70
    11
177
     3
291
     1
 70
    58
 90
        2
176
     1
 90
        2
176
     1
 90
        1
176
     1
 90
        0
176
     1
 40
0.6
176
     1
 40
30.0
176
     1
 62
     7
420
 16777215
176
     1
 90
        1
176
     1
 90
        4
176
     1
 62
     7
176
     1
 62
   257
176
     1
 90
        1
176
     1
 90
        1
176
     1
 40
1.0
176
     1
 90
        8
176
     1
 62
     7
176
     1
 40
1.0
176
     1
 90
        1
176
     1
 90
        6
176
     1
 90
        2
176
     1
 62
     7
176
     1
 90
        5
176
     1
 90
        0
176
     1
 90
        0
176
     1
290
     0
176
     1
 90
        1
176
     1
 40
-50.0
176
     1
 90
        0
176
     1
290
     0
176
     1
290
     1
176
     1
290
     1
176
     1
290
     0
176
     1
290
     0
176
     1
290
     0
176
     1
290
     0
176
     1
290
     0
176
     1
290
     0
176
     1
 90
       50
176
     1
 40
0.0
176
     1
 40
1.0
176
     1
 90
        0
176
     1
 62
    18
420
        0
176
     1
 90
       50
176
     1
 90
        3
176
     1
 62
     5
420
      255
176
     1
290
     0
176
     1
 90
       50
176
     1
 90
       50
176
     1
 90
       50
176
     1
290
     0
176
     1
 90
       50
176
     1
 62
   256
176
     0
 40
1.0
176
     0
 90
        2
176
     1
  1
strokes_ogs.tif
176
     1
290
     0
176
     1
 40
1.0
176
     1
 40
1.0
176
     1
  0
VISUALSTYLE
  5
1E6
102
{ACAD_REACTORS
330
EF
102
}
330
EF
100
AcDbVisualStyle
  2
EdgeColorOff
 70
    22
177
     3
291
     1
 70
    58
 90
        2
176
     0
 90
        2
176
     0
 90
        0
176
     0
 90
        0
176
     0
 40
0.6
176
     0
 40
30.0
176
     0
 62
     7
420
 16777215
176
     0
 90
        1
176
     0
 90
        4
176
     0
 62
     7
176
     0
 62
   257
176
     0
 90
        1
176
     0
 90
        1
176
     0
 40
1.0
176
     0
 90
        8
176
     2
 62
     7
176
     0
 40
1.0
176
     0
 90
        1
176
     0
 90
        6
176
     0
 90
        2
176
     0
 62
     7
176
     0
 90
        5
176
     0
 90
        0
176
     0
 90
        0
176
     0
290
     0
176
     0
 90
        1
176
     0
 40
0.0
176
     0
 90
        0
176
     0
290
     0
176
     1
290
     1
176
     1
290
     1
176
     1
290
     0
176
     1
290
     0
176
     1
290
     0
176
     1
290
     0
176
     1
290
     0
176
     1
290
     0
176
     1
 90
       50
176
     1
 40
0.0
176
     1
 40
1.0
176
     1
 90
        0
176
     1
 62
    18
420
        0
176
     1
 90
       50
176
     1
 90
        3
176
     1
 62
     5
420
      255
176
     1
290
     0
176
     1
 90
       50
176
     1
 90
       50
176
     1
 90
       50
176
     1
290
     0
176
     1
 90
       50
176
     1
 62
   256
176
     0
 40
1.0
176
     0
 90
        2
176
     1
  1
strokes_ogs.tif
176
     1
290
     0
176
     1
 40
1.0
176
     1
 40
1.0
176
     1
  0
VISUALSTYLE
  5
FE
102
{ACAD_REACTORS
330
EF
102
}
330
EF
100
AcDbVisualStyle
  2
Facepattern
 70
    15
177
     3
291
     1
 70
    58
 90
        2
176
     1
 90
        2
176
     1
 90
        1
176
     1
 90
        0
176
     1
 40
0.6
176
     1
 40
30.0
176
     1
 62
     7
420
 16777215
176
     1
 90
        1
176
     1
 90
        4
176
     1
 62
     7
176
     1
 62
   257
176
     1
 90
        1
176
     1
 90
        1
176
     1
 40
1.0
176
     1
 90
        8
176
     1
 62
     7
176
     1
 40
1.0
176
     1
 90
        1
176
     1
 90
        6
176
     1
 90
        2
176
     1
 62
     7
176
     1
 90
        5
176
     1
 90
        0
176
     1
 90
        0
176
     1
290
     0
176
     1
 90
        1
176
     1
 40
0.0
176
     1
 90
        0
176
     1
290
     0
176
     1
290
     1
176
     1
290
     1
176
     1
290
     0
176
     1
290
     0
176
     1
290
     0
176
     1
290
     0
176
     1
290
     0
176
     1
290
     0
176
     1
 90
       50
176
     1
 40
0.0
176
     1
 40
1.0
176
     1
 90
        0
176
     1
 62
    18
420
        0
176
     1
 90
       50
176
     1
 90
        3
176
     1
 62
     5
420
      255
176
     1
290
     0
176
     1
 90
       50
176
     1
 90
       50
176
     1
 90
       50
176
     1
290
     0
176
     1
 90
       50
176
     1
 62
   256
176
     0
 40
1.0
176
     0
 90
        2
176
     1
  1
strokes_ogs.tif
176
     1
290
     0
176
     1
 40
1.0
176
     1
 40
1.0
176
     1
  0
VISUALSTYLE
  5
F0
102
{ACAD_REACTORS
330
EF
102
}
330
EF
100
AcDbVisualStyle
  2
Flat
 70
     0
177
     3
291
     1
 70
    58
 90
        2
176
     1
 90
        1
176
     1
 90
        1
176
     1
 90
        2
176
     1
 40
0.6
176
     1
 40
30.0
176
     1
 62
     7
420
 16777215
176
     1
 90
        0
176
     1
 90
        0
176
     1
 62
     7
176
     1
 62
   257
176
     1
 90
        1
176
     1
 90
        1
176
     1
 40
1.0
176
     1
 90
        8
176
     1
 62
     7
176
     1
 40
1.0
176
     1
 90
        1
176
     1
 90
        6
176
     1
 90
        2
176
     1
 62
     7
176
     1
 90
        5
176
     1
 90
        0
176
     1
 90
        0
176
     1
290
     0
176
     1
 90
       13
176
     1
 40
0.0
176
     1
 90
        0
176
     1
290
     0
176
     1
290
     1
176
     1
290
     1
176
     1
290
     0
176
     1
290
     0
176
     1
290
     0
176
     1
290
     0
176
     1
290
     0
176
     1
290
     0
176
     1
 90
       50
176
     1
 40
0.0
176
     1
 40
1.0
176
     1
 90
        0
176
     1
 62
    18
420
        0
176
     1
 90
       50
176
     1
 90
        3
176
     1
 62
     5
420
      255
176
     1
290
     0
176
     1
 90
       50
176
     1
 90
       50
176
     1
 90
       50
176
     1
290
     0
176
     1
 90
       50
176
     1
 62
   256
176
     0
 40
1.0
176
     0
 90
        2
176
     1
  1
strokes_ogs.tif
176
     1
290
     0
176
     1
 40
1.0
176
     1
 40
1.0
176
     1
  0
VISUALSTYLE
  5
F1
102
{ACAD_REACTORS
330
EF
102
}
330
EF
100
AcDbVisualStyle
  2
FlatWithEdges
 70
     1
177
     3
291
     1
 70
    58
 90
        2
176
     1
 90
        1
176
     1
 90
        1
176
     1
 90
        2
176
     1
 40
0.6
176
     1
 40
30.0
176
     1
 62
     7
420
 16777215
176
     1
 90
        1
176
     1
 90
        0
176
     1
 62
     7
176
     1
 62
   257
176
     1
 90
        1
176
     1
 90
        1
176
     1
 40
1.0
176
     1
 90
        0
176
     1
 62
   257
176
     1
 40
1.0
176
     1
 90
        1
176
     1
 90
        6
176
     1
 90
        2
176
     1
 62
     7
176
     1
 90
        5
176
     1
 90
        0
176
     1
 90
        0
176
     1
290
     0
176
     1
 90
       13
176
     1
 40
0.0
176
     1
 90
        0
176
     1
290
     0
176
     1
290
     1
176
     1
290
     1
176
     1
290
     0
176
     1
290
     0
176
     1
290
     0
176
     1
290
     0
176
     1
290
     0
176
     1
290
     0
176
     1
 90
       50
176
     1
 40
0.0
176
     1
 40
1.0
176
     1
 90
        0
176
     1
 62
    18
420
        0
176
     1
 90
       50
176
     1
 90
        3
176
     1
 62
     5
420
      255
176
     1
290
     0
176
     1
 90
       50
176
     1
 90
       50
176
     1
 90
       50
176
     1
290
     0
176
     1
 90
       50
176
     1
 62
   256
176
     0
 40
1.0
176
     0
 90
        2
176
     1
  1
strokes_ogs.tif
176
     1
290
     0
176
     1
 40
1.0
176
     1
 40
1.0
176
     1
  0
VISUALSTYLE
  5
F2
102
{ACAD_REACTORS
330
EF
102
}
330
EF
100
AcDbVisualStyle
  2
Gouraud
 70
     2
177
     3
291
     1
 70
    58
 90
        2
176
     1
 90
        2
176
     1
 90
        1
176
     1
 90
        2
176
     1
 40
0.6
176
     1
 40
30.0
176
     1
 62
     7
420
 16777215
176
     1
 90
        0
176
     1
 90
        0
176
     1
 62
     7
176
     1
 62
   257
176
     1
 90
        1
176
     1
 90
        1
176
     1
 40
1.0
176
     1
 90
        0
176
     1
 62
     7
176
     1
 40
1.0
176
     1
 90
        1
176
     1
 90
        6
176
     1
 90
        2
176
     1
 62
     7
176
     1
 90
        5
176
     1
 90
        0
176
     1
 90
        0
176
     1
290
     0
176
     1
 90
       13
176
     1
 40
0.0
176
     1
 90
        0
176
     1
290
     0
176
     1
290
     1
176
     1
290
     1
176
     1
290
     0
176
     1
290
     0
176
     1
290
     0
176
     1
290
     0
176
     1
290
     0
176
     1
290
     0
176
     1
 90
       50
176
     1
 40
0.0
176
     1
 40
1.0
176
     1
 90
        0
176
     1
 62
    18
420
        0
176
     1
 90
       50
176
     1
 90
        3
176
     1
 62
     5
420
      255
176
     1
290
     0
176
     1
 90
       50
176
     1
 90
       50
176
     1
 90
       50
176
     1
290
     0
176
     1
 90
       50
176
     1
 62
   256
176
     0
 40
1.0
176
     0
 90
        2
176
     1
  1
strokes_ogs.tif
176
     1
290
     0
176
     1
 40
1.0
176
     1
 40
1.0
176
     1
  0
VISUALSTYLE
  5
F3
102
{ACAD_REACTORS
330
EF
102
}
330
EF
100
AcDbVisualStyle
  2
GouraudWithEdges
 70
     3
177
     3
291
     1
 70
    58
 90
        2
176
     1
 90
        2
176
     1
 90
        1
176
     1
 90
        2
176
     1
 40
0.6
176
     1
 40
30.0
176
     1
 62
     7
420
 16777215
176
     1
 90
        1
176
     1
 90
        0
176
     1
 62
     7
176
     1
 62
   257
176
     1
 90
        1
176
     1
 90
        1
176
     1
 40
1.0
176
     1
 90
        0
176
     1
 62
   257
176
     1
 40
1.0
176
     1
 90
        1
176
     1
 90
        6
176
     1
 90
        2
176
     1
 62
     7
176
     1
 90
        5
176
     1
 90
        0
176
     1
 90
        0
176
     1
290
     0
176
     1
 90
       13
176
     1
 40
0.0
176
     1
 90
        0
176
     1
290
     0
176
     1
290
     1
176
     1
290
     1
176
     1
290
     0
176
     1
290
     0
176
     1
290
     0
176
     1
290
     0
176
     1
290
     0
176
     1
290
     0
176
     1
 90
       50
176
     1
 40
0.0
176
     1
 40
1.0
176
     1
 90
        0
176
     1
 62
    18
420
        0
176
     1
 90
       50
176
     1
 90
        3
176
     1
 62
     5
420
      255
176
     1
290
     0
176
     1
 90
       50
176
     1
 90
       50
176
     1
 90
       50
176
     1
290
     0
176
     1
 90
       50
176
     1
 62
   256
176
     0
 40
1.0
176
     0
 90
        2
176
     1
  1
strokes_ogs.tif
176
     1
290
     0
176
     1
 40
1.0
176
     1
 40
1.0
176
     1
  0
VISUALSTYLE
  5
F7
102
{ACAD_REACTORS
330
EF
102
}
330
EF
100
AcDbVisualStyle
  2
Hidden
 70
     6
177
     3
291
     0
 70
    58
 90
        1
176
     1
 90
        2
176
     1
 90
        2
176
     1
 90
        0
176
     1
 40
0.6
176
     1
 40
30.0
176
     1
 62
     7
420
 16777215
176
     1
 90
        2
176
     1
 90
        2
176
     1
 62
     7
176
     1
 62
   257
176
     1
 90
        2
176
     1
 90
        1
176
     1
 40
40.0
176
     1
 90
        0
176
     1
 62
   257
176
     1
 40
1.0
176
     1
 90
        1
176
     1
 90
        6
176
     1
 90
        2
176
     1
 62
     7
176
     1
 90
        3
176
     1
 90
        0
176
     1
 90
        0
176
     1
290
     0
176
     1
 90
        1
176
     1
 40
0.0
176
     1
 90
        0
176
     1
290
     0
176
     1
290
     1
176
     1
290
     1
176
     1
290
     0
176
     1
290
     0
176
     1
290
     0
176
     1
290
     0
176
     1
290
     0
176
     1
290
     0
176
     1
 90
       50
176
     1
 40
0.0
176
     1
 40
1.0
176
     1
 90
        0
176
     1
 62
    18
420
        0
176
     1
 90
       50
176
     1
 90
        3
176
     1
 62
     5
420
      255
176
     1
290
     0
176
     1
 90
       50
176
     1
 90
       50
176
     1
 90
       50
176
     1
290
     0
176
     1
 90
       50
176
     1
 62
   256
176
     0
 40
1.0
176
     0
 90
        2
176
     1
  1
strokes_ogs.tif
176
     1
290
     0
176
     1
 40
1.0
176
     1
 40
1.0
176
     1
  0
VISUALSTYLE
  5
1E4
102
{ACAD_REACTORS
330
EF
102
}
330
EF
100
AcDbVisualStyle
  2
JitterOff
 70
    20
177
     3
291
     1
 70
    58
 90
        2
176
     0
 90
        2
176
     0
 90
        0
176
     0
 90
        0
176
     0
 40
0.6
176
     0
 40
30.0
176
     0
 62
     7
420
 16777215
176
     0
 90
        1
176
     0
 90
        4
176
     0
 62
     7
176
     0
 62
   257
176
     0
 90
        1
176
     0
 90
        1
176
     0
 40
1.0
176
     0
 90
       10
176
     2
 62
     7
176
     0
 40
1.0
176
     0
 90
        1
176
     0
 90
        6
176
     0
 90
        2
176
     0
 62
     7
176
     0
 90
        5
176
     0
 90
        0
176
     0
 90
        0
176
     0
290
     0
176
     0
 90
        1
176
     0
 40
0.0
176
     0
 90
        0
176
     0
290
     0
176
     1
290
     1
176
     1
290
     1
176
     1
290
     0
176
     1
290
     0
176
     1
290
     0
176
     1
290
     0
176
     1
290
     0
176
     1
290
     0
176
     1
 90
       50
176
     1
 40
0.0
176
     1
 40
1.0
176
     1
 90
        0
176
     1
 62
    18
420
        0
176
     1
 90
       50
176
     1
 90
        3
176
     1
 62
     5
420
      255
176
     1
290
     0
176
     1
 90
       50
176
     1
 90
       50
176
     1
 90
       50
176
     1
290
     0
176
     1
 90
       50
176
     1
 62
   256
176
     0
 40
1.0
176
     0
 90
        2
176
     1
  1
strokes_ogs.tif
176
     1
290
     0
176
     1
 40
1.0
176
     1
 40
1.0
176
     1
  0
VISUALSTYLE
  5
FD
102
{ACAD_REACTORS
330
EF
102
}
330
EF
100
AcDbVisualStyle
  2
Linepattern
 70
    14
177
     3
291
     1
 70
    58
 90
        2
176
     1
 90
        2
176
     1
 90
        1
176
     1
 90
        0
176
     1
 40
0.6
176
     1
 40
30.0
176
     1
 62
     7
420
 16777215
176
     1
 90
        1
176
     1
 90
        4
176
     1
 62
     7
176
     1
 62
   257
176
     1
 90
        7
176
     1
 90
        7
176
     1
 40
1.0
176
     1
 90
        8
176
     1
 62
     7
176
     1
 40
1.0
176
     1
 90
        1
176
     1
 90
        6
176
     1
 90
        2
176
     1
 62
     7
176
     1
 90
        5
176
     1
 90
        0
176
     1
 90
        0
176
     1
290
     0
176
     1
 90
        1
176
     1
 40
0.0
176
     1
 90
        0
176
     1
290
     0
176
     1
290
     1
176
     1
290
     1
176
     1
290
     0
176
     1
290
     0
176
     1
290
     0
176
     1
290
     0
176
     1
290
     0
176
     1
290
     0
176
     1
 90
       50
176
     1
 40
0.0
176
     1
 40
1.0
176
     1
 90
        0
176
     1
 62
    18
420
        0
176
     1
 90
       50
176
     1
 90
        3
176
     1
 62
     5
420
      255
176
     1
290
     0
176
     1
 90
       50
176
     1
 90
       50
176
     1
 90
       50
176
     1
290
     0
176
     1
 90
       50
176
     1
 62
   256
176
     0
 40
1.0
176
     0
 90
        2
176
     1
  1
strokes_ogs.tif
176
     1
290
     0
176
     1
 40
1.0
176
     1
 40
1.0
176
     1
  0
VISUALSTYLE
  5
1E5
102
{ACAD_REACTORS
330
EF
102
}
330
EF
100
AcDbVisualStyle
  2
OverhangOff
 70
    21
177
     3
291
     1
 70
    58
 90
        2
176
     0
 90
        2
176
     0
 90
        0
176
     0
 90
        0
176
     0
 40
0.6
176
     0
 40
30.0
176
     0
 62
     7
420
 16777215
176
     0
 90
        1
176
     0
 90
        4
176
     0
 62
     7
176
     0
 62
   257
176
     0
 90
        1
176
     0
 90
        1
176
     0
 40
1.0
176
     0
 90
        9
176
     2
 62
     7
176
     0
 40
1.0
176
     0
 90
        1
176
     0
 90
        6
176
     0
 90
        2
176
     0
 62
     7
176
     0
 90
        5
176
     0
 90
        0
176
     0
 90
        0
176
     0
290
     0
176
     0
 90
        1
176
     0
 40
0.0
176
     0
 90
        0
176
     0
290
     0
176
     1
290
     1
176
     1
290
     1
176
     1
290
     0
176
     1
290
     0
176
     1
290
     0
176
     1
290
     0
176
     1
290
     0
176
     1
290
     0
176
     1
 90
       50
176
     1
 40
0.0
176
     1
 40
1.0
176
     1
 90
        0
176
     1
 62
    18
420
        0
176
     1
 90
       50
176
     1
 90
        3
176
     1
 62
     5
420
      255
176
     1
290
     0
176
     1
 90
       50
176
     1
 90
       50
176
     1
 90
       50
176
     1
290
     0
176
     1
 90
       50
176
     1
 62
   256
176
     0
 40
1.0
176
     0
 90
        2
176
     1
  1
strokes_ogs.tif
176
     1
290
     0
176
     1
 40
1.0
176
     1
 40
1.0
176
     1
  0
VISUALSTYLE
  5
F9
102
{ACAD_REACTORS
330
EF
102
}
330
EF
100
AcDbVisualStyle
  2
Realistic
 70
     8
177
     3
291
     0
 70
    58
 90
        2
176
     1
 90
        3
176
     1
 90
        0
176
     1
 90
        2
176
     1
 40
0.6
176
     1
 40
30.0
176
     1
 62
     7
420
 16777215
176
     1
 90
        0
176
     1
 90
        0
176
     1
 62
     7
176
     1
 62
   257
176
     1
 90
        1
176
     1
 90
        1
176
     1
 40
1.0
176
     1
 90
        8
176
     1
 62
   257
176
     1
 40
1.0
176
     1
 90
        1
176
     1
 90
        6
176
     1
 90
        2
176
     1
 62
     7
176
     1
 90
        3
176
     1
 90
        0
176
     1
 90
        0
176
     1
290
     0
176
     1
 90
       13
176
     1
 40
0.0
176
     1
 90
        0
176
     1
290
     0
176
     1
290
     1
176
     1
290
     1
176
     1
290
     0
176
     1
290
     0
176
     1
290
     0
176
     1
290
     0
176
     1
290
     0
176
     1
290
     0
176
     1
 90
       50
176
     1
 40
0.0
176
     1
 40
1.0
176
     1
 90
        0
176
     1
 62
    18
420
        0
176
     1
 90
       50
176
     1
 90
        3
176
     1
 62
     5
420
      255
176
     1
290
     0
176
     1
 90
       50
176
     1
 90
       50
176
     1
 90
       50
176
     1
290
     0
176
     1
 90
       50
176
     1
 62
   256
176
     0
 40
1.0
176
     0
 90
        2
176
     1
  1
strokes_ogs.tif
176
     1
290
     0
176
     1
 40
1.0
176
     1
 40
1.0
176
     1
  0
VISUALSTYLE
  5
1F3
102
{ACAD_REACTORS
330
EF
102
}
330
EF
100
AcDbVisualStyle
  2
Shaded
 70
    27
177
     3
291
     0
 70
    58
 90
        2
176
     1
 90
        2
176
     1
 90
        1
176
     1
 90
        2
176
     1
 40
0.6
176
     1
 40
30.0
176
     1
 62
     7
420
 16777215
176
     1
 90
        0
176
     1
 90
        4
176
     1
 62
     7
176
     1
 62
   257
176
     1
 90
        1
176
     1
 90
        1
176
     1
 40
1.0
176
     1
 90
        8
176
     1
 62
   257
176
     1
 40
1.0
176
     1
 90
        1
176
     1
 90
        6
176
     1
 90
        2
176
     1
 62
     8
420
  7895160
176
     1
 90
        3
176
     1
 90
        0
176
     1
 90
        0
176
     1
290
     0
176
     1
 90
        5
176
     1
 40
0.0
176
     1
 90
        0
176
     1
290
     0
176
     1
290
     1
176
     1
290
     1
176
     1
290
     0
176
     1
290
     0
176
     1
290
     0
176
     1
290
     0
176
     1
290
     0
176
     1
290
     0
176
     1
 90
       50
176
     1
 40
0.0
176
     1
 40
1.0
176
     1
 90
        0
176
     1
 62
    18
420
        0
176
     1
 90
       50
176
     1
 90
        3
176
     1
 62
     5
420
      255
176
     1
290
     0
176
     1
 90
       50
176
     1
 90
       50
176
     1
 90
       50
176
     1
290
     0
176
     1
 90
       50
176
     1
 62
   256
176
     0
 40
1.0
176
     0
 90
        2
176
     1
  1
strokes_ogs.tif
176
     1
290
     0
176
     1
 40
1.0
176
     1
 40
1.0
176
     1
  0
VISUALSTYLE
  5
1F2
102
{ACAD_REACTORS
330
EF
102
}
330
EF
100
AcDbVisualStyle
  2
Shaded with edges
 70
    26
177
     3
291
     0
 70
    58
 90
        2
176
     1
 90
        2
176
     1
 90
        1
176
     1
 90
        2
176
     1
 40
0.6
176
     1
 40
30.0
176
     1
 62
     7
420
 16777215
176
     1
 90
        1
176
     1
 90
        2
176
     1
 62
     7
176
     1
 62
   257
176
     1
 90
        2
176
     1
 90
        1
176
     1
 40
1.0
176
     1
 90
        8
176
     1
 62
   257
176
     1
 40
1.0
176
     1
 90
        1
176
     1
 90
        6
176
     1
 90
        2
176
     1
 62
     7
176
     1
 90
        3
176
     1
 90
        0
176
     1
 90
        0
176
     1
290
     0
176
     1
 90
        5
176
     1
 40
0.0
176
     1
 90
        0
176
     1
290
     0
176
     1
290
     1
176
     1
290
     1
176
     1
290
     0
176
     1
290
     0
176
     1
290
     0
176
     1
290
     0
176
     1
290
     0
176
     1
290
     0
176
     1
 90
       50
176
     1
 40
0.0
176
     1
 40
1.0
176
     1
 90
        0
176
     1
 62
    18
420
        0
176
     1
 90
       50
176
     1
 90
        3
176
     1
 62
     5
420
      255
176
     1
290
     0
176
     1
 90
       50
176
     1
 90
       50
176
     1
 90
       50
176
     1
290
     0
176
     1
 90
       50
176
     1
 62
   256
176
     0
 40
1.0
176
     0
 90
        2
176
     1
  1
strokes_ogs.tif
176
     1
290
     0
176
     1
 40
1.0
176
     1
 40
1.0
176
     1
  0
VISUALSTYLE
  5
1EF
102
{ACAD_REACTORS
330
EF
102
}
330
EF
100
AcDbVisualStyle
  2
Shades of Gray
 70
    23
177
     3
291
     0
 70
    58
 90
        2
176
     1
 90
        2
176
     1
 90
        3
176
     1
 90
        0
176
     1
 40
0.6
176
     1
 40
30.0
176
     1
 62
     7
420
 16777215
176
     1
 90
        2
176
     1
 90
        2
176
     1
 62
     7
176
     1
 62
     7
176
     1
 90
        1
176
     1
 90
        1
176
     1
 40
40.0
176
     1
 90
        8
176
     1
 62
     7
176
     1
 40
1.0
176
     1
 90
        1
176
     1
 90
        6
176
     1
 90
        2
176
     1
 62
     7
176
     1
 90
        3
176
     1
 90
        0
176
     1
 90
        0
176
     1
290
     0
176
     1
 90
        1
176
     1
 40
0.0
176
     1
 90
        0
176
     1
290
     0
176
     1
290
     1
176
     1
290
     1
176
     1
290
     0
176
     1
290
     0
176
     1
290
     0
176
     1
290
     0
176
     1
290
     0
176
     1
290
     0
176
     1
 90
       50
176
     1
 40
0.0
176
     1
 40
1.0
176
     1
 90
        0
176
     1
 62
    18
420
        0
176
     1
 90
       50
176
     1
 90
        3
176
     1
 62
     5
420
      255
176
     1
290
     0
176
     1
 90
       50
176
     1
 90
       50
176
     1
 90
       50
176
     1
290
     0
176
     1
 90
       50
176
     1
 62
   256
176
     0
 40
1.0
176
     0
 90
        2
176
     1
  1
strokes_ogs.tif
176
     1
290
     0
176
     1
 40
1.0
176
     1
 40
1.0
176
     1
  0
VISUALSTYLE
  5
1F0
102
{ACAD_REACTORS
330
EF
102
}
330
EF
100
AcDbVisualStyle
  2
Sketchy
 70
    24
177
     3
291
     0
 70
    58
 90
        1
176
     1
 90
        2
176
     1
 90
        2
176
     1
 90
        0
176
     1
 40
0.6
176
     1
 40
30.0
176
     1
 62
     7
420
 16777215
176
     1
 90
        2
176
     1
 90
        2
176
     1
 62
     7
176
     1
 62
     7
176
     1
 90
        1
176
     1
 90
        1
176
     1
 40
40.0
176
     1
 90
       11
176
     1
 62
     7
176
     1
 40
1.0
176
     1
 90
        1
176
     1
 90
        6
176
     1
 90
        2
176
     1
 62
     7
176
     1
 90
        6
176
     1
 90
        0
176
     1
 90
        0
176
     1
290
     0
176
     1
 90
        1
176
     1
 40
0.0
176
     1
 90
        0
176
     1
290
     0
176
     1
290
     1
176
     1
290
     1
176
     1
290
     0
176
     1
290
     0
176
     1
290
     0
176
     1
290
     0
176
     1
290
     0
176
     1
290
     0
176
     1
 90
       50
176
     1
 40
0.0
176
     1
 40
1.0
176
     1
 90
        0
176
     1
 62
    18
420
        0
176
     1
 90
       50
176
     1
 90
        3
176
     1
 62
     5
420
      255
176
     1
290
     0
176
     1
 90
       50
176
     1
 90
       50
176
     1
 90
       50
176
     1
290
     0
176
     1
 90
       50
176
     1
 62
   256
176
     0
 40
1.0
176
     0
 90
        2
176
     1
  1
strokes_ogs.tif
176
     1
290
     0
176
     1
 40
1.0
176
     1
 40
1.0
176
     1
  0
VISUALSTYLE
  5
FC
102
{ACAD_REACTORS
330
EF
102
}
330
EF
100
AcDbVisualStyle
  2
Thicken
 70
    13
177
     3
291
     1
 70
    58
 90
        2
176
     1
 90
        2
176
     1
 90
        1
176
     1
 90
        0
176
     1
 40
0.6
176
     1
 40
30.0
176
     1
 62
     7
420
 16777215
176
     1
 90
        1
176
     1
 90
        4
176
     1
 62
     7
176
     1
 62
   257
176
     1
 90
        1
176
     1
 90
        1
176
     1
 40
1.0
176
     1
 90
       12
176
     1
 62
     7
176
     1
 40
1.0
176
     1
 90
        1
176
     1
 90
        6
176
     1
 90
        2
176
     1
 62
     7
176
     1
 90
        5
176
     1
 90
        0
176
     1
 90
        0
176
     1
290
     0
176
     1
 90
        1
176
     1
 40
0.0
176
     1
 90
        0
176
     1
290
     0
176
     1
290
     1
176
     1
290
     1
176
     1
290
     0
176
     1
290
     0
176
     1
290
     0
176
     1
290
     0
176
     1
290
     0
176
     1
290
     0
176
     1
 90
       50
176
     1
 40
0.0
176
     1
 40
1.0
176
     1
 90
        0
176
     1
 62
    18
420
        0
176
     1
 90
       50
176
     1
 90
        3
176
     1
 62
     5
420
      255
176
     1
290
     0
176
     1
 90
       50
176
     1
 90
       50
176
     1
 90
       50
176
     1
290
     0
176
     1
 90
       50
176
     1
 62
   256
176
     0
 40
1.0
176
     0
 90
        2
176
     1
  1
strokes_ogs.tif
176
     1
290
     0
176
     1
 40
1.0
176
     1
 40
1.0
176
     1
  0
VISUALSTYLE
  5
F6
102
{ACAD_REACTORS
330
EF
102
}
330
EF
100
AcDbVisualStyle
  2
Wireframe
 70
     5
177
     3
291
     0
 70
    58
 90
        0
176
     1
 90
        2
176
     1
 90
        0
176
     1
 90
        0
176
     1
 40
0.6
176
     1
 40
30.0
176
     1
 62
     7
420
 16777215
176
     1
 90
        1
176
     1
 90
        4
176
     1
 62
     7
176
     1
 62
   257
176
     1
 90
        1
176
     1
 90
        1
176
     1
 40
1.0
176
     1
 90
        0
176
     1
 62
   257
176
     1
 40
1.0
176
     1
 90
        1
176
     1
 90
        6
176
     1
 90
        2
176
     1
 62
     7
176
     1
 90
        3
176
     1
 90
        0
176
     1
 90
        0
176
     1
290
     0
176
     1
 90
        1
176
     1
 40
0.0
176
     1
 90
        0
176
     1
290
     0
176
     1
290
     1
176
     1
290
     1
176
     1
290
     0
176
     1
290
     0
176
     1
290
     0
176
     1
290
     0
176
     1
290
     0
176
     1
290
     0
176
     1
 90
       50
176
     1
 40
0.0
176
     1
 40
1.0
176
     1
 90
        0
176
     1
 62
    18
420
        0
176
     1
 90
       50
176
     1
 90
        3
176
     1
 62
     5
420
      255
176
     1
290
     0
176
     1
 90
       50
176
     1
 90
       50
176
     1
 90
       50
176
     1
290
     0
176
     1
 90
       50
176
     1
 62
   256
176
     0
 40
1.0
176
     0
 90
        2
176
     1
  1
strokes_ogs.tif
176
     1
290
     0
176
     1
 40
1.0
176
     1
 40
1.0
176
     1
  0
VISUALSTYLE
  5
1F1
102
{ACAD_REACTORS
330
EF
102
}
330
EF
100
AcDbVisualStyle
  2
X-Ray
 70
    25
177
     3
291
     0
 70
    58
 90
        2
176
     1
 90
        2
176
     1
 90
        1
176
     1
 90
        1
176
     1
 40
0.5
176
     1
 40
30.0
176
     1
 62
     7
420
 16777215
176
     1
 90
        1
176
     1
 90
        0
176
     1
 62
     7
176
     1
 62
   257
176
     1
 90
        1
176
     1
 90
        1
176
     1
 40
1.0
176
     1
 90
        8
176
     1
 62
     7
176
     1
 40
1.0
176
     1
 90
        1
176
     1
 90
        6
176
     1
 90
        2
176
     1
 62
     7
176
     1
 90
        3
176
     1
 90
        0
176
     1
 90
        0
176
     1
290
     0
176
     1
 90
       13
176
     1
 40
0.0
176
     1
 90
        0
176
     1
290
     0
176
     1
290
     1
176
     1
290
     1
176
     1
290
     0
176
     1
290
     0
176
     1
290
     0
176
     1
290
     0
176
     1
290
     0
176
     1
290
     0
176
     1
 90
       50
176
     1
 40
0.0
176
     1
 40
1.0
176
     1
 90
        0
176
     1
 62
    18
420
        0
176
     1
 90
       50
176
     1
 90
        3
176
     1
 62
     5
420
      255
176
     1
290
     0
176
     1
 90
       50
176
     1
 90
       50
176
     1
 90
       50
176
     1
290
     0
176
     1
 90
       50
176
     1
 62
   256
176
     0
 40
1.0
176
     0
 90
        2
176
     1
  1
strokes_ogs.tif
176
     1
290
     0
176
     1
 40
1.0
176
     1
 40
1.0
176
     1
  0
DICTIONARYVAR
  5
146
102
{ACAD_REACTORS
330
5E
102
}
330
5E
100
DictionaryVariables
280
     0
  1
1:1
  0
DICTIONARYVAR
  5
259
102
{ACAD_REACTORS
330
5E
102
}
330
5E
100
DictionaryVariables
280
     0
  1
3.500000
  0
DICTIONARYVAR
  5
25A
102
{ACAD_REACTORS
330
5E
102
}
330
5E
100
DictionaryVariables
280
     0
  1
acadiso.lin
  0
DICTIONARYVAR
  5
145
102
{ACAD_REACTORS
330
5E
102
}
330
5E
100
DictionaryVariables
280
     0
  1
STANDARD
  0
DICTIONARYVAR
  5
84
102
{ACAD_REACTORS
330
5E
102
}
330
5E
100
DictionaryVariables
280
     0
  1
STANDARD
  0
DICTIONARYVAR
  5
227
102
{ACAD_REACTORS
330
5E
102
}
330
5E
100
DictionaryVariables
280
     0
  1
Metric50
  0
DICTIONARYVAR
  5
228
102
{ACAD_REACTORS
330
5E
102
}
330
5E
100
DictionaryVariables
280
     0
  1
Metric50
  0
DICTIONARYVAR
  5
5F
102
{ACAD_REACTORS
330
5E
102
}
330
5E
100
DictionaryVariables
280
     0
  1
2
  0
DICTIONARYVAR
  5
63
102
{ACAD_REACTORS
330
5E
102
}
330
5E
100
DictionaryVariables
280
     0
  1
1
  0
DICTIONARYVAR
  5
1AE
102
{ACAD_REACTORS
330
5E
102
}
330
5E
100
DictionaryVariables
280
     0
  1
0
  0
DICTIONARYVAR
  5
1AF
102
{ACAD_REACTORS
330
5E
102
}
330
5E
100
DictionaryVariables
280
     0
  1
0
  0
DICTIONARY
  5
205
330
22
100
AcDbDictionary
280
     1
281
     1
  0
DICTIONARY
  5
1F9
330
ED
100
AcDbDictionary
280
     1
281
     1
  3
FBXASSET
360
1FA
  0
DICTIONARY
  5
1F7
330
EC
100
AcDbDictionary
280
     1
281
     1
  3
FBXASSET
360
1F8
  0
DICTIONARY
  5
173
330
EE
100
AcDbDictionary
280
     1
281
     1
  3
BUMPTILE
360
175
  3
DIFFUSETILE
360
174
  3
FBXASSET
360
1FB
  3
OPACITYTILE
360
176
  3
REFLECTIONTILE
360
177
  0
DICTIONARY
  5
162
330
7F
100
AcDbDictionary
280
     1
281
     1
  3
ACAD_ROUNDTRIP_2008_TABLESTYLE_CELLSTYLEMAP
360
50E
  0
XRECORD
  5
1FA
102
{ACAD_REACTORS
330
1F9
102
}
330
1F9
100
AcDbXrecord
280
     1
 70
     1
 90
429727718
  1
D62C5603-E3A1-4AEA-B7FB-FE5D8D0755AF
310
504B03040A0000080000CC70623B3DEE336E79000000790000001B0000006175746F6465736B2D64657369676E2D7061636B6167652E786D6C3C3F786D6C2076657273696F6E3D22312E302220656E636F64696E673D227574662D3822203F3E3C666F726D6174733E3C666F726D61743E687474703A2F2F736368656D612E
310
6175746F6465736B2E636F6D2F64657369676E2D7061636B6167652F323030393C2F666F726D61743E3C2F666F726D6174733E504B0304140006080800CC70623BD486FD9CA0000000F4000000130000005B436F6E74656E745F54797065735D2E786D6C7D8EC10E82300C865F65E91D8A1E8C310C0EEA1BF002731658846E
310
D98AC1B77784ABF1D8FE5FBFBF75BBCE937A534CCEB38643598122B6FEE978D0B0485F9C41B54DDD7D022595594E1A469170414C76A4D9A4D207E29CF43ECE46F218070CC6BECC4078ACAA135ACF422C856C0E68EA1BF5669944DDD7BCDE7B1F8E415D77AECB980613C2E4AC91FC167A2B244592486606FC29C8FD7F045B9A
310
EF7053A7E60B504B0304140006080800CC70623B853B8169EB0000007C01000008000000636F72652E786D6C8D90416EC3201045AF62CDB6C206821CC7C244919D9CA01740401C94182C03558F5F9C3852BBEB6A467FFE9B197D7EFC9E1EC5975982F5AE035262288C535E5B377690E21535501C055FBC8FBF6C503839990E
310
5619041F179FE64D52DE45E362569DD7661365082642A11EB9E920A89B99642953CC8E702F67A9EE7234257977194EC9EAE275C4EABCCF5EAD5940D4AC6F0E35A568B8F43562CD7046CD199FD07E60174276A7BE677B5EADB0E0D14EEFFB6A31321A0D82627C4084204C3F096B71DD52F6819B16635EADF63F509AF53FA164
310
5DDCD1EDDD17164090FCC8732078B56691CB33A85CD7DCC40F504B0304140006080800CC70623B55019EA25F0000007C00000007000000636E782E786D6C4DCB3B0E80201045D1AD90E915ED2CF8AC45050C11660C8261F98AB1B07AC9C97D42D718D865D3E909258CFD00CCE24AC6E326A164D74DC0B4128928FF32603847
310
2BA13128B1252AC747C6BAB984FC68F0B87FE8960A5C09FE86CFB69FBA01504B0304140006080800CC70623BDBABAAF470010000D40300000C0000006662782F636F72652E786D6CC553D16E823014FD95A6AF4B694182CC941A83FA05FB810A9511A125A5257EFE2E82712ECEB8A7F100CD39F7F69E734AF9FADC366850B6
310
AF8DCE7018308C942E4C59EB2AC3DE1D498AD15A706B8CFB56869196ADCAF00863C12B6B7C374385D14E6907A836A59A41D9F7CA615434B0C8705F7CAA5606D23BA8E84F41278B93AC54100640439DE0BDB320004D43C63716C7C399D30917DCFBBA9CD9BA8469F5B156168B24CED3F7248AC8769F27244EB73B92EED8862C
310
B7F13E0C179B3C8F979C8ECD82BBBABDAA2BAC924E9558448CBD9330242CFA08E3154B5651FCC6D215639C8EE5774DBE2B5F6CF2B5768B68963BB5F5588420E442FC700B1139D4CB01F450C1E918227C2E09DF070D8140C84E1E9AAB8F1340832A9CB13130A5F1376A908D57309505ECF2A0DF179C4E9D30F5B239B87E3823
310
7A79C6F31DE1A8A5AEC08474B03C7837EAE4938639B44E5932B833D2C6B6B279CDC613877FA26EE21F4A2A4C63EC7F29A2F301D1F9F7A0E37D145F504B0304140006080800CC70623B9C113CC27E0000009D0000000B0000006662782F636E782E786D6C4DCCDF0A83201C86E15B91DFB94BFB330DD428C8FB886521330DA7
310
6397BF1A1DECE883878F57749FCDA1B7892F1BBC047A23808C7F84D9FA55424E0BE6803A256208E9EF06C84F9B91703228B1C690F78B66B34CD9A5439DF5CF0BFBF65E35BCA1B8D6A5C6F540381E886698B5741C695F9503EBA150A2F8958E3DC3EA0B504B0304140006080800CC70623B7DF2F77C2A010000120200003100
310
00006662782F41393633353835312D344632462D344230382D423046372D3739314545314133324237412F636F72652E786D6C8D51DB8EC22014FC15C2939B0D2DB4B45643319AE817EC0F6041255A68B86CFCFC856D4D76DF7CE190393373060EDB3DC707F856CE6B6B7A480A0C81328395DA5C7B18C3057510EC3873D686
310
3F34088C18550F330C39BB3A1BA7051AAC09CA84841A2BD5020AEF55806078A44B0FFD7053A328440C89E1EFC52486BBB8AA8214A99D789CF9E05200300FC927E4FB4D5B375D43103D5527440FB843077C5AA3F5861C8F645F5787F59E95B390B318B55CE45AA638FAA2957BD7248B390B7A7CC51F9C124149C82B8C378810
310
84AB2F42B7B8DD56F413775B8C5999E9FF4471926F8AA236A1AE96B8B3CC434E5839373893369E1FAF30EA395917409EB7F26AF8801C171837A4A6AC9C89E9F9C9B1A58BA30FD6A5EF5DDDCF894B9AD9B6A59C957943A9FCAE2FD5BC4DFE03504B0304140006080800CC70623BAD7543B64E01000033030000300000006662
310
782F41393633353835312D344632462D344230382D423046372D3739314545314133324237412F636E782E786D6CD593CD6EC32010845F0571AD6CE3D48AD20813A9873E410FBD12D82434182C7EAAE6EDBB2424CD25871E7B41D6EC30B3FA84F9E67BB2E40B4234DE8DB46F1925E094D7C6ED479AD3AE5951B2113C789FEE
310
6C943839C1488B4C05DF079FE72A69D8C96C13AAD6B8631503449F83828872B949AC57D26200B826A308D316B4064D6E46FCDA41C05550DC9E483A00797BFD207EFB092A45DE9514C1BBD22178396BD39D891265658C238DEA00936C654E5E433CB65A26D9F6EDB5EBC14EBF49A45CB856E66048291F6939A9A81BB5C89177
310
38143CA680F4AA299D66A042CEB3354A2684DC9D8D178FE0D9B8B41CAAD720F880EE7EF93C0C18769E099ECC04D5A102C8049A8A05632F4DDF376CF1DE0F6BB65C2F8627B65A33C6BB62177CEBBDAD973006829F89F22E814B54F4BC2BE347F8AA8F681390B50FA73F804400B5F542E796F19FF974E7F78DB802FE05E20750
310
4B0304140006080800CC70623BE75B7789680500003C100000340000006662782F41393633353835312D344632462D344230382D423046372D3739314545314133324237412F6F626A656374732E786D6CAD575B8F9B3818FD2B887D06C22499CB8AA1CA655245D5B455A356FB305264C061D8018C6C3393D95FBFC7600890
310
A4CD5EF210B0B1BFEBF98E3F7B1FF6596ABC522E1296DF9BAE3D320D9A872C4AF2F8DE2CE5CEBA358D0FBEC719939D65A691938CDE9B6ADAF4BD98B3B2D05311DD91329583D9D5FC0F438434A7A611A644887B5384CF34233629258BA878B12322891DEFF6B66BD70BFB62634E8AE781D082709A4B588AF91C528CDA28B73F
310
1C998EEF39EABBEFA97FBD6A7C7E9553F9D3D79FE442923C3C523610337627CB87ABE99D359D4CC6D6E4FACAB5E6ABF9D2726FC6A3C5F56271377BB88362213924694B38DD99FE47C48627A1E7D49F5A8BB5E1A74C0A599ED3B0F21F1E56366B89112D681E218F0915D0D6F17AD41FBA2A369DCF6335D62ABBD39779D5DDD1
310
11D4D8DE3CBB96B2E04FB8202E41051754A1AA8E8F76B4C6DFE810B580B1547F4B84911149794252234D024EF8BBE963A95AE27B3D310A9D5C215C7960FAEE415ED75694C6AFB17BCACA5D99A60A9AA65F217B0BFC53292ACB92BF283FAD0D3621576592CB5BED907C2FA8E9DF794E35E97BEA31BED21FEB401ABB94C44839
310
DCACBF0E1C5DA8DA5B2F4DFFD32AD86F543D9E565E7056502E157C00AD2671CD534549AB752FCA9CDA00677A313F04E51B22FF19E57B300579E3C97EB29F682D92935CEC18CF901B7B54FD8C51F362B56FC72FE0B3C1EAE335EDCCBF5AEC39ADB17DC238973F804BA5E6F6BFE7AF1FB32E523BE9F3BD571418E3631DCA4D48
310
5250CF639223210A9446CA30052EDF057BD35F8329C1ECD84552BF0DC8D18BE7BCE23BFE6BD960AB4A7DE79923A103BEBD80F911CBAA2C60DB19B01CF164A5583B772EE6D3FFA56666CBCDA74DC97724A48F9A58967497E489C4D979006FD7A05E227A1EBDD0F737C623387A9C844D3709995625106D157315F8B8392CD4E0
310
A0B9A720C4BE9829CEF37EA1E13111214D53925356365ADA634861B52519DD27A00AEB808EAF0628E6F435519D446F45CF2C9CF5214F0A15B2F6D06B79DA3EE3CBF7F56780D2F4E7EF73A0F5E5B02A38D07DC852C6B7C1FBB6664213E0C39E3EBA7FF4E1AD23EA2829407C85E586727488B751B2DB9502BC7B228A3FD68B6E
310
A65A22397E690AA8D158D7E404EC8CDA235CC3B7D1898680131CEC2CDF2638C65196279577750F15884AEE19F94199155B92B13297978469D4F8D358DF0AEF7631E28DC8F0D9F437D5D39A83B2231A1D52D543813A824EF8D44BCFF2FA6A31BD1E8DAD87F1CCB526B3879935BF59CDADD5C37479BB1CDD4CA7B3556B516589
310
EF352754B706114D9C885EC9131DE6EFEB43D99AFE2391C2F958179413D7CFEF6B1B6DB1E7600F00DE6E5C67454A339A4BA2E0FBA85ED26F045D454F463DBFCE484C2F90F2E5E3666003662ED8F755951A7D1BECD5B30B550B2785C8E7320B7292A4838DDA71BBC863ED7613CAF659337A3354231D4FF4A182A54904C2898C
310
98B28C4AD0CE056CCF332A80986E571EE9DBC305BB5FEB7E509220A58D25CF042D712A806AC0AD0C657FDEF80D2D9CEAA2EE4D1C76F60BFE74219A06527D6F82DF6412526107381E55E353090704D085B52408A8913C4ED159D79BDA71BB4BC506F4831350EB6F975CD22D69BF7AC49B91A2C0A9DDA3D5CA36AD20FC478E37
310
E61844E2352865EBCB61A275A65283CAAA9DD27703B4102F5AF51EF5F573B75CBB5AD38BC845F7A49F82A0966A49C2E3EA5EA0ECD326CD965F1DB402C6FA8B51A4658C5C5E2EC9E214602E55810345408596591009A82E7E7FFACA19EEA299B14A0081A705CB3296EBC14CDF658DCD336EA6D1136881AAEB87B81AB9EE53D5
310
F5EB8BC8362082DA24122F98680A4E7930C01A0079749CEA14382A0783E5EBA5A10F8C098456A03D6A4AEB6BB881E2513747552A5DB22C7EDAF83BD5528081A365F7FF06504B0304140006080000CC70623B000000000000000000000000350000006662782F41393633353835312D344632462D344230382D423046372D37
310
39314545314133324237412F76657274696365732E62696E504B0304140006080800CC70623BF270F1330600000004000000360000006662782F41393633353835312D344632462D344230382D423046372D3739314545314133324237412F747269616E676C65732E62696E636660600000504B0304140006080000CC7062
310
3B000000000000000000000000370000006662782F41393633353835312D344632462D344230382D423046372D3739314545314133324237412F617474726962757465732E62696E504B0304140006080800CC70623B08DA0BD19000000041010000360000006662782F41393633353835312D344632462D344230382D4230
310
46372D3739314545314133324237412F6469726563746F72792E786D6C858F410AC3201045AF22B36F53E9A60B35CBEEBAE80D244E44489C6234F4F835464A48035D0DF398FF9F8AF63D0E6CC63039F212F8F9020C7D47C6792B21C5FE7403D62A1188E2E60C98D7234A5830286103A55745067B9D86B8A3CF9C7F90C11DE6
310
07FB144396D7B6A82D282E9A152AD114D5EF2CB866EEE831B8EEA07A7BB5A8D7D61A2BAAEB7FD5F70921FF497D00504B0304140006080800CC70623BEDD1DC58FD000000A00100003B0000006662782F41393633353835312D344632462D344230382D423046372D3739314545314133324237412F7265736F75726365732F
310
636F72652E786D6C8D504B6E833010BD0A9A6D65B00922041947112427E8052C33A156828DFCA97AFC9A40A576D7CDCCE87D344F8F9FBFE667F689CE6B6B3A6039850C8DB2A336530731DC4903D95970676DF82583CCC8193B5861107C72362E3BA4AC096842428D1D7107A5F7182053CF7474E0D507CE32973124857FE48B
310
540F3961CEF244279DE03EB81420DB9EAC1384436FA353E879B1B182C7A8C75DA3C7F453DF353A1075D537A7BA6464B8F535A99AE14A9A2BBD90E350DD183B5CFABE3AF262350B1EF4FC9351399401471025A527C218A1E53BAB5A5AB765F5469B96525EACF23FA6B88CFF34456DC2A1DCE36E360F82A5202F42F062ED2BAD
310
579969AFDD8A6F504B010214000A0000080000CC70623B3DEE336E79000000790000001B00000000000000000000000000000000006175746F6465736B2D64657369676E2D7061636B6167652E786D6C504B01021400140006080800CC70623BD486FD9CA0000000F40000001300000000000000000000000000B20000005B
310
436F6E74656E745F54797065735D2E786D6C504B01021400140006080800CC70623B853B8169EB0000007C010000080000000000000000000000000083010000636F72652E786D6C504B01021400140006080800CC70623B55019EA25F0000007C000000070000000000000000000000000094020000636E782E786D6C504B
310
01021400140006080800CC70623BDBABAAF470010000D40300000C00000000000000000000000000180300006662782F636F72652E786D6C504B01021400140006080800CC70623B9C113CC27E0000009D0000000B00000000000000000000000000B20400006662782F636E782E786D6C504B01021400140006080800CC70
310
623B7DF2F77C2A010000120200003100000000000000000000000000590500006662782F41393633353835312D344632462D344230382D423046372D3739314545314133324237412F636F72652E786D6C504B01021400140006080800CC70623BAD7543B64E010000330300003000000000000000000000000000D2060000
310
6662782F41393633353835312D344632462D344230382D423046372D3739314545314133324237412F636E782E786D6C504B01021400140006080800CC70623BE75B7789680500003C10000034000000000000000000000000006E0800006662782F41393633353835312D344632462D344230382D423046372D3739314545
310
314133324237412F6F626A656374732E786D6C504B01021400140006080000CC70623B0000000000000000000000003500000000000000000000000000280E00006662782F41393633353835312D344632462D344230382D423046372D3739314545314133324237412F76657274696365732E62696E504B01021400140006
310
080800CC70623BF270F133060000000400000036000000000000000000000000007B0E00006662782F41393633353835312D344632462D344230382D423046372D3739314545314133324237412F747269616E676C65732E62696E504B01021400140006080000CC70623B0000000000000000000000003700000000000000
310
000000000000D50E00006662782F41393633353835312D344632462D344230382D423046372D3739314545314133324237412F617474726962757465732E62696E504B01021400140006080800CC70623B08DA0BD1900000004101000036000000000000000000000000002A0F00006662782F41393633353835312D344632
310
462D344230382D423046372D3739314545314133324237412F6469726563746F72792E786D6C504B01021400140006080800CC70623BEDD1DC58FD000000A00100003B000000000000000000000000000E1000006662782F41393633353835312D344632462D344230382D423046372D3739314545314133324237412F7265
310
736F75726365732F636F72652E786D6C504B0506000000000E000E0080040000641100000000
  0
XRECORD
  5
1F8
102
{ACAD_REACTORS
330
1F7
102
}
330
1F7
100
AcDbXrecord
280
     1
 70
     1
 90
429727718
  1
30362254-06B7-45E0-A893-8CFA70E3D6BC
310
504B03040A0000080000CC70623B3DEE336E79000000790000001B0000006175746F6465736B2D64657369676E2D7061636B6167652E786D6C3C3F786D6C2076657273696F6E3D22312E302220656E636F64696E673D227574662D3822203F3E3C666F726D6174733E3C666F726D61743E687474703A2F2F736368656D612E
310
6175746F6465736B2E636F6D2F64657369676E2D7061636B6167652F323030393C2F666F726D61743E3C2F666F726D6174733E504B0304140006080800CC70623BD486FD9CA0000000F4000000130000005B436F6E74656E745F54797065735D2E786D6C7D8EC10E82300C865F65E91D8A1E8C310C0EEA1BF002731658846E
310
D98AC1B77784ABF1D8FE5FBFBF75BBCE937A534CCEB38643598122B6FEE978D0B0485F9C41B54DDD7D022595594E1A469170414C76A4D9A4D207E29CF43ECE46F218070CC6BECC4078ACAA135ACF422C856C0E68EA1BF5669944DDD7BCDE7B1F8E415D77AECB980613C2E4AC91FC167A2B244592486606FC29C8FD7F045B9A
310
EF7053A7E60B504B0304140006080800CC70623B1EC5D7A3EB0000007C01000008000000636F72652E786D6C8D90416EC3201045AF82665B6103C6756C6122AB4D4ED00B204C5C94182C03558F5F9C3852BBEB6A467FFE9B197D71FC9E6FE8CBACC17AD7032D0820E3B41FAD9B7A48F1820F808E52ACDEC75F36404ECDA687
310
4D0629A6D5A76597B477D1B89855E747B38B2A041301E95B6E7A08FAD3CCAA50296647B8168BD2573599823EBB0CA76447F43862C7BCCF5EAC59410E4DDD9C7973C2755553CCCFA4C603E3040F1565ED3B1FDE4E432BCA0D9622DAF9795FAF464533826484B498524CD807E51D79ED187F21878E10516EF63F505AC67F42C9
310
BA58B1FDDD071640D2FCC87D2045B96591CB3DA85CB7DCE40F504B0304140006080800CC70623B55019EA25F0000007C00000007000000636E782E786D6C4DCB3B0E80201045D1AD90E915ED2CF8AC45050C11660C8261F98AB1B07AC9C97D42D718D865D3E909258CFD00CCE24AC6E326A164D74DC0B4128928FF32603847
310
2BA13128B1252AC747C6BAB984FC68F0B87FE8960A5C09FE86CFB69FBA01504B0304140006080800CC70623B8C9102E971010000D40300000C0000006662782F636F72652E786D6CC5535B6E833010BC8AE5DF0A6C08340F1947A84D4ED00B38C6A128602363A31CBFCB234A53A551FA553EC09AD9F5CE8C31DB9E9B1AF5CA
310
7695D1198E428A91D2D214952E33ECDD315861B4E5CC1AE3BE9561A445A3323CC098B3D21ADFCE9034DA29ED00D5A6503328BA4E398C640D8B0C77F253352214DE4145770A5B214FA2546114020D759C75CE8200340D19DE981F0F6746269C33EFAB6266AB02A655C74A59CCF365BADC27CB5D902ED22848F6340DF238A141
310
BE88E2F57B92BFEDF23523433367AE6A2EEAA455C2A902F398D2751045018D3FA264435F3771F242571B4A1919CA6F9A7C5B3CD9E42BED16F12C776AEB308F40C848FC700B1139D4891EF410CEC810227CC6846F8386402064270EF5C5C709A05E49676C024C61FC95EA45ED154CA5211D1FF4FB8291A913A68E9B83EBBB33
310
E2A7673CDE118E5AE8124C0807CB8377834E366998436B950D7A7746DAD846D4CFD978E0F04FD455FC5D49D2D4C6FE9722321F10997F0F32DC47FE05504B0304140006080800CC70623BFFEA85907E0000009D0000000B0000006662782F636E782E786D6C4DCCD10A83201886E15B91FFDC95D95A811AB6F23E625948A6C3
310
E9D8E5AF46073BFAE0E1E365ED67B3E8ADC3CB78C7815C7240DA3DFC64DCC221C519D7805AC182F7F1EF06C88D9BE6703008B6049F9E274D7A1E938DBB5AE3D6131B2589BA0D3D965551E0B2EA732C9B9A624AAEB41E3A557677029960D9AFB4EF11165F504B0304140006080800CC70623B4FEEA4082C0100001202000031
310
0000006662782F39464131463745442D413632322D343644302D413938332D3331353338454246344243312F636F72652E786D6C8D515B6EC32010BC0AE2AB55850DD871ED0813254D72825EC00192A2C460F1A872FC42ED48ED5F7E00CDCECCCEB26C731F6FE05B39AFADE921293004CA082BB5B9F43086336A21D870E6AC
310
0D7F68109861543DCC30E4ECE26C9C164858139409093556AA051CBC570102714B8F1E7AF1A5C6A11862480C7F2DA6415C878B2A4891CA89C7990F2E050073937C42DE1DB7E4F87ED8A36D4329AA9B3D46DBAEAD504556557BD81DEBDD0761E52CE42C462D17B996298E3E6BE59E35C962CE821E1FF18553435012728A7187
310
0841987E927A8D9B35ADDF70BBC6989599FE4F1427F9A4286A132ABAC49D651EF234CD5CE04CDA78BA3DC2A8FB645D00B9DF8B57E215725C60BCA2A463E54C4CE327C7A65E1C7DB02E7DEFCBF594B864C5CA6CDBD49C957943E9FA5D5FBAF336F90F504B0304140006080800CC70623BAD7543B64E01000033030000300000
310
006662782F39464131463745442D413632322D343644302D413938332D3331353338454246344243312F636E782E786D6CD593CD6EC32010845F0571AD6CE3D48AD20813A9873E410FBD12D82434182C7EAAE6EDBB2424CD25871E7B41D6EC30B3FA84F9E67BB2E40B4234DE8DB46F1925E094D7C6ED479AD3AE5951B2113C
310
789FEE6C943839C1488B4C05DF079FE72A69D8C96C13AAD6B8631503449F83828872B949AC57D26200B826A308D316B4064D6E46FCDA41C05550DC9E483A00797BFD207EFB092A45DE9514C1BBD22178396BD39D891265658C238DEA00936C654E5E433CB65A26D9F6EDB5EBC14EBF49A45CB856E66048291F6939A9A81BB5
310
C8917738143CA680F4AA299D66A042CEB3354A2684DC9D8D178FE0D9B8B41CAAD720F880EE7EF93C0C18769E099ECC04D5A102C8049A8A05632F4DDF376CF1DE0F6BB65C2F8627B65A33C6BB62177CEBBDAD973006829F89F22E814B54F4BC2BE347F8AA8F681390B50FA73F804400B5F542E796F19FF974E7F78DB802FE05
310
E207504B0304140006080800CC70623B16AB87BA640500003C100000340000006662782F39464131463745442D413632322D343644302D413938332D3331353338454246344243312F6F626A656374732E786D6CAD575B6FA33818FD2B887DE6924B3BED8A326A92B68A663B534DD4D13E548A0C38942D60649B369D5FBFC7
310
600890A493BDE42160637FD7F31D7FF63E6FB3D478A55C242CBF3247B66B1A340F5994E4F19559CA8D75611A9F7D8F33263BCB4C232719BD32D5B4E97B316765A1A722BA21652A07B3B7B33F0D11D29C9A46981221AE4C113ED38CD8A4942CA2E2C58E882476BCD9DA23BB5ED8171B73523C0F841684D35CC252CCE79062D4
310
468DFA43D7747CCF51DF7D4FFDEB5593E3AB9CCA9FBEFE241792E4E19EB28198C968BAB8199F5D5A67D3E9C49A9E8F47D6EC76B6B0469F26EEFC7C3EBFBCBEB98462213924694B38DD98FE1D62C393D073EA4FADC5DAF04326852CCF6958F90F0F2B9BB5C48816348F90C7840A68EB78EDF68723159BCEE7891A6B95DDE9D3
310
BCEAEEE8086A6C6F9E5D4B59F0175C10A7A0820BAA5055C7473B5AE3CFDD452D602CD5DF12616444529E90D448938013FE6EFA58AA96F85E4F8C42275708571E98FE6827AF6B2B4AE3D7D83D64E5A64C53054DD3AF90BD06FEA9149565C94FCA0F6B834DC85599E4F2423B24DF0B6AFA979E534DFA9E7A4CC6FA631D486393
310
921829879BF5D781A373557BCB85E97FB90DB62B558F8795179C15944B051F40AB495CF35451D26A4727654E6D8033BD98EF82F21D91FF8AF2DD9982BCF1643BDD4EB516C9492E368C67C88DED563FC36D5EACF66DFF057C3658BDBFA69DF9578B3DA735B64F18C7F20770A9D45CFCF7FCF563D6456A277DBEF78A02637CA2
310
43B90A490AEAB94F72244481D24819A6C0E59B606BFA4B3025981DBB48EAB701D97BF19C577CC77F2D1B6C55A9EF3C732474C0B727303F625995056C3B02963D9EAC146BE78EC5FCEC7FA999EBC5EACBAAE41B12D27B4D2C0BBA49F244E2ECDC81B76B502F113D8F5EE8FB1BE3111CDD4FC2AA9B844CAB1288B68AB90A7CDC
310
1C166AB0D3DC5310625FCC14E779BFD0709F8890A629C9292B1B2DED31A4B0DA928CEE135085754027E3018A397D4D5427D15BD1330B677DC8934285AC3DF45A9EB68FF8F2B8FC0A509AFEECFD0FF2DE25CC6047F7214B195F07EFEB9A094D800F7BFAE8FED187B78EA8A3A400F115961BCAD1215E47C966530AF0EE8128FE
310
58CEBB996A8964FFA529A046635D9353B0336A8F700DDF46271A024E70B0B37C9DE01847591E54DED53D54202AB947E4076556AC49C6CA5C9E1226B7F1A7B1BE15DEED62C41B91E1B3E9AFAAA735036547343A925075041DF0A9979E893B391F8FCFA6967B3EFB644DCF6E5CEBFAE272625DCC6FAF3FB93793C5F90CE1EF57
310
407342756B10D1C489E8953CD1617E5CEECAD6F4EF8914CE5D5D504E5C3F1F9736DA62CFC11E00BCDDB8CC8A9466349744C1F75EBDA4DF09BA8A9E8C7A7E9991989E20E5DBDD6A6003664ED8F7A04A8DBE0DF6EAD9B9AA858342E47399053949D2C146EDB85DE4B176BB0965FBAC19BD19AA918E27FA50C1D22402E144464C
310
59462568E704B6E71915404CB72B8FF4EDE184DDAF753F284990D2C6926782963815403548A70C657FDEF80D2D9CEAA2AE4C1C76F60BFE74219A06527D6582DF6412526107381E55E353090704D085B52408D0933C4ED159D79BDA71BB4BC506F4831350EB6F979CD22D69BF7AC49B91A2C0A9DDA3D5CA36AD20FC478E37E6
310
1844E2352865EBCB6EA275A652E3836BE04EFB400BF1A2556F515F1FBB35B2AB35BD889C744FFA1004B5544B121E57F70215746DD2F5E2C1412B602CBF19455AC6C8E5E9922C4E01E65215385004546899059180EAFCF7A707CE7017CD8CDB0410789AB32C63B91E5CEBBBACB17AC6CD347A022D5075FD106377347AAABA7E
310
7D11590744509B44E205134DC1290F06580320F78E537D3D73540E06CB970B431F185308AD40BBD794D6D77003C5A36E8EAA54BA64597CD8F83BD552A080A365F7FF06504B0304140006080000CC70623B000000000000000000000000350000006662782F39464131463745442D413632322D343644302D413938332D3331
310
353338454246344243312F76657274696365732E62696E504B0304140006080800CC70623BF270F1330600000004000000360000006662782F39464131463745442D413632322D343644302D413938332D3331353338454246344243312F747269616E676C65732E62696E636660600000504B0304140006080000CC70623B
310
000000000000000000000000370000006662782F39464131463745442D413632322D343644302D413938332D3331353338454246344243312F617474726962757465732E62696E504B0304140006080800CC70623B08DA0BD19000000041010000360000006662782F39464131463745442D413632322D343644302D413938
310
332D3331353338454246344243312F6469726563746F72792E786D6C858F410AC3201045AF22B36F53E9A60B35CBEEBAE80D244E44489C6234F4F835464A48035D0DF398FF9F8AF63D0E6CC63039F212F8F9020C7D47C6792B21C5FE7403D62A1188E2E60C98D7234A5830286103A55745067B9D86B8A3CF9C7F90C11DE607
310
FB144396D7B6A82D282E9A152AD114D5EF2CB866EEE831B8EEA07A7BB5A8D7D61A2BAAEB7FD5F70921FF497D00504B0304140006080800CC70623B0D6EF93BFE000000A00100003B0000006662782F39464131463745442D413632322D343644302D413938332D3331353338454246344243312F7265736F75726365732F63
310
6F72652E786D6C8D50596E833010BD0A9ADFCA60B334011947A8694ED00B586642AC041B79A97AFC9A40A5F6AF3F33A3B7689E1E3F7DCD8FEC139DD7D6F4C0720A191A65476DA61E62B892236427C19DB5E1970C322367EC618541F0C9D9B8EC90B226A009093576C41D94DE63804C3DD2D18357379C652E63480A7FCF17A9
310
EE72C29CE5894E3AC17D702940B63D59270887DE46A7D0F36263058F518FBB468FE9A7BE6A7420864373B8D4873369AA8691FA421B3294352543C5CAF65C0F6FEF43CB8BD52C78D0F34F46E550061C419494B6843142CB0F5677F4B52BEB177AEC28E5C52AFF638ACBF84F53D42654E51E77B379102C05791282176B5F693D
310
CB4C7BED567C03504B010214000A0000080000CC70623B3DEE336E79000000790000001B00000000000000000000000000000000006175746F6465736B2D64657369676E2D7061636B6167652E786D6C504B01021400140006080800CC70623BD486FD9CA0000000F40000001300000000000000000000000000B20000005B
310
436F6E74656E745F54797065735D2E786D6C504B01021400140006080800CC70623B1EC5D7A3EB0000007C010000080000000000000000000000000083010000636F72652E786D6C504B01021400140006080800CC70623B55019EA25F0000007C000000070000000000000000000000000094020000636E782E786D6C504B
310
01021400140006080800CC70623B8C9102E971010000D40300000C00000000000000000000000000180300006662782F636F72652E786D6C504B01021400140006080800CC70623BFFEA85907E0000009D0000000B00000000000000000000000000B30400006662782F636E782E786D6C504B01021400140006080800CC70
310
623B4FEEA4082C0100001202000031000000000000000000000000005A0500006662782F39464131463745442D413632322D343644302D413938332D3331353338454246344243312F636F72652E786D6C504B01021400140006080800CC70623BAD7543B64E010000330300003000000000000000000000000000D5060000
310
6662782F39464131463745442D413632322D343644302D413938332D3331353338454246344243312F636E782E786D6C504B01021400140006080800CC70623B16AB87BA640500003C1000003400000000000000000000000000710800006662782F39464131463745442D413632322D343644302D413938332D3331353338
310
454246344243312F6F626A656374732E786D6C504B01021400140006080000CC70623B0000000000000000000000003500000000000000000000000000270E00006662782F39464131463745442D413632322D343644302D413938332D3331353338454246344243312F76657274696365732E62696E504B01021400140006
310
080800CC70623BF270F133060000000400000036000000000000000000000000007A0E00006662782F39464131463745442D413632322D343644302D413938332D3331353338454246344243312F747269616E676C65732E62696E504B01021400140006080000CC70623B0000000000000000000000003700000000000000
310
000000000000D40E00006662782F39464131463745442D413632322D343644302D413938332D3331353338454246344243312F617474726962757465732E62696E504B01021400140006080800CC70623B08DA0BD190000000410100003600000000000000000000000000290F00006662782F39464131463745442D413632
310
322D343644302D413938332D3331353338454246344243312F6469726563746F72792E786D6C504B01021400140006080800CC70623B0D6EF93BFE000000A00100003B000000000000000000000000000D1000006662782F39464131463745442D413632322D343644302D413938332D3331353338454246344243312F7265
310
736F75726365732F636F72652E786D6C504B0506000000000E000E0080040000641100000000
  0
XRECORD
  5
175
102
{ACAD_REACTORS
330
173
102
}
330
173
100
AcDbXrecord
280
     1
270
     1
271
     1
  0
XRECORD
  5
174
102
{ACAD_REACTORS
330
173
102
}
330
173
100
AcDbXrecord
280
     1
270
     1
271
     1
  0
XRECORD
  5
1FB
102
{ACAD_REACTORS
330
173
102
}
330
173
100
AcDbXrecord
280
     1
 70
     0
 90
1673772943
  1
ECE7A1D2-D628-4531-984C-D00F80459256
310
504B03040A0000080000CC70623B3DEE336E79000000790000001B0000006175746F6465736B2D64657369676E2D7061636B6167652E786D6C3C3F786D6C2076657273696F6E3D22312E302220656E636F64696E673D227574662D3822203F3E3C666F726D6174733E3C666F726D61743E687474703A2F2F736368656D612E
310
6175746F6465736B2E636F6D2F64657369676E2D7061636B6167652F323030393C2F666F726D61743E3C2F666F726D6174733E504B0304140006080800CC70623BD486FD9CA0000000F4000000130000005B436F6E74656E745F54797065735D2E786D6C7D8EC10E82300C865F65E91D8A1E8C310C0EEA1BF002731658846E
310
D98AC1B77784ABF1D8FE5FBFBF75BBCE937A534CCEB38643598122B6FEE978D0B0485F9C41B54DDD7D022595594E1A469170414C76A4D9A4D207E29CF43ECE46F218070CC6BECC4078ACAA135ACF422C856C0E68EA1BF5669944DDD7BCDE7B1F8E415D77AECB980613C2E4AC91FC167A2B244592486606FC29C8FD7F045B9A
310
EF7053A7E60B504B0304140006080800CC70623BD9DDAED0EC0000007C01000008000000636F72652E786D6C8D90416EC3201045AF82665B61836D9CD8C2444DD39CA01740405C94182C03558F5F9C3852BBEB6A467FFE9B197D7EF89E6EE8CB2CC17A37002D0820E394D7D68D03A478C17B4007C117EFE32F1B20272733C0
310
2A83E0E3E2D3BC49CABB685CCCAAF3DA6CA20CC14440EA969B0182FA34932C648AD911AEC52CD5558EA6A0CF2EC329598D1E47ACCEFBECC59A050463A7EA5833865FEBDD0E37353BE3EE8DBDE3F6786A48D375FBF6CC78B9C282473B3DEFABC5C86834888A900E538A49F5419B9EB47DD5BC907D4F082F57FB1F28CDFA9F50
310
B22ED6D5F6EE030B20687EE43E10BC5CB3C8E51E54AE6B6EE207504B0304140006080800CC70623B55019EA25F0000007C00000007000000636E782E786D6C4DCB3B0E80201045D1AD90E915ED2CF8AC45050C11660C8261F98AB1B07AC9C97D42D718D865D3E909258CFD00CCE24AC6E326A164D74DC0B4128928FF326038
310
472BA13128B1252AC747C6BAB984FC68F0B87FE8960A5C09FE86CFB69FBA01504B0304140006080800CC70623BA24EB22D72010000D40300000C0000006662782F636F72652E786D6CC5535B6E833010BC8AE5DF0A6C5E49888CA3A6694ED00B38E05014B091B1518EDFE511A5A9D228FD2A1F60CDEC7A67C6986DCE4D8D7A
310
69BA4AAB0C073EC548AA5C17952A33ECECD15B61B4E1CC686DBF9561A44423333CC098B3D268D7CE50AE9595CA02AA74216750749DB418E5352C32DCE59FB211BE70162ABA93DF8AFC244AE9073ED050C759670D0840D390E18DF9F1706664C23973AE2A66B62A605A75ACA4C13C4976E1364A12EF355A2EBD384AF65EFA96
310
BC7B8BED2EA6719AAE16FB8491A199335B351775B991C2CA02F390D2D40B028F861F41BCA68B7518BFD0D59A524686F29B26D7164F36B94AD9289CE54E6D1DE6010819891F6E21228B3AD1831EC219194284CF98F06DD01008846CC5A1BEF83801D4CBDC6A1303536877A57A513B0953A94FC707FDBE6064EA84A9E3E6E0FA
310
EE8CF0E9198F7784A316AA0413C2C2F2E0ECA0934D1AE6D05A69BCDE9E91D2A611F573361E38FC1375157F5752AE6B6DFE4B11990F88CCBF0719EE23FF02504B0304140006080800CC70623B408A7D3B7C0000009D0000000B0000006662782F636E782E786D6C4DCCD10A83201886E15B91FFDC552A92A0064DBC8F581632
310
D3703A76F9ABD1C18E3E78F878E5F0D9027ABBFCF2292AE86E2D20171F69F6715550CB827B40839639A5F2770314A7CD293819B45C73AAFB45B35BA61ACAA1C1C7E7855C58C15BC331339661262CC762340413D68D77DA5B42298546CBE6573AF60CEB2F504B0304140006080800CC70623B449FB9BD290100001202000031
310
0000006662782F36394639363044362D344446342D343946362D394244322D3234314243333846323333332F636F72652E786D6C8D515B6EC32010BC0AE22B55850D98B871848994463E412FE002495162B07854397EA176A4F62F3F2C9A9D991D587EB84F37F0AD7D30CEF6905418026DA553C65E7A98E219ED203808EE9D
310
8B7F6810D871D23D2C3014FCE25D9A57483A1BB58D19B54EE9151C43D0110279CB971E06F9A5A7B11A53CC8C70ADE6515EC78BAE4895DB992778883E0700CB907242D17643D7E2538BD869608875438BBAE38922CAC8F1BDD90DB4691A5E2F42C153326A951B95E398B3D1FE599322163C9AE9115F7A3D46ADA0A018778810
310
84E907617BDCEE297BC5BB3DC6BC2EF47FA234AB2745C9D8D8D035EE220B50105E2F0DC1954B9FB747187D9F9D8FA0CCDB042D5FA0C015C65B42DF78BD10F3F3B363CB56C7109DCFDFBBB97E662ED92EB62D13BC2E1BCAE5777DB9966D8A1F504B0304140006080800CC70623BAD7543B64E01000033030000300000006662
310
782F36394639363044362D344446342D343946362D394244322D3234314243333846323333332F636E782E786D6CD593CD6EC32010845F0571AD6CE3D48AD20813A9873E410FBD12D82434182C7EAAE6EDBB2424CD25871E7B41D6EC30B3FA84F9E67BB2E40B4234DE8DB46F1925E094D7C6ED479AD3AE5951B2113C789FEE
310
6C943839C1488B4C05DF079FE72A69D8C96C13AAD6B8631503449F83828872B949AC57D26200B826A308D316B4064D6E46FCDA41C05550DC9E483A00797BFD207EFB092A45DE9514C1BBD22178396BD39D891265658C238DEA00936C654E5E433CB65A26D9F6EDB5EBC14EBF49A45CB856E66048291F6939A9A81BB5C89177
310
38143CA680F4AA299D66A042CEB3354A2684DC9D8D178FE0D9B8B41CAAD720F880EE7EF93C0C18769E099ECC04D5A102C8049A8A05632F4DDF376CF1DE0F6BB65C2F8627B65A33C6BB62177CEBBDAD973006829F89F22E814B54F4BC2BE347F8AA8F681390B50FA73F804400B5F542E796F19FF974E7F78DB802FE05E20750
310
4B0304140006080800CC70623B8D05915C650500003B100000340000006662782F36394639363044362D344446342D343946362D394244322D3234314243333846323333332F6F626A656374732E786D6CAD575B6FA33814FE2B887D06429276DA1565D4266D158D3A339A6846FB502932E050B66023DB74D2FDF5FB190C01
310
9276B2973C046C8ECFF53B17071F77456EBD502133CEAE6CDF9DD81665314F32965ED995DA3A17B6F5310C04E7AA47665B8C14F4CAD6DB7618A48257A5D94AE89654B91AEDDEDDFC61C998326A5B714EA4BCB265FC440BE2924AF184CA6737218AB8E976E7FA6E4338649B0A523E8D98964450A6A029F619B8588D52FE7039
310
B1BD30F0F4F730D0FF866AF6369557DB33949F31A9088B0F848DD8CCFCF9F2767A76E99CCDE733677E3EF59D9BBB9BA5E37F984D16E78BC5E5F5ED25044B25C0C96822E8D60EEFE11B91C581D77CEA34368A1F5329E68CD1B8B61F16D63A1B8E092D294B10C78C4A48EB593D192E7DED9BDEE7995E1B91FDEDD3ACEA9FE831
310
6A756F9F7D4D79F4274C90A7A04248AA51D5F8C718DAE06FB2F75AC4796EBE65D22A88A22223B995679120E2D50E41AA49C260C046A35368846B0BECD0DFF3EBEB8AD4F835768F69B9ADF25C43D30E6B646F807FAA64AD59F61715C7A54127C4AACA98BA3006A9D792DAE165E0D59B61A01FB3A9F9D838D2DAE62445C86166
310
F37564E842E7DE6A69879FEEA2DD5AE7E371E1A5E025154AC307D06A03D73EB5978C58FFA4C8E9033066E0F3BD53BEC1F39F91BE7B55103791EDE6BBB991A2046172CB4581D8B893FA674DDA17A77B3B7C413D1B511FD2743BFF8A38F03A658705E3ADF8015C3A3417FF3D7E439FF591DA0B5F18BC20C1B8981957AE6392A3
310
F43C640C01D1A0B4728E2DD4F26DB4B3C3152A252A3B4E913CEC1C72F012782FF88EFF8637AA552DBEF76408E8A8DE9E50F9E1CB3A2DA0DB1B6039A893B56063DC5B3E3FFB5F72E67AB9FEB4AEC496C4F4C1149625DD662C53E89D7BF0F6151A046260D1337DFDC94502430F83B0EE07A130A224BCAD7DAE1D9FB6CD422FF6
310
920702629C4BB9AE79C12F243C6432A6794E18E5552BA56B431AAB5D91317302B2B071E86C3A42B1A02F999E24061403B5D0EB639195DA655DD3EBEAB4FB862DDF579F014AD0E73C22F99E28DA57FB98E75C6CA2D74D53086D600F4786E0FE3144B771A8A7B900F03594DB8A633CBC49B2EDB69228BB479CF863B5E807AAAB
310
23872F6DFEB4129B949CA33823F58830E86D65621E10047D9DB34D862E8EAC3C2ABC2F7B2C40D67CDFE01F5545B92105AF983AC54D93D69E56FB8E797F88913F898A9FEC705D3F9D1B54EC8426FB500D40A03BD0119B06E1B95DDC7EB8F6975367793EBD70E66733DFB9BC982F9CE564727731999F5D4ECFCE3B8D6A4DC2A0
310
6D50FD148437D110834A64C6CDDF57FBACB5C307A2A477DFE4939736CFEF2B175371E0E10CF0DD1D5C15654E0BCA14D1E87DD02FF93782A162C0A3D95F1524A52770F972BF1EE9809D13CE7DD599467F8ECE9ADD85CE85A34CD45355448C64F9E8A031DC2D596ACC6E5DD93D9B82DE2EF5CAF81363A8E47996A0DE24564A79
310
4115AACE09C55E14540231FDA13C319787134EBF34E3A022514E5B4D9E0826E25C02D5805B15ABE1BEF51B26383D445DD9E875EE33FE4C22DA16427D65A3BCA92CA6D28DD01DF5DC53330704308475351050232CCD31583787BA75774AFB06E5070DD0C8EF484E19968C5D83BA5B90B244D31E54D55A372320FE4786B7EA58
310
44E135AA5467CB7EA333A61683CC6A8C3257034C10CF46F40EF9F5BE59BE5BD30C3C72D235E95D10345C1D45445A5F0BB47E46A5EBE5570F9380B5FA629579952296A773720405982B9DE04011506178964401AA8BDF1FBF0A8EAB6861DD6580C0E38217056766716DAEB2D6FA0917D3E4116581EADB879C4E7CFFB11EFACD
310
3D641311495D92C8676CB409A72D18610D803CE8A626049E8EC1887CB5B44CC39883690DDA8399B4B9855B481E7D71D4A9D22F96E5BB73BF5793020C02137BF837504B0304140006080000CC70623B000000000000000000000000350000006662782F36394639363044362D344446342D343946362D394244322D32343142
310
43333846323333332F76657274696365732E62696E504B0304140006080800CC70623BF270F1330600000004000000360000006662782F36394639363044362D344446342D343946362D394244322D3234314243333846323333332F747269616E676C65732E62696E636660600000504B0304140006080000CC70623B0000
310
00000000000000000000370000006662782F36394639363044362D344446342D343946362D394244322D3234314243333846323333332F617474726962757465732E62696E504B0304140006080800CC70623B08DA0BD19000000041010000360000006662782F36394639363044362D344446342D343946362D394244322D
310
3234314243333846323333332F6469726563746F72792E786D6C858F410AC3201045AF22B36F53E9A60B35CBEEBAE80D244E44489C6234F4F835464A48035D0DF398FF9F8AF63D0E6CC63039F212F8F9020C7D47C6792B21C5FE7403D62A1188E2E60C98D7234A5830286103A55745067B9D86B8A3CF9C7F90C11DE607FB14
310
4396D7B6A82D282E9A152AD114D5EF2CB866EEE831B8EEA07A7BB5A8D7D61A2BAAEB7FD5F70921FF497D00504B0304140006080800CC70623BCA768048FE000000A00100003B0000006662782F36394639363044362D344446342D343946362D394244322D3234314243333846323333332F7265736F75726365732F636F72
310
652E786D6C8D50596E833010BD0A9ADFCA60D600328E9AA639412F609909B1126CE4A5EAF16B0295DABFFECC8CDEA2797AECF8353F924FB44E193D409E5248504B332A3D0D10FC95B4901C39B3C6F85F3248B49871801506CE266BC2B243D2688FDA47549B11775038871E12F988C7004EDE7016A9083E2ADC3D5D84BC8B09
310
D33C8D74D471E6BC8D0192EDC93A815B742658898E651BCB59086ADC356A8C3FD555A1055ED7E7E254D615792D0F075295F585746FF53B694EE78A565DD736979A65AB9933AFE69F8CD2A2F038022F28ED489E135A7CE4554F9BBEA85E68DB53CAB255FEC71496F19FA6A0B42F8B3DEE6673C0F318E4497096AD7DC5F52C33
310
EEB55BFE0D504B010214000A0000080000CC70623B3DEE336E79000000790000001B00000000000000000000000000000000006175746F6465736B2D64657369676E2D7061636B6167652E786D6C504B01021400140006080800CC70623BD486FD9CA0000000F40000001300000000000000000000000000B20000005B436F
310
6E74656E745F54797065735D2E786D6C504B01021400140006080800CC70623BD9DDAED0EC0000007C010000080000000000000000000000000083010000636F72652E786D6C504B01021400140006080800CC70623B55019EA25F0000007C000000070000000000000000000000000095020000636E782E786D6C504B0102
310
1400140006080800CC70623BA24EB22D72010000D40300000C00000000000000000000000000190300006662782F636F72652E786D6C504B01021400140006080800CC70623B408A7D3B7C0000009D0000000B00000000000000000000000000B50400006662782F636E782E786D6C504B01021400140006080800CC70623B
310
449FB9BD290100001202000031000000000000000000000000005A0500006662782F36394639363044362D344446342D343946362D394244322D3234314243333846323333332F636F72652E786D6C504B01021400140006080800CC70623BAD7543B64E010000330300003000000000000000000000000000D20600006662
310
782F36394639363044362D344446342D343946362D394244322D3234314243333846323333332F636E782E786D6C504B01021400140006080800CC70623B8D05915C650500003B10000034000000000000000000000000006E0800006662782F36394639363044362D344446342D343946362D394244322D32343142433338
310
46323333332F6F626A656374732E786D6C504B01021400140006080000CC70623B0000000000000000000000003500000000000000000000000000250E00006662782F36394639363044362D344446342D343946362D394244322D3234314243333846323333332F76657274696365732E62696E504B010214001400060808
310
00CC70623BF270F13306000000040000003600000000000000000000000000780E00006662782F36394639363044362D344446342D343946362D394244322D3234314243333846323333332F747269616E676C65732E62696E504B01021400140006080000CC70623B00000000000000000000000037000000000000000000
310
00000000D20E00006662782F36394639363044362D344446342D343946362D394244322D3234314243333846323333332F617474726962757465732E62696E504B01021400140006080800CC70623B08DA0BD190000000410100003600000000000000000000000000270F00006662782F36394639363044362D344446342D
310
343946362D394244322D3234314243333846323333332F6469726563746F72792E786D6C504B01021400140006080800CC70623BCA768048FE000000A00100003B000000000000000000000000000B1000006662782F36394639363044362D344446342D343946362D394244322D3234314243333846323333332F7265736F
310
75726365732F636F72652E786D6C504B0506000000000E000E0080040000621100000000
  0
XRECORD
  5
176
102
{ACAD_REACTORS
330
173
102
}
330
173
100
AcDbXrecord
280
     1
270
     1
271
     1
  0
XRECORD
  5
177
102
{ACAD_REACTORS
330
173
102
}
330
173
100
AcDbXrecord
280
     1
270
     1
271
     1
  0
CELLSTYLEMAP
  5
50E
102
{ACAD_REACTORS
330
162
102
}
330
162
100
AcDbCellStyleMap
 90
        3
300
CELLSTYLE
  1
TABLEFORMAT_BEGIN
 90
        5
170
     1
 91
        0
 92
    32768
 62
   257
 93
        1
300
CONTENTFORMAT
  1
CONTENTFORMAT_BEGIN
 90
        0
 91
        0
 92
      512
 93
        0
300

 40
0.0
140
1.0
 94
        5
 62
     0
340
11
144
6.0
309
CONTENTFORMAT_END
171
     1
301
MARGIN
  1
CELLMARGIN_BEGIN
 40
1.5
 40
1.5
 40
1.5
 40
1.5
 40
4.5
 40
4.5
309
CELLMARGIN_END
 94
        6
 95
        1
302
GRIDFORMAT
  1
GRIDFORMAT_BEGIN
 90
        0
 91
        1
 62
     0
 92
       -2
340
14
 93
        0
 40
1.125
309
GRIDFORMAT_END
 95
        2
302
GRIDFORMAT
  1
GRIDFORMAT_BEGIN
 90
        0
 91
        1
 62
     0
 92
       -2
340
14
 93
        0
 40
1.125
309
GRIDFORMAT_END
 95
        4
302
GRIDFORMAT
  1
GRIDFORMAT_BEGIN
 90
        0
 91
        1
 62
     0
 92
       -2
340
14
 93
        0
 40
1.125
309
GRIDFORMAT_END
 95
        8
302
GRIDFORMAT
  1
GRIDFORMAT_BEGIN
 90
        0
 91
        1
 62
     0
 92
       -2
340
14
 93
        0
 40
1.125
309
GRIDFORMAT_END
 95
       16
302
GRIDFORMAT
  1
GRIDFORMAT_BEGIN
 90
        0
 91
        1
 62
     0
 92
       -2
340
14
 93
        0
 40
1.125
309
GRIDFORMAT_END
 95
       32
302
GRIDFORMAT
  1
GRIDFORMAT_BEGIN
 90
        0
 91
        1
 62
     0
 92
       -2
340
14
 93
        0
 40
1.125
309
GRIDFORMAT_END
309
TABLEFORMAT_END
  1
CELLSTYLE_BEGIN
 90
        1
 91
        1
300
_TITLE
309
CELLSTYLE_END
300
CELLSTYLE
  1
TABLEFORMAT_BEGIN
 90
        5
170
     1
 91
        0
 92
        0
 62
   257
 93
        1
300
CONTENTFORMAT
  1
CONTENTFORMAT_BEGIN
 90
        0
 91
        0
 92
      512
 93
        0
300

 40
0.0
140
1.0
 94
        5
 62
     0
340
11
144
4.5
309
CONTENTFORMAT_END
171
     1
301
MARGIN
  1
CELLMARGIN_BEGIN
 40
1.5
 40
1.5
 40
1.5
 40
1.5
 40
4.5
 40
4.5
309
CELLMARGIN_END
 94
        6
 95
        1
302
GRIDFORMAT
  1
GRIDFORMAT_BEGIN
 90
        0
 91
        1
 62
     0
 92
       -2
340
14
 93
        0
 40
1.125
309
GRIDFORMAT_END
 95
        2
302
GRIDFORMAT
  1
GRIDFORMAT_BEGIN
 90
        0
 91
        1
 62
     0
 92
       -2
340
14
 93
        0
 40
1.125
309
GRIDFORMAT_END
 95
        4
302
GRIDFORMAT
  1
GRIDFORMAT_BEGIN
 90
        0
 91
        1
 62
     0
 92
       -2
340
14
 93
        0
 40
1.125
309
GRIDFORMAT_END
 95
        8
302
GRIDFORMAT
  1
GRIDFORMAT_BEGIN
 90
        0
 91
        1
 62
     0
 92
       -2
340
14
 93
        0
 40
1.125
309
GRIDFORMAT_END
 95
       16
302
GRIDFORMAT
  1
GRIDFORMAT_BEGIN
 90
        0
 91
        1
 62
     0
 92
       -2
340
14
 93
        0
 40
1.125
309
GRIDFORMAT_END
 95
       32
302
GRIDFORMAT
  1
GRIDFORMAT_BEGIN
 90
        0
 91
        1
 62
     0
 92
       -2
340
14
 93
        0
 40
1.125
309
GRIDFORMAT_END
309
TABLEFORMAT_END
  1
CELLSTYLE_BEGIN
 90
        2
 91
        1
300
_HEADER
309
CELLSTYLE_END
300
CELLSTYLE
  1
TABLEFORMAT_BEGIN
 90
        5
170
     1
 91
        0
 92
        0
 62
   257
 93
        1
300
CONTENTFORMAT
  1
CONTENTFORMAT_BEGIN
 90
        0
 91
        0
 92
      512
 93
        0
300

 40
0.0
140
1.0
 94
        2
 62
     0
340
11
144
4.5
309
CONTENTFORMAT_END
171
     1
301
MARGIN
  1
CELLMARGIN_BEGIN
 40
1.5
 40
1.5
 40
1.5
 40
1.5
 40
4.5
 40
4.5
309
CELLMARGIN_END
 94
        6
 95
        1
302
GRIDFORMAT
  1
GRIDFORMAT_BEGIN
 90
        0
 91
        1
 62
     0
 92
       -2
340
14
 93
        0
 40
1.125
309
GRIDFORMAT_END
 95
        2
302
GRIDFORMAT
  1
GRIDFORMAT_BEGIN
 90
        0
 91
        1
 62
     0
 92
       -2
340
14
 93
        0
 40
1.125
309
GRIDFORMAT_END
 95
        4
302
GRIDFORMAT
  1
GRIDFORMAT_BEGIN
 90
        0
 91
        1
 62
     0
 92
       -2
340
14
 93
        0
 40
1.125
309
GRIDFORMAT_END
 95
        8
302
GRIDFORMAT
  1
GRIDFORMAT_BEGIN
 90
        0
 91
        1
 62
     0
 92
       -2
340
14
 93
        0
 40
1.125
309
GRIDFORMAT_END
 95
       16
302
GRIDFORMAT
  1
GRIDFORMAT_BEGIN
 90
        0
 91
        1
 62
     0
 92
       -2
340
14
 93
        0
 40
1.125
309
GRIDFORMAT_END
 95
       32
302
GRIDFORMAT
  1
GRIDFORMAT_BEGIN
 90
        0
 91
        1
 62
     0
 92
       -2
340
14
 93
        0
 40
1.125
309
GRIDFORMAT_END
309
TABLEFORMAT_END
  1
CELLSTYLE_BEGIN
 90
        3
 91
        2
300
_DATA
309
CELLSTYLE_END
  0
ENDSEC
  0
SECTION
  2
ACDSDATA
 70
     2
 71
     8
  0
ACDSSCHEMA
 90
        0
  1
AcDb_Thumbnail_Schema
  2
AcDbDs::ID
280
    10
 91
        8
  2
Thumbnail_Data
280
    15
 91
        0
101
ACDSRECORD
 95
        0
 90
        1
  2
AcDbDs::TreatedAsObjectData
280
     1
291
     1
101
ACDSRECORD
 95
        0
 90
        2
  2
AcDbDs::Legacy
280
     1
291
     1
101
ACDSRECORD
  1
AcDbDs::ID
 90
        3
  2
AcDs:Indexable
280
     1
291
     1
101
ACDSRECORD
  1
AcDbDs::ID
 90
        4
  2
AcDbDs::HandleAttribute
280
     7
282
     1
  0
ACDSSCHEMA
 90
        1
  1
AcDbDs::TreatedAsObjectDataSchema
  2
AcDbDs::TreatedAsObjectData
280
     1
 91
        0
  0
ACDSSCHEMA
 90
        2
  1
AcDbDs::LegacySchema
  2
AcDbDs::Legacy
280
     1
 91
        0
  0
ACDSSCHEMA
 90
        3
  1
AcDbDs::IndexedPropertySchema
  2
AcDs:Indexable
280
     1
 91
        0
  0
ACDSSCHEMA
 90
        4
  1
AcDbDs::HandleAttributeSchema
  2
AcDbDs::HandleAttribute
280
     7
 91
        1
284
     1
  0
ACDSRECORD
 90
        0
  2
AcDbDs::ID
280
    10
320
22
  2
Thumbnail_Data
280
    15
 94
      896
310
89504E470D0A1A0A0000000D49484452000001000000009108030000001BE1960600000300504C5445212830FFFFFF2128300000000000000000000000000000000000000000000000000000330000660000990000CC0000FF0033000033330033660033990033CC0033FF0066000066330066660066990066CC0066FF0099
310
000099330099660099990099CC0099FF00CC0000CC3300CC6600CC9900CCCC00CCFF00FF0000FF3300FF6600FF9900FFCC00FFFF3300003300333300663300993300CC3300FF3333003333333333663333993333CC3333FF3366003366333366663366993366CC3366FF3399003399333399663399993399CC3399FF33CC00
310
33CC3333CC6633CC9933CCCC33CCFF33FF0033FF3333FF6633FF9933FFCC33FFFF6600006600336600666600996600CC6600FF6633006633336633666633996633CC6633FF6666006666336666666666996666CC6666FF6699006699336699666699996699CC6699FF66CC0066CC3366CC6666CC9966CCCC66CCFF66FF0066
310
FF3366FF6666FF9966FFCC66FFFF9900009900339900669900999900CC9900FF9933009933339933669933999933CC9933FF9966009966339966669966999966CC9966FF9999009999339999669999999999CC9999FF99CC0099CC3399CC6699CC9999CCCC99CCFF99FF0099FF3399FF6699FF9999FFCC99FFFFCC0000CC00
310
33CC0066CC0099CC00CCCC00FFCC3300CC3333CC3366CC3399CC33CCCC33FFCC6600CC6633CC6666CC6699CC66CCCC66FFCC9900CC9933CC9966CC9999CC99CCCC99FFCCCC00CCCC33CCCC66CCCC99CCCCCCCCCCFFCCFF00CCFF33CCFF66CCFF99CCFFCCCCFFFFFF0000FF0033FF0066FF0099FF00CCFF00FFFF3300FF3333
310
FF3366FF3399FF33CCFF33FFFF6600FF6633FF6666FF6699FF66CCFF66FFFF9900FF9933FF9966FF9999FF99CCFF99FFFFCC00FFCC33FFCC66FFCC99FFCCCCFFCCFFFFFF00FFFF33FFFF66FFFF99FFFFCCFFFFFF0000000D0D0D1A1A1A2828283535354343435050505D5D5D6B6B6B787878868686939393A1A1A1AEAEAEBB
310
BBBBC9C9C9D6D6D6E4E4E4F1F1F1FFFFFF0000000000000000000000000000000000000000000000000000000000002E4550F10000003B4944415478DAEDC13101000000C2A0F54F6D0B2FA0000000000000000000000000000000000000000000000000000000000000000000000000CE06919100016C9A5B1B0000000049
310
454E44AE426082
  0
ENDSEC
  0
EOF
