  0
SECTION
  2
HEADER
  9
$ACADVER
  1
AC1032
  9
$ACADMAINTVER
 90
        4
  9
$DWGCODEPAGE
  3
ANSI_1250
  9
$LASTSAVEDBY
  1
Dell
  9
$REQUIREDVERSIONS
160
                 0
  9
$INSBASE
 10
0.0
 20
0.0
 30
0.0
  9
$EXTMIN
 10
8417502.742115553
 20
5761160.05433975
 30
-0.0000000001
  9
$EXTMAX
 10
8417818.44712475
 20
5761385.182679775
 30
0.0000000001
  9
$LIMMIN
 10
0.0
 20
0.0
  9
$LIMMAX
 10
420.0
 20
297.0
  9
$ORTHOMODE
 70
     0
  9
$REGENMODE
 70
     1
  9
$FILLMODE
 70
     1
  9
$QTEXTMODE
 70
     0
  9
$MIRRTEXT
 70
     1
  9
$LTSCALE
 40
1.0
  9
$ATTMODE
 70
     1
  9
$TEXTSIZE
 40
2.5
  9
$TRACEWID
 40
1.0
  9
$TEXTSTYLE
  7
Standard
  9
$CLAYER
  8
instalacja gazowa
  9
$CELTYPE
  6
ByLayer
  9
$CECOLOR
 62
   256
  9
$CELTSCALE
 40
1.0
  9
$DISPSILH
 70
     0
  9
$DIMSCALE
 40
1.0
  9
$DIMASZ
 40
2.5
  9
$DIMEXO
 40
0.625
  9
$DIMDLI
 40
3.75
  9
$DIMRND
 40
0.0
  9
$DIMDLE
 40
0.0
  9
$DIMEXE
 40
1.25
  9
$DIMTP
 40
0.0
  9
$DIMTM
 40
0.0
  9
$DIMTXT
 40
2.5
  9
$DIMCEN
 40
2.5
  9
$DIMTSZ
 40
0.0
  9
$DIMTOL
 70
     0
  9
$DIMLIM
 70
     0
  9
$DIMTIH
 70
     0
  9
$DIMTOH
 70
     0
  9
$DIMSE1
 70
     0
  9
$DIMSE2
 70
     0
  9
$DIMTAD
 70
     1
  9
$DIMZIN
 70
     8
  9
$DIMBLK
  1

  9
$DIMASO
 70
     1
  9
$DIMSHO
 70
     1
  9
$DIMPOST
  1

  9
$DIMAPOST
  1

  9
$DIMALT
 70
     0
  9
$DIMALTD
 70
     3
  9
$DIMALTF
 40
0.03937007874016
  9
$DIMLFAC
 40
1.0
  9
$DIMTOFL
 70
     1
  9
$DIMTVP
 40
0.0
  9
$DIMTIX
 70
     0
  9
$DIMSOXD
 70
     0
  9
$DIMSAH
 70
     0
  9
$DIMBLK1
  1

  9
$DIMBLK2
  1

  9
$DIMSTYLE
  2
ISO-25
  9
$DIMCLRD
 70
     0
  9
$DIMCLRE
 70
     0
  9
$DIMCLRT
 70
     0
  9
$DIMTFAC
 40
1.0
  9
$DIMGAP
 40
0.625
  9
$DIMJUST
 70
     0
  9
$DIMSD1
 70
     0
  9
$DIMSD2
 70
     0
  9
$DIMTOLJ
 70
     0
  9
$DIMTZIN
 70
     8
  9
$DIMALTZ
 70
     0
  9
$DIMALTTZ
 70
     0
  9
$DIMUPT
 70
     0
  9
$DIMDEC
 70
     2
  9
$DIMTDEC
 70
     2
  9
$DIMALTU
 70
     2
  9
$DIMALTTD
 70
     3
  9
$DIMTXSTY
  7
Standard
  9
$DIMAUNIT
 70
     0
  9
$DIMADEC
 70
     0
  9
$DIMALTRND
 40
0.0
  9
$DIMAZIN
 70
     0
  9
$DIMDSEP
 70
    44
  9
$DIMATFIT
 70
     3
  9
$DIMFRAC
 70
     0
  9
$DIMLDRBLK
  1

  9
$DIMLUNIT
 70
     2
  9
$DIMLWD
 70
    -2
  9
$DIMLWE
 70
    -2
  9
$DIMTMOVE
 70
     0
  9
$DIMFXL
 40
1.0
  9
$DIMFXLON
 70
     0
  9
$DIMJOGANG
 40
0.7853981633974483
  9
$DIMTFILL
 70
     0
  9
$DIMTFILLCLR
 70
     0
  9
$DIMARCSYM
 70
     0
  9
$DIMLTYPE
  6

  9
$DIMLTEX1
  6

  9
$DIMLTEX2
  6

  9
$DIMTXTDIRECTION
 70
     0
  9
$LUNITS
 70
     2
  9
$LUPREC
 70
     4
  9
$SKETCHINC
 40
1.0
  9
$FILLETRAD
 40
0.0
  9
$AUNITS
 70
     0
  9
$AUPREC
 70
     0
  9
$MENU
  1
.
  9
$ELEVATION
 40
0.0
  9
$PELEVATION
 40
0.0
  9
$THICKNESS
 40
0.0
  9
$LIMCHECK
 70
     0
  9
$CHAMFERA
 40
0.0
  9
$CHAMFERB
 40
0.0
  9
$CHAMFERC
 40
0.0
  9
$CHAMFERD
 40
0.0
  9
$SKPOLY
 70
     0
  9
$TDCREATE
 40
2459817.498305000
  9
$TDUCREATE
 40
2459817.414971667
  9
$TDUPDATE
 40
2459817.504115822
  9
$TDUUPDATE
 40
2459817.420782488
  9
$TDINDWG
 40
0.005811354
  9
$TDUSRTIMER
 40
0.005811181
  9
$USRTIMER
 70
     1
  9
$ANGBASE
 50
0.0
  9
$ANGDIR
 70
     0
  9
$PDMODE
 70
     0
  9
$PDSIZE
 40
0.0
  9
$PLINEWID
 40
0.0
  9
$SPLFRAME
 70
     0
  9
$SPLINETYPE
 70
     6
  9
$SPLINESEGS
 70
     8
  9
$HANDSEED
  5
8B8
  9
$SURFTAB1
 70
     6
  9
$SURFTAB2
 70
     6
  9
$SURFTYPE
 70
     6
  9
$SURFU
 70
     6
  9
$SURFV
 70
     6
  9
$UCSBASE
  2

  9
$UCSNAME
  2

  9
$UCSORG
 10
0.0
 20
0.0
 30
0.0
  9
$UCSXDIR
 10
1.0
 20
0.0
 30
0.0
  9
$UCSYDIR
 10
0.0
 20
1.0
 30
0.0
  9
$UCSORTHOREF
  2

  9
$UCSORTHOVIEW
 70
     0
  9
$UCSORGTOP
 10
0.0
 20
0.0
 30
0.0
  9
$UCSORGBOTTOM
 10
0.0
 20
0.0
 30
0.0
  9
$UCSORGLEFT
 10
0.0
 20
0.0
 30
0.0
  9
$UCSORGRIGHT
 10
0.0
 20
0.0
 30
0.0
  9
$UCSORGFRONT
 10
0.0
 20
0.0
 30
0.0
  9
$UCSORGBACK
 10
0.0
 20
0.0
 30
0.0
  9
$PUCSBASE
  2

  9
$PUCSNAME
  2

  9
$PUCSORG
 10
0.0
 20
0.0
 30
0.0
  9
$PUCSXDIR
 10
1.0
 20
0.0
 30
0.0
  9
$PUCSYDIR
 10
0.0
 20
1.0
 30
0.0
  9
$PUCSORTHOREF
  2

  9
$PUCSORTHOVIEW
 70
     0
  9
$PUCSORGTOP
 10
0.0
 20
0.0
 30
0.0
  9
$PUCSORGBOTTOM
 10
0.0
 20
0.0
 30
0.0
  9
$PUCSORGLEFT
 10
0.0
 20
0.0
 30
0.0
  9
$PUCSORGRIGHT
 10
0.0
 20
0.0
 30
0.0
  9
$PUCSORGFRONT
 10
0.0
 20
0.0
 30
0.0
  9
$PUCSORGBACK
 10
0.0
 20
0.0
 30
0.0
  9
$USERI1
 70
     0
  9
$USERI2
 70
     0
  9
$USERI3
 70
     0
  9
$USERI4
 70
     0
  9
$USERI5
 70
     0
  9
$USERR1
 40
0.0
  9
$USERR2
 40
0.0
  9
$USERR3
 40
0.0
  9
$USERR4
 40
0.0
  9
$USERR5
 40
0.0
  9
$WORLDVIEW
 70
     1
  9
$SHADEDGE
 70
     3
  9
$SHADEDIF
 70
    70
  9
$TILEMODE
 70
     1
  9
$MAXACTVP
 70
    64
  9
$PINSBASE
 10
0.0
 20
0.0
 30
0.0
  9
$PLIMCHECK
 70
     0
  9
$PEXTMIN
 10
25.69999999999999
 20
19.5
 30
0.0
  9
$PEXTMAX
 10
231.3
 20
175.5
 30
0.0
  9
$PLIMMIN
 10
-20.0
 20
-7.5
  9
$PLIMMAX
 10
277.0
 20
202.5
  9
$UNITMODE
 70
     0
  9
$VISRETAIN
 70
     1
  9
$PLINEGEN
 70
     0
  9
$PSLTSCALE
 70
     1
  9
$TREEDEPTH
 70
  3020
  9
$CMLSTYLE
  2
Standard
  9
$CMLJUST
 70
     0
  9
$CMLSCALE
 40
20.0
  9
$PROXYGRAPHICS
 70
     1
  9
$MEASUREMENT
 70
     1
  9
$CELWEIGHT
370
    -1
  9
$ENDCAPS
280
     0
  9
$JOINSTYLE
280
     0
  9
$LWDISPLAY
290
     0
  9
$INSUNITS
 70
     4
  9
$HYPERLINKBASE
  1

  9
$STYLESHEET
  1

  9
$XEDIT
290
     1
  9
$CEPSNTYPE
380
     0
  9
$PSTYLEMODE
290
     1
  9
$FINGERPRINTGUID
  2
{A4CAB1FC-42A2-4D6F-B95F-085582C7A8C3}
  9
$VERSIONGUID
  2
{850804F1-CC22-454C-8DF0-121305C9B19D}
  9
$EXTNAMES
290
     1
  9
$PSVPSCALE
 40
0.0
  9
$OLESTARTUP
290
     0
  9
$SORTENTS
280
   127
  9
$INDEXCTL
280
     0
  9
$HIDETEXT
280
     1
  9
$XCLIPFRAME
280
     2
  9
$HALOGAP
280
     0
  9
$OBSCOLOR
 70
   257
  9
$OBSLTYPE
280
     0
  9
$INTERSECTIONDISPLAY
280
     0
  9
$INTERSECTIONCOLOR
 70
   257
  9
$DIMASSOC
280
     2
  9
$PROJECTNAME
  1

  9
$CAMERADISPLAY
290
     0
  9
$LENSLENGTH
 40
50.0
  9
$CAMERAHEIGHT
 40
0.0
  9
$STEPSPERSEC
 40
2.0
  9
$STEPSIZE
 40
6.0
  9
$3DDWFPREC
 40
2.0
  9
$PSOLWIDTH
 40
0.25
  9
$PSOLHEIGHT
 40
4.0
  9
$LOFTANG1
 40
1.570796326794896
  9
$LOFTANG2
 40
1.570796326794896
  9
$LOFTMAG1
 40
0.0
  9
$LOFTMAG2
 40
0.0
  9
$LOFTPARAM
 70
     7
  9
$LOFTNORMALS
280
     1
  9
$LATITUDE
 40
37.795
  9
$LONGITUDE
 40
-122.394
  9
$NORTHDIRECTION
 40
0.0
  9
$TIMEZONE
 70
 -8000
  9
$LIGHTGLYPHDISPLAY
280
     1
  9
$TILEMODELIGHTSYNCH
280
     1
  9
$CMATERIAL
347
167
  9
$SOLIDHIST
280
     1
  9
$SHOWHIST
280
     1
  9
$DWFFRAME
280
     2
  9
$DGNFRAME
280
     2
  9
$REALWORLDSCALE
290
     1
  9
$INTERFERECOLOR
 62
   256
  9
$CSHADOW
280
     0
  9
$SHADOWPLANELOCATION
 40
0.0
  0
ENDSEC
  0
SECTION
  2
CLASSES
  0
CLASS
  1
ACDBDICTIONARYWDFLT
  2
AcDbDictionaryWithDefault
  3
ObjectDBX Classes
 90
        0
 91
        1
280
     0
281
     0
  0
CLASS
  1
ACDBPLACEHOLDER
  2
AcDbPlaceHolder
  3
ObjectDBX Classes
 90
        0
 91
        0
280
     0
281
     0
  0
CLASS
  1
LAYOUT
  2
AcDbLayout
  3
ObjectDBX Classes
 90
        0
 91
        0
280
     0
281
     0
  0
CLASS
  1
DICTIONARYVAR
  2
AcDbDictionaryVar
  3
ObjectDBX Classes
 90
        0
 91
        9
280
     0
281
     0
  0
CLASS
  1
TABLESTYLE
  2
AcDbTableStyle
  3
ObjectDBX Classes
 90
     4095
 91
        2
280
     0
281
     0
  0
CLASS
  1
WIPEOUTVARIABLES
  2
AcDbWipeoutVariables
  3
"WipeOut|Product Desc:     WipeOut Dbx Application|Company:          Autodesk, Inc.|WEB Address:      www.autodesk.com"
 90
        0
 91
        0
280
     0
281
     0
  0
CLASS
  1
SCALE
  2
AcDbScale
  3
ObjectDBX Classes
 90
     1153
 91
       34
280
     0
281
     0
  0
CLASS
  1
MLEADERSTYLE
  2
AcDbMLeaderStyle
  3
ACDB_MLEADERSTYLE_CLASS
 90
     4095
 91
        3
280
     0
281
     0
  0
CLASS
  1
MATERIAL
  2
AcDbMaterial
  3
ObjectDBX Classes
 90
     1153
 91
        6
280
     0
281
     0
  0
CLASS
  1
VISUALSTYLE
  2
AcDbVisualStyle
  3
ObjectDBX Classes
 90
     4095
 91
       48
280
     0
281
     0
  0
CLASS
  1
ACDBSECTIONVIEWSTYLE
  2
AcDbSectionViewStyle
  3
ObjectDBX Classes
 90
     1025
 91
        1
280
     0
281
     0
  0
CLASS
  1
ACDBDETAILVIEWSTYLE
  2
AcDbDetailViewStyle
  3
ObjectDBX Classes
 90
     1025
 91
        1
280
     0
281
     0
  0
CLASS
  1
SORTENTSTABLE
  2
AcDbSortentsTable
  3
ObjectDBX Classes
 90
        0
 91
        2
280
     0
281
     0
  0
CLASS
  1
ACDB_MTEXTOBJECTCONTEXTDATA_CLASS
  2
AcDbMTextObjectContextData
  3
ObjectDBX Classes
 90
     1153
 91
       26
280
     0
281
     0
  0
CLASS
  1
MULTILEADER
  2
AcDbMLeader
  3
ACDB_MLEADER_CLASS
 90
     1025
 91
        2
280
     0
281
     1
  0
CLASS
  1
DIMASSOC
  2
AcDbDimAssoc
  3
ZcDbDimAssoc ObjectDBX Classes
 90
        0
 91
        2
280
     0
281
     0
  0
ENDSEC
  0
SECTION
  2
TABLES
  0
TABLE
  2
VPORT
  5
8
330
0
100
AcDbSymbolTable
 70
     1
  0
VPORT
  5
1CC
330
8
100
AcDbSymbolTableRecord
100
AcDbViewportTableRecord
  2
*Active
 70
     0
 10
0.0
 20
0.0
 11
1.0
 21
1.0
 12
8417672.536231302
 22
5761221.57375024
 13
0.0
 23
0.0
 14
10.0
 24
10.0
 15
10.0
 25
10.0
 16
0.0
 26
0.0
 36
1.0
 17
0.0
 27
0.0
 37
0.0
 40
133.31979380548
 41
2.099328859060402
 42
50.0
 43
0.0
 44
0.0
 50
0.0
 51
0.0
 71
    16
 72
  1000
 73
     1
 74
     3
 75
     0
 76
     1
 77
     0
 78
     0
281
     0
 65
     1
110
0.0
120
0.0
130
0.0
111
1.0
121
0.0
131
0.0
112
0.0
122
1.0
132
0.0
 79
     0
146
0.0
348
185
 60
     3
 61
     5
292
     1
282
     1
141
0.0
142
0.0
 63
   256
1001
ACAD_NAV_VCDISPLAY
1070
     3
  0
ENDTAB
  0
TABLE
  2
LTYPE
  5
5
330
0
100
AcDbSymbolTable
 70
     2
  0
LTYPE
  5
14
330
5
100
AcDbSymbolTableRecord
100
AcDbLinetypeTableRecord
  2
ByBlock
 70
     0
  3

 72
    65
 73
     0
 40
0.0
  0
LTYPE
  5
15
330
5
100
AcDbSymbolTableRecord
100
AcDbLinetypeTableRecord
  2
ByLayer
 70
     0
  3

 72
    65
 73
     0
 40
0.0
  0
LTYPE
  5
16
330
5
100
AcDbSymbolTableRecord
100
AcDbLinetypeTableRecord
  2
Continuous
 70
     0
  3
Solid line
 72
    65
 73
     0
 40
0.0
  0
LTYPE
  5
241
330
5
100
AcDbSymbolTableRecord
100
AcDbLinetypeTableRecord
  2
DASHED
 70
     0
  3
Dashed __ __ __ __ __ __ __ __ __ __ __ __ __ _
 72
    65
 73
     2
 40
19.05
 49
12.7
 74
     0
 49
-6.349999999999999
 74
     0
  0
ENDTAB
  0
TABLE
  2
LAYER
  5
2
102
{ACAD_XDICTIONARY
360
FA
102
}
330
0
100
AcDbSymbolTable
 70
     6
  0
LAYER
  5
10
330
2
100
AcDbSymbolTableRecord
100
AcDbLayerTableRecord
  2
0
 70
     0
 62
     7
  6
Continuous
370
    -3
390
F
347
177
348
0
1071
 33554687
  0
LAYER
  5
23C
330
2
100
AcDbSymbolTableRecord
100
AcDbLayerTableRecord
  2
Defpoints
 70
     0
 62
     7
  6
Continuous
290
     0
370
    -3
390
F
347
177
348
0
1071
 33554687
  0
LAYER
  5
247
330
2
100
AcDbSymbolTableRecord
100
AcDbLayerTableRecord
  2
_OBRYS_POD_ZB
 70
     0
 62
     5
  6
DASHED
370
    25
390
F
347
177
348
0
1071
 33554687
1001
AcCmTransparency
1071
 33554687
1001
AcAecLayerStandard
1000

1000

  0
LAYER
  5
23D
330
2
100
AcDbSymbolTableRecord
100
AcDbLayerTableRecord
  2
instalacja gazowa
 70
     0
 62
    40
  6
DASHED
370
    25
390
F
347
177
348
0
1071
 33554687
1001
ARCADIA_LOADER_XDATA
1040
1.0
1040
1.0
1040
0.0
1040
0.5
1040
0.5
1040
0.5
1071
        1
1001
AcAecLayerStandard
1000

1000

1001
AcCmTransparency
1071
 33554687
  0
LAYER
  5
245
330
2
100
AcDbSymbolTableRecord
100
AcDbLayerTableRecord
  2
Przyłącze gazowe
 70
     0
 62
    40
  6
DASHED
370
    50
390
F
347
177
348
0
1071
 33554687
1001
AcAecLayerStandard
1000

1000

1001
AcCmTransparency
1071
 33554687
  0
LAYER
  5
246
330
2
100
AcDbSymbolTableRecord
100
AcDbLayerTableRecord
  2
ziemne 2
 70
     0
 62
    10
  6
Continuous
370
    50
390
F
347
177
348
0
1071
 33554687
1001
AcAecLayerStandard
1000

1000

  0
ENDTAB
  0
TABLE
  2
STYLE
  5
3
330
0
100
AcDbSymbolTable
 70
     3
  0
STYLE
  5
11
330
3
100
AcDbSymbolTableRecord
100
AcDbTextStyleTableRecord
  2
Standard
 70
     0
 40
0.0
 41
1.0
 50
0.0
 71
     0
 42
2.5
  3
arial.ttf
  4

1001
ACAD
1000
Arial
1071
       34
  0
STYLE
  5
22F
330
3
100
AcDbSymbolTableRecord
100
AcDbTextStyleTableRecord
  2
Annotative
 70
     0
 40
0.0
 41
1.0
 50
0.0
 71
     0
 42
2.5
  3
arial.ttf
  4

1001
AcadAnnotative
1000
AnnotativeData
1002
{
1070
     1
1070
     1
1002
}
1001
ACAD
1000
Arial
1071
       34
  0
STYLE
  5
24E
330
3
100
AcDbSymbolTableRecord
100
AcDbTextStyleTableRecord
  2
ARIAL
 70
     0
 40
2.0
 41
1.0
 50
0.0
 71
     0
 42
2.0
  3
arial.ttf
  4

1001
AcadAnnotative
1000
AnnotativeData
1002
{
1070
     1
1070
     1
1002
}
1001
ACAD
1000
Arial
1071
       34
  0
ENDTAB
  0
TABLE
  2
VIEW
  5
6
330
0
100
AcDbSymbolTable
 70
     0
  0
ENDTAB
  0
TABLE
  2
UCS
  5
7
330
0
100
AcDbSymbolTable
 70
     0
  0
ENDTAB
  0
TABLE
  2
APPID
  5
9
330
0
100
AcDbSymbolTable
 70
    12
  0
APPID
  5
12
330
9
100
AcDbSymbolTableRecord
100
AcDbRegAppTableRecord
  2
ACAD
 70
     0
  0
APPID
  5
F4
330
9
100
AcDbSymbolTableRecord
100
AcDbRegAppTableRecord
  2
ACAD_PSEXT
 70
     0
  0
APPID
  5
1A9
330
9
100
AcDbSymbolTableRecord
100
AcDbRegAppTableRecord
  2
ACAD_NAV_VCDISPLAY
 70
     0
  0
APPID
  5
230
330
9
100
AcDbSymbolTableRecord
100
AcDbRegAppTableRecord
  2
AcadAnnoPO
 70
     0
  0
APPID
  5
231
330
9
100
AcDbSymbolTableRecord
100
AcDbRegAppTableRecord
  2
AcadAnnotative
 70
     0
  0
APPID
  5
233
330
9
100
AcDbSymbolTableRecord
100
AcDbRegAppTableRecord
  2
ACAD_DSTYLE_DIMJAG
 70
     0
  0
APPID
  5
234
330
9
100
AcDbSymbolTableRecord
100
AcDbRegAppTableRecord
  2
ACAD_DSTYLE_DIMBREAK
 70
     0
  0
APPID
  5
235
330
9
100
AcDbSymbolTableRecord
100
AcDbRegAppTableRecord
  2
ACAD_DSTYLE_DIMTALN
 70
     0
  0
APPID
  5
244
330
9
100
AcDbSymbolTableRecord
100
AcDbRegAppTableRecord
  2
AcCmTransparency
 70
     0
  0
APPID
  5
243
330
9
100
AcDbSymbolTableRecord
100
AcDbRegAppTableRecord
  2
AcAecLayerStandard
 70
     0
  0
APPID
  5
242
330
9
100
AcDbSymbolTableRecord
100
AcDbRegAppTableRecord
  2
ARCADIA_LOADER_XDATA
 70
     0
  0
APPID
  5
24D
330
9
100
AcDbSymbolTableRecord
100
AcDbRegAppTableRecord
  2
ACAD_MLEADERVER
 70
     0
  0
ENDTAB
  0
TABLE
  2
DIMSTYLE
  5
A
330
0
100
AcDbSymbolTable
 70
     3
100
AcDbDimStyleTable
 71
     2
340
9C
340
236
  0
DIMSTYLE
105
27
102
{ACAD_REACTORS
330
2D0
330
2DE
330
343
330
352
330
371
330
37F
330
38D
330
39B
330
3A9
330
3B7
330
3C5
330
3D3
330
3E1
330
3EF
330
3FD
330
40B
330
419
330
427
330
435
330
443
330
451
330
45F
330
46D
330
47B
330
48C
330
49A
330
4A8
330
4B6
330
4C4
330
537
330
538
330
581
330
595
330
596
330
597
330
59B
330
59D
330
5A0
330
5A1
330
5A2
330
5A3
330
5A4
330
5A5
330
5A6
330
5A8
330
5AC
330
5B0
330
5A7
330
87E
102
}
330
A
100
AcDbSymbolTableRecord
100
AcDbDimStyleTableRecord
  2
Standard
 70
     0
340
11
  0
DIMSTYLE
105
9C
330
A
100
AcDbSymbolTableRecord
100
AcDbDimStyleTableRecord
  2
ISO-25
 70
     0
 41
2.5
 42
0.625
 43
3.75
 44
1.25
 73
     0
 74
     0
 77
     1
 78
     8
140
2.5
141
2.5
143
0.03937007874016
147
0.625
171
     3
172
     1
271
     2
272
     2
274
     3
278
    44
283
     0
284
     8
340
11
  0
DIMSTYLE
105
236
330
A
100
AcDbSymbolTableRecord
100
AcDbDimStyleTableRecord
  2
Annotative
 70
     0
 41
2.5
 42
0.625
 43
3.75
 44
1.25
 73
     0
 74
     0
 77
     1
 78
     8
140
2.5
141
2.5
143
0.03937007874016
147
0.625
171
     3
172
     1
271
     2
272
     2
274
     3
278
    44
283
     0
284
     8
340
11
1001
ACAD_DSTYLE_DIMBREAK
1070
   391
1040
3.75
1001
AcadAnnotative
1000
AnnotativeData
1002
{
1070
     1
1070
     1
1002
}
1001
ACAD_DSTYLE_DIMJAG
1070
   388
1040
1.5
1001
ACAD_DSTYLE_DIMTALN
1070
   392
1070
     0
  0
ENDTAB
  0
TABLE
  2
BLOCK_RECORD
  5
1
330
0
100
AcDbSymbolTable
 70
    63
  0
BLOCK_RECORD
  5
1F
330
1
100
AcDbSymbolTableRecord
100
AcDbBlockTableRecord
  2
*Model_Space
340
22
 70
     0
280
     1
281
     0
  0
BLOCK_RECORD
  5
1E3
330
1
100
AcDbSymbolTableRecord
100
AcDbBlockTableRecord
  2
*Paper_Space
340
1E4
 70
     0
280
     1
281
     0
  0
BLOCK_RECORD
  5
1DF
330
1
100
AcDbSymbolTableRecord
100
AcDbBlockTableRecord
  2
*Paper_Space0
340
1E0
 70
     0
280
     1
281
     0
  0
BLOCK_RECORD
  5
2D1
330
1
100
AcDbSymbolTableRecord
100
AcDbBlockTableRecord
  2
*D2
340
0
 70
     0
280
     1
281
     0
  0
BLOCK_RECORD
  5
2DF
330
1
100
AcDbSymbolTableRecord
100
AcDbBlockTableRecord
  2
*D3
340
0
 70
     0
280
     1
281
     0
  0
BLOCK_RECORD
  5
2F0
102
{ACAD_XDICTIONARY
360
2F1
102
}
330
1
100
AcDbSymbolTableRecord
100
AcDbBlockTableRecord
  2
A$C539eaeab
340
0
102
{BLKREFS
331
2EF
331
2FF
331
300
331
301
331
302
331
303
331
304
331
305
331
306
331
307
331
308
331
309
331
30A
331
30B
331
30C
331
30D
331
30E
331
30F
331
310
331
311
331
312
331
313
331
314
331
315
331
316
331
317
331
318
331
319
331
31A
331
31B
331
31C
331
31D
331
31E
331
31F
331
320
331
322
331
323
331
324
331
325
331
326
331
327
331
328
331
329
331
32A
331
32B
331
32C
331
32D
331
32E
331
32F
331
330
331
331
331
332
331
333
331
334
331
335
331
336
331
337
331
338
331
339
331
33A
331
33B
331
33C
331
33D
331
33E
331
33F
331
340
331
341
331
342
331
360
331
361
331
362
331
363
331
364
331
365
331
366
331
367
331
368
331
369
331
36A
331
36B
331
36C
331
36D
331
36E
331
4D3
331
53C
331
53D
331
53E
331
53F
331
540
331
541
331
542
331
543
331
544
331
545
331
546
331
547
331
548
331
549
331
54A
331
54B
331
54C
331
54D
331
54E
331
54F
331
550
331
551
331
552
331
553
331
554
331
555
331
556
331
557
331
558
331
559
331
55A
331
55B
331
55C
331
55D
331
55E
331
560
331
561
331
562
331
563
331
564
331
565
331
566
331
567
331
568
331
569
331
56A
331
56B
331
56C
331
56D
331
56E
331
56F
331
570
331
571
331
572
331
573
331
574
331
575
331
576
331
577
331
578
331
579
331
57A
331
57B
331
57C
331
57D
331
57E
331
57F
331
580
331
584
331
585
331
586
331
587
331
588
331
589
331
58A
331
58B
331
58C
331
58D
331
58E
331
58F
331
590
331
591
331
592
331
5B2
102
}
 70
     6
280
     1
281
     0
  0
BLOCK_RECORD
  5
344
330
1
100
AcDbSymbolTableRecord
100
AcDbBlockTableRecord
  2
*D5
340
0
 70
     0
280
     1
281
     0
  0
BLOCK_RECORD
  5
353
330
1
100
AcDbSymbolTableRecord
100
AcDbBlockTableRecord
  2
*D6
340
0
 70
     0
280
     1
281
     0
  0
BLOCK_RECORD
  5
372
330
1
100
AcDbSymbolTableRecord
100
AcDbBlockTableRecord
  2
*D7
340
0
 70
     0
280
     1
281
     0
  0
BLOCK_RECORD
  5
380
330
1
100
AcDbSymbolTableRecord
100
AcDbBlockTableRecord
  2
*D8
340
0
 70
     0
280
     1
281
     0
  0
BLOCK_RECORD
  5
38E
330
1
100
AcDbSymbolTableRecord
100
AcDbBlockTableRecord
  2
*D9
340
0
 70
     0
280
     1
281
     0
  0
BLOCK_RECORD
  5
39C
330
1
100
AcDbSymbolTableRecord
100
AcDbBlockTableRecord
  2
*D10
340
0
 70
     0
280
     1
281
     0
  0
BLOCK_RECORD
  5
3AA
330
1
100
AcDbSymbolTableRecord
100
AcDbBlockTableRecord
  2
*D11
340
0
 70
     0
280
     1
281
     0
  0
BLOCK_RECORD
  5
3B8
330
1
100
AcDbSymbolTableRecord
100
AcDbBlockTableRecord
  2
*D12
340
0
 70
     0
280
     1
281
     0
  0
BLOCK_RECORD
  5
3C6
330
1
100
AcDbSymbolTableRecord
100
AcDbBlockTableRecord
  2
*D13
340
0
 70
     0
280
     1
281
     0
  0
BLOCK_RECORD
  5
3D4
330
1
100
AcDbSymbolTableRecord
100
AcDbBlockTableRecord
  2
*D14
340
0
 70
     0
280
     1
281
     0
  0
BLOCK_RECORD
  5
3E2
330
1
100
AcDbSymbolTableRecord
100
AcDbBlockTableRecord
  2
*D15
340
0
 70
     0
280
     1
281
     0
  0
BLOCK_RECORD
  5
3F0
330
1
100
AcDbSymbolTableRecord
100
AcDbBlockTableRecord
  2
*D16
340
0
 70
     0
280
     1
281
     0
  0
BLOCK_RECORD
  5
3FE
330
1
100
AcDbSymbolTableRecord
100
AcDbBlockTableRecord
  2
*D17
340
0
 70
     0
280
     1
281
     0
  0
BLOCK_RECORD
  5
40C
330
1
100
AcDbSymbolTableRecord
100
AcDbBlockTableRecord
  2
*D18
340
0
 70
     0
280
     1
281
     0
  0
BLOCK_RECORD
  5
41A
330
1
100
AcDbSymbolTableRecord
100
AcDbBlockTableRecord
  2
*D19
340
0
 70
     0
280
     1
281
     0
  0
BLOCK_RECORD
  5
428
330
1
100
AcDbSymbolTableRecord
100
AcDbBlockTableRecord
  2
*D20
340
0
 70
     0
280
     1
281
     0
  0
BLOCK_RECORD
  5
436
330
1
100
AcDbSymbolTableRecord
100
AcDbBlockTableRecord
  2
*D21
340
0
 70
     0
280
     1
281
     0
  0
BLOCK_RECORD
  5
444
330
1
100
AcDbSymbolTableRecord
100
AcDbBlockTableRecord
  2
*D22
340
0
 70
     0
280
     1
281
     0
  0
BLOCK_RECORD
  5
452
330
1
100
AcDbSymbolTableRecord
100
AcDbBlockTableRecord
  2
*D23
340
0
 70
     0
280
     1
281
     0
  0
BLOCK_RECORD
  5
460
330
1
100
AcDbSymbolTableRecord
100
AcDbBlockTableRecord
  2
*D24
340
0
 70
     0
280
     1
281
     0
  0
BLOCK_RECORD
  5
46E
330
1
100
AcDbSymbolTableRecord
100
AcDbBlockTableRecord
  2
*D25
340
0
 70
     0
280
     1
281
     0
  0
BLOCK_RECORD
  5
47C
330
1
100
AcDbSymbolTableRecord
100
AcDbBlockTableRecord
  2
*D26
340
0
 70
     0
280
     1
281
     0
  0
BLOCK_RECORD
  5
48D
330
1
100
AcDbSymbolTableRecord
100
AcDbBlockTableRecord
  2
*D27
340
0
 70
     0
280
     1
281
     0
  0
BLOCK_RECORD
  5
49B
330
1
100
AcDbSymbolTableRecord
100
AcDbBlockTableRecord
  2
*D28
340
0
 70
     0
280
     1
281
     0
  0
BLOCK_RECORD
  5
4A9
330
1
100
AcDbSymbolTableRecord
100
AcDbBlockTableRecord
  2
*D29
340
0
 70
     0
280
     1
281
     0
  0
BLOCK_RECORD
  5
4B7
330
1
100
AcDbSymbolTableRecord
100
AcDbBlockTableRecord
  2
*D30
340
0
 70
     0
280
     1
281
     0
  0
BLOCK_RECORD
  5
4C5
330
1
100
AcDbSymbolTableRecord
100
AcDbBlockTableRecord
  2
*D31
340
0
 70
     0
280
     1
281
     0
  0
BLOCK_RECORD
  5
5B4
330
1
100
AcDbSymbolTableRecord
100
AcDbBlockTableRecord
  2
*D32
340
0
 70
     0
280
     1
281
     0
  0
BLOCK_RECORD
  5
5C1
330
1
100
AcDbSymbolTableRecord
100
AcDbBlockTableRecord
  2
*D33
340
0
 70
     0
280
     1
281
     0
  0
BLOCK_RECORD
  5
5CE
330
1
100
AcDbSymbolTableRecord
100
AcDbBlockTableRecord
  2
*D34
340
0
 70
     0
280
     1
281
     0
  0
BLOCK_RECORD
  5
5DB
330
1
100
AcDbSymbolTableRecord
100
AcDbBlockTableRecord
  2
*D35
340
0
 70
     0
280
     1
281
     0
  0
BLOCK_RECORD
  5
5E8
330
1
100
AcDbSymbolTableRecord
100
AcDbBlockTableRecord
  2
*D36
340
0
 70
     0
280
     1
281
     0
  0
BLOCK_RECORD
  5
5F5
330
1
100
AcDbSymbolTableRecord
100
AcDbBlockTableRecord
  2
*D37
340
0
 70
     0
280
     1
281
     0
  0
BLOCK_RECORD
  5
602
330
1
100
AcDbSymbolTableRecord
100
AcDbBlockTableRecord
  2
*D38
340
0
 70
     0
280
     1
281
     0
  0
BLOCK_RECORD
  5
60F
330
1
100
AcDbSymbolTableRecord
100
AcDbBlockTableRecord
  2
*D39
340
0
 70
     0
280
     1
281
     0
  0
BLOCK_RECORD
  5
61C
330
1
100
AcDbSymbolTableRecord
100
AcDbBlockTableRecord
  2
*D40
340
0
 70
     0
280
     1
281
     0
  0
BLOCK_RECORD
  5
629
330
1
100
AcDbSymbolTableRecord
100
AcDbBlockTableRecord
  2
*D41
340
0
 70
     0
280
     1
281
     0
  0
BLOCK_RECORD
  5
636
330
1
100
AcDbSymbolTableRecord
100
AcDbBlockTableRecord
  2
*D42
340
0
 70
     0
280
     1
281
     0
  0
BLOCK_RECORD
  5
643
330
1
100
AcDbSymbolTableRecord
100
AcDbBlockTableRecord
  2
*D43
340
0
 70
     0
280
     1
281
     0
  0
BLOCK_RECORD
  5
650
330
1
100
AcDbSymbolTableRecord
100
AcDbBlockTableRecord
  2
*D44
340
0
 70
     0
280
     1
281
     0
  0
BLOCK_RECORD
  5
65D
330
1
100
AcDbSymbolTableRecord
100
AcDbBlockTableRecord
  2
*D45
340
0
 70
     0
280
     1
281
     0
  0
BLOCK_RECORD
  5
66A
330
1
100
AcDbSymbolTableRecord
100
AcDbBlockTableRecord
  2
*D46
340
0
 70
     0
280
     1
281
     0
  0
BLOCK_RECORD
  5
677
330
1
100
AcDbSymbolTableRecord
100
AcDbBlockTableRecord
  2
*D47
340
0
 70
     0
280
     1
281
     0
  0
BLOCK_RECORD
  5
684
330
1
100
AcDbSymbolTableRecord
100
AcDbBlockTableRecord
  2
*D48
340
0
 70
     0
280
     1
281
     0
  0
BLOCK_RECORD
  5
691
330
1
100
AcDbSymbolTableRecord
100
AcDbBlockTableRecord
  2
*D49
340
0
 70
     0
280
     1
281
     0
  0
BLOCK_RECORD
  5
69E
330
1
100
AcDbSymbolTableRecord
100
AcDbBlockTableRecord
  2
*D50
340
0
 70
     0
280
     1
281
     0
  0
BLOCK_RECORD
  5
6AB
330
1
100
AcDbSymbolTableRecord
100
AcDbBlockTableRecord
  2
*D51
340
0
 70
     0
280
     1
281
     0
  0
BLOCK_RECORD
  5
6B8
330
1
100
AcDbSymbolTableRecord
100
AcDbBlockTableRecord
  2
*D52
340
0
 70
     0
280
     1
281
     0
  0
BLOCK_RECORD
  5
6C5
330
1
100
AcDbSymbolTableRecord
100
AcDbBlockTableRecord
  2
*D53
340
0
 70
     0
280
     1
281
     0
  0
BLOCK_RECORD
  5
6D2
330
1
100
AcDbSymbolTableRecord
100
AcDbBlockTableRecord
  2
*D54
340
0
 70
     0
280
     1
281
     0
  0
BLOCK_RECORD
  5
6DF
330
1
100
AcDbSymbolTableRecord
100
AcDbBlockTableRecord
  2
*D55
340
0
 70
     0
280
     1
281
     0
  0
BLOCK_RECORD
  5
6EC
330
1
100
AcDbSymbolTableRecord
100
AcDbBlockTableRecord
  2
*D56
340
0
 70
     0
280
     1
281
     0
  0
BLOCK_RECORD
  5
6F9
330
1
100
AcDbSymbolTableRecord
100
AcDbBlockTableRecord
  2
*D57
340
0
 70
     0
280
     1
281
     0
  0
BLOCK_RECORD
  5
706
330
1
100
AcDbSymbolTableRecord
100
AcDbBlockTableRecord
  2
*D58
340
0
 70
     0
280
     1
281
     0
  0
BLOCK_RECORD
  5
713
330
1
100
AcDbSymbolTableRecord
100
AcDbBlockTableRecord
  2
*D59
340
0
 70
     0
280
     1
281
     0
  0
BLOCK_RECORD
  5
720
330
1
100
AcDbSymbolTableRecord
100
AcDbBlockTableRecord
  2
*D60
340
0
 70
     0
280
     1
281
     0
  0
BLOCK_RECORD
  5
852
330
1
100
AcDbSymbolTableRecord
100
AcDbBlockTableRecord
  2
*D61
340
0
 70
     0
280
     1
281
     0
  0
BLOCK_RECORD
  5
881
330
1
100
AcDbSymbolTableRecord
100
AcDbBlockTableRecord
  2
*D62
340
0
 70
     0
280
     1
281
     0
  0
ENDTAB
  0
ENDSEC
  0
SECTION
  2
BLOCKS
  0
BLOCK
  5
20
330
1F
100
AcDbEntity
  8
0
100
AcDbBlockBegin
  2
*Model_Space
 70
     0
 10
0.0
 20
0.0
 30
0.0
  3
*Model_Space
  1

  0
ENDBLK
  5
21
330
1F
100
AcDbEntity
  8
0
100
AcDbBlockEnd
  0
BLOCK
  5
1E5
330
1E3
100
AcDbEntity
 67
     1
  8
0
100
AcDbBlockBegin
  2
*Paper_Space
 70
     0
 10
0.0
 20
0.0
 30
0.0
  3
*Paper_Space
  1

  0
ENDBLK
  5
1E6
330
1E3
100
AcDbEntity
 67
     1
  8
0
100
AcDbBlockEnd
  0
BLOCK
  5
1E1
330
1DF
100
AcDbEntity
  8
0
100
AcDbBlockBegin
  2
*Paper_Space0
 70
     0
 10
0.0
 20
0.0
 30
0.0
  3
*Paper_Space0
  1

  0
ENDBLK
  5
1E2
330
1DF
100
AcDbEntity
  8
0
100
AcDbBlockEnd
  0
BLOCK
  5
2D2
330
2D1
100
AcDbEntity
  8
instalacja gazowa
100
AcDbBlockBegin
  2
*D2
 70
     1
 10
0.0
 20
0.0
 30
0.0
  3
*D2
  1
Acad:XRef
  0
LINE
  5
2D3
330
2D1
100
AcDbEntity
  8
instalacja gazowa
  6
Continuous
 62
     0
440
 16777216
370
    -2
100
AcDbLine
 10
8417703.760928379
 20
5761345.733066262
 30
0.0
 11
8417702.726437189
 21
5761346.381603342
 31
0.0
  0
LINE
  5
2D4
330
2D1
100
AcDbEntity
  8
instalacja gazowa
  6
Continuous
 62
     0
440
 16777216
370
    -2
100
AcDbLine
 10
8417703.096534216
 20
5761344.673281199
 30
0.0
 11
8417702.062043025
 21
5761345.32181828
 31
0.0
  0
LINE
  5
2D5
330
2D1
100
AcDbEntity
  8
instalacja gazowa
  6
Continuous
 62
     0
440
 16777216
370
    -2
100
AcDbLine
 10
8417703.689913349
 20
5761345.565139204
 30
0.0
 11
8417703.566170432
 21
5761345.367755027
 31
0.0
  0
LINE
  5
2D6
330
2D1
100
AcDbEntity
  8
instalacja gazowa
  6
Continuous
 62
     0
440
 16777216
370
    -2
100
AcDbLine
 10
8417703.216738452
 20
5761344.810370851
 30
0.0
 11
8417703.340481368
 21
5761345.007755028
 31
0.0
  0
SOLID
  5
2D7
330
2D1
100
AcDbEntity
  8
instalacja gazowa
  6
Continuous
 62
     0
440
 16777216
100
AcDbTrace
 10
8417703.715331409
 20
5761345.549204265
 30
0.0
 11
8417703.66449529
 21
5761345.581074143
 31
0.0
 12
8417703.785522983
 22
5761345.717647559
 32
0.0
 13
8417703.785522983
 23
5761345.717647559
 33
0.0
  0
SOLID
  5
2D8
330
2D1
100
AcDbEntity
  8
instalacja gazowa
  6
Continuous
 62
     0
440
 16777216
100
AcDbTrace
 10
8417703.191320391
 20
5761344.82630579
 30
0.0
 11
8417703.242156511
 21
5761344.794435912
 31
0.0
 12
8417703.121128818
 22
5761344.657862497
 32
0.0
 13
8417703.121128818
 23
5761344.657862497
 33
0.0
  0
MTEXT
  5
2D9
330
2D1
100
AcDbEntity
  8
instalacja gazowa
  6
Continuous
 62
     0
440
 16777216
100
AcDbMText
 10
8417703.453325902
 20
5761345.187755027
 30
0.0
 40
0.18
 41
0.0
 46
0.0
 71
     5
 72
     1
  1
\A1;1.2508
 73
     1
 44
1.0
  0
POINT
  5
2DA
330
2D1
100
AcDbEntity
  8
Defpoints
  6
Continuous
 62
     0
440
 16777216
100
AcDbPoint
 10
8417703.813882669
 20
5761345.699868472
 30
0.0
  0
POINT
  5
2DB
330
2D1
100
AcDbEntity
  8
Defpoints
  6
Continuous
 62
     0
440
 16777216
100
AcDbPoint
 10
8417703.149488506
 20
5761344.640083409
 30
0.0
  0
POINT
  5
2DC
330
2D1
100
AcDbEntity
  8
Defpoints
  6
Continuous
 62
     0
440
 16777216
100
AcDbPoint
 10
8417703.121128818
 20
5761344.657862497
 30
0.0
  0
ENDBLK
  5
2DD
330
2D1
100
AcDbEntity
  8
instalacja gazowa
100
AcDbBlockEnd
  0
BLOCK
  5
2E0
330
2DF
100
AcDbEntity
  8
instalacja gazowa
100
AcDbBlockBegin
  2
*D3
 70
     1
 10
0.0
 20
0.0
 30
0.0
  3
*D3
  1
Acad:XRef
  0
LINE
  5
2E1
330
2DF
100
AcDbEntity
  8
instalacja gazowa
  6
Continuous
 62
     0
440
 16777216
370
    -2
100
AcDbLine
 10
8417700.46624082
 20
5761347.135352187
 30
0.0
 11
8417701.097286235
 21
5761348.141303447
 31
0.0
  0
LINE
  5
2E2
330
2DF
100
AcDbEntity
  8
instalacja gazowa
  6
Continuous
 62
     0
440
 16777216
370
    -2
100
AcDbLine
 10
8417705.158562378
 20
5761344.191802009
 30
0.0
 11
8417705.789607794
 21
5761345.197753268
 31
0.0
  0
LINE
  5
2E3
330
2DF
100
AcDbEntity
  8
instalacja gazowa
  6
Continuous
 62
     0
440
 16777216
370
    -2
100
AcDbLine
 10
8417700.585508935
 20
5761346.986754185
 30
0.0
 11
8417702.49225018
 21
5761345.790632296
 31
0.0
  0
LINE
  5
2E4
330
2DF
100
AcDbEntity
  8
instalacja gazowa
  6
Continuous
 62
     0
440
 16777216
370
    -2
100
AcDbLine
 10
8417704.972868429
 20
5761344.234510406
 30
0.0
 11
8417703.066127184
 21
5761345.430632296
 31
0.0
  0
SOLID
  5
2E5
330
2DF
100
AcDbEntity
  8
instalacja gazowa
  6
Continuous
 62
     0
440
 16777216
100
AcDbTrace
 10
8417700.601451134
 20
5761347.012167691
 30
0.0
 11
8417700.569566736
 21
5761346.96134068
 31
0.0
 12
8417700.433027903
 22
5761347.082407385
 32
0.0
 13
8417700.433027903
 23
5761347.082407385
 33
0.0
  0
SOLID
  5
2E6
330
2DF
100
AcDbEntity
  8
instalacja gazowa
  6
Continuous
 62
     0
440
 16777216
100
AcDbTrace
 10
8417704.956926231
 20
5761344.2090969
 30
0.0
 11
8417704.988810628
 21
5761344.259923912
 31
0.0
 12
8417705.125349462
 22
5761344.138857205
 32
0.0
 13
8417705.125349462
 23
5761344.138857205
 33
0.0
  0
MTEXT
  5
2E7
330
2DF
100
AcDbEntity
  8
instalacja gazowa
  6
Continuous
 62
     0
440
 16777216
100
AcDbMText
 10
8417702.779188681
 20
5761345.610632296
 30
0.0
 40
0.18
 41
0.0
 46
0.0
 71
     5
 72
     1
  1
\A1;5.5392
 73
     1
 44
1.0
  0
POINT
  5
2E8
330
2DF
100
AcDbEntity
  8
Defpoints
  6
Continuous
 62
     0
440
 16777216
100
AcDbPoint
 10
8417700.433027903
 20
5761347.082407385
 30
0.0
  0
POINT
  5
2E9
330
2DF
100
AcDbEntity
  8
Defpoints
  6
Continuous
 62
     0
440
 16777216
100
AcDbPoint
 10
8417705.125349462
 20
5761344.138857205
 30
0.0
  0
POINT
  5
2EA
330
2DF
100
AcDbEntity
  8
Defpoints
  6
Continuous
 62
     0
440
 16777216
100
AcDbPoint
 10
8417705.125349462
 20
5761344.138857205
 30
0.0
  0
ENDBLK
  5
2EB
330
2DF
100
AcDbEntity
  8
instalacja gazowa
100
AcDbBlockEnd
  0
BLOCK
  5
2F3
330
2F0
100
AcDbEntity
  8
0
100
AcDbBlockBegin
  2
A$C539eaeab
 70
     0
 10
0.0
 20
0.0
 30
0.0
  3
A$C539eaeab
  1

  0
LINE
  5
2F4
330
2F0
100
AcDbEntity
  8
ziemne 2
  6
Continuous
370
    13
100
AcDbLine
 10
0.0
 20
7.728970790281891
 30
0.0
 11
2.06470591854304
 21
0.0
 31
0.0
  0
LINE
  5
2F5
330
2F0
100
AcDbEntity
  8
ziemne 2
  6
Continuous
 62
     2
370
    13
100
AcDbLine
 10
0.7245910111814738
 20
7.922536970116198
 30
0.0
 11
2.789296929724514
 21
0.1935661798343062
 31
0.0
  0
LINE
  5
2F6
330
2F0
100
AcDbEntity
  8
ziemne 2
  6
Continuous
 62
     2
370
    13
100
AcDbLine
 10
1.932242697104811
 20
8.245147270150482
 30
0.0
 11
3.996948615647852
 21
0.5161764798685909
 31
0.0
  0
LINE
  5
2F7
330
2F0
100
AcDbEntity
  8
ziemne 2
  6
Continuous
370
    13
100
AcDbLine
 10
2.656833708286285
 20
8.438713449984788
 30
0.0
 11
4.721539626829326
 21
0.7097426597028971
 31
0.0
  0
LINE
  5
2F8
330
2F0
100
AcDbEntity
  8
ziemne 2
  6
Continuous
370
    13
100
AcDbLine
 10
0.0
 20
7.728970790281891
 30
0.0
 11
0.7245910111814738
 21
7.922536970116198
 31
0.0
  0
LINE
  5
2F9
330
2F0
100
AcDbEntity
  8
ziemne 2
  6
Continuous
 62
     2
370
    13
100
AcDbLine
 10
0.7245910111814738
 20
7.922536970116198
 30
0.0
 11
1.932242697104811
 21
8.24514726921916
 31
0.0
  0
LINE
  5
2FA
330
2F0
100
AcDbEntity
  8
ziemne 2
  6
Continuous
370
    13
100
AcDbLine
 10
1.932242697104811
 20
8.24514726921916
 30
0.0
 11
2.656833708286285
 21
8.438713448122143
 31
0.0
  0
LINE
  5
2FB
330
2F0
100
AcDbEntity
  8
ziemne 2
  6
Continuous
370
    13
100
AcDbLine
 10
2.06470591854304
 20
0.0
 30
0.0
 11
2.789296929724514
 21
0.1935661798343062
 31
0.0
  0
LINE
  5
2FC
330
2F0
100
AcDbEntity
  8
ziemne 2
  6
Continuous
 62
     2
370
    13
100
AcDbLine
 10
2.789296929724514
 20
0.1935661798343062
 30
0.0
 11
3.996948615647852
 21
0.5161764798685909
 31
0.0
  0
LINE
  5
2FD
330
2F0
100
AcDbEntity
  8
ziemne 2
  6
Continuous
370
    13
100
AcDbLine
 10
3.996948615647852
 20
0.5161764798685909
 30
0.0
 11
4.721539626829326
 21
0.7097426597028971
 31
0.0
  0
ENDBLK
  5
2FE
330
2F0
100
AcDbEntity
  8
0
100
AcDbBlockEnd
  0
BLOCK
  5
345
330
344
100
AcDbEntity
  8
instalacja gazowa
100
AcDbBlockBegin
  2
*D5
 70
     1
 10
0.0
 20
0.0
 30
0.0
  3
*D5
  1
Acad:XRef
  0
LINE
  5
346
330
344
100
AcDbEntity
  8
instalacja gazowa
  6
Continuous
 62
     0
370
    -2
100
AcDbLine
 10
8417617.648355411
 20
5761186.168370882
 30
0.0
 11
8417620.904516304
 21
5761185.244530663
 31
0.0
  0
LINE
  5
347
330
344
100
AcDbEntity
  8
instalacja gazowa
  6
Continuous
 62
     0
370
    -2
100
AcDbLine
 10
8417619.818479233
 20
5761193.817174419
 30
0.0
 11
8417623.074640125
 21
5761192.8933342
 31
0.0
  0
LINE
  5
348
330
344
100
AcDbEntity
  8
instalacja gazowa
  6
Continuous
 62
     0
370
    -2
100
AcDbLine
 10
8417619.751110697
 20
5761185.75888026
 30
0.0
 11
8417620.619646838
 21
5761188.820116782
 31
0.0
  0
LINE
  5
349
330
344
100
AcDbEntity
  8
instalacja gazowa
  6
Continuous
 62
     0
370
    -2
100
AcDbLine
 10
8417621.822973416
 20
5761193.061353384
 30
0.0
 11
8417620.954437275
 21
5761190.000116861
 31
0.0
  0
SOLID
  5
34A
330
344
100
AcDbEntity
  8
instalacja gazowa
  6
Continuous
 62
     0
100
AcDbTrace
 10
8417619.722249831
 20
5761185.767068687
 30
0.0
 11
8417619.779971564
 21
5761185.750691835
 31
0.0
 12
8417619.701980147
 22
5761185.585715053
 32
0.0
 13
8417619.701980147
 23
5761185.585715053
 33
0.0
  0
SOLID
  5
34B
330
344
100
AcDbEntity
  8
instalacja gazowa
  6
Continuous
 62
     0
100
AcDbTrace
 10
8417621.851834283
 20
5761193.053164958
 30
0.0
 11
8417621.794112548
 21
5761193.06954181
 31
0.0
 12
8417621.872103968
 22
5761193.23451859
 32
0.0
 13
8417621.872103968
 23
5761193.23451859
 33
0.0
  0
MTEXT
  5
34C
330
344
100
AcDbEntity
  8
instalacja gazowa
  6
Continuous
 62
     0
100
AcDbMText
 10
8417620.787042055
 20
5761189.410116822
 30
0.0
 40
0.18
 41
0.0
 46
0.0
 71
     5
 72
     1
  1
\A1;\A1;{\H5.555556x;750}
 73
     1
 44
1.0
  0
POINT
  5
34D
330
344
100
AcDbEntity
  8
Defpoints
  6
Continuous
 62
     0
100
AcDbPoint
 10
8417617.588228605
 20
5761186.185430101
 30
0.0
  0
POINT
  5
34E
330
344
100
AcDbEntity
  8
Defpoints
  6
Continuous
 62
     0
100
AcDbPoint
 10
8417619.758352426
 20
5761193.834233638
 30
0.0
  0
POINT
  5
34F
330
344
100
AcDbEntity
  8
Defpoints
  6
Continuous
 62
     0
100
AcDbPoint
 10
8417621.872103968
 20
5761193.23451859
 30
0.0
  0
ENDBLK
  5
350
330
344
100
AcDbEntity
  8
instalacja gazowa
100
AcDbBlockEnd
  0
BLOCK
  5
354
330
353
100
AcDbEntity
  8
instalacja gazowa
100
AcDbBlockBegin
  2
*D6
 70
     1
 10
0.0
 20
0.0
 30
0.0
  3
*D6
  1
Acad:XRef
  0
LINE
  5
355
330
353
100
AcDbEntity
  8
instalacja gazowa
  6
Continuous
 62
     0
440
 16777216
370
    -2
100
AcDbLine
 10
8417659.637236305
 20
5761168.178438646
 30
0.0
 11
8417661.040173827
 21
5761168.006266577
 31
0.0
  0
LINE
  5
356
330
353
100
AcDbEntity
  8
instalacja gazowa
  6
Continuous
 62
     0
440
 16777216
370
    -2
100
AcDbLine
 10
8417658.661355584
 20
5761160.22651182
 30
0.0
 11
8417660.064293107
 21
5761160.05433975
 31
0.0
  0
LINE
  5
357
330
353
100
AcDbEntity
  8
instalacja gazowa
  6
Continuous
 62
     0
440
 16777216
370
    -2
100
AcDbLine
 10
8417659.777556266
 20
5761167.979867813
 30
0.0
 11
8417659.383947782
 21
5761164.772564089
 31
0.0
  0
LINE
  5
358
330
353
100
AcDbEntity
  8
instalacja gazowa
  6
Continuous
 62
     0
440
 16777216
370
    -2
100
AcDbLine
 10
8417658.84552668
 20
5761160.38526028
 30
0.0
 11
8417659.239135165
 21
5761163.592564009
 31
0.0
  0
SOLID
  5
359
330
353
100
AcDbEntity
  8
instalacja gazowa
  6
Continuous
 62
     0
440
 16777216
100
AcDbTrace
 10
8417659.807332874
 20
5761167.976213553
 30
0.0
 11
8417659.747779659
 21
5761167.983522075
 31
0.0
 12
8417659.799481834
 22
5761168.158527461
 32
0.0
 13
8417659.799481834
 23
5761168.158527461
 33
0.0
  0
SOLID
  5
35A
330
353
100
AcDbEntity
  8
instalacja gazowa
  6
Continuous
 62
     0
440
 16777216
100
AcDbTrace
 10
8417658.815750073
 20
5761160.388914543
 30
0.0
 11
8417658.875303288
 21
5761160.381606019
 31
0.0
 12
8417658.823601113
 22
5761160.206600634
 32
0.0
 13
8417658.823601113
 23
5761160.206600634
 33
0.0
  0
MTEXT
  5
35B
330
353
100
AcDbEntity
  8
instalacja gazowa
  6
Continuous
 62
     0
440
 16777216
100
AcDbMText
 10
8417659.311541473
 20
5761164.182564048
 30
0.0
 40
0.18
 41
0.0
 46
0.0
 71
     5
 72
     1
  1
\A1;\A1;{\H5.555556x;800}
 73
     1
 44
1.0
  0
POINT
  5
35C
330
353
100
AcDbEntity
  8
Defpoints
  6
Continuous
 62
     0
440
 16777216
100
AcDbPoint
 10
8417659.575201705
 20
5761168.18605169
 30
0.0
  0
POINT
  5
35D
330
353
100
AcDbEntity
  8
Defpoints
  6
Continuous
 62
     0
440
 16777216
100
AcDbPoint
 10
8417658.599320985
 20
5761160.234124863
 30
0.0
  0
POINT
  5
35E
330
353
100
AcDbEntity
  8
Defpoints
  6
Continuous
 62
     0
440
 16777216
100
AcDbPoint
 10
8417658.823601113
 20
5761160.206600634
 30
0.0
  0
ENDBLK
  5
35F
330
353
100
AcDbEntity
  8
instalacja gazowa
100
AcDbBlockEnd
  0
BLOCK
  5
373
330
372
100
AcDbEntity
  8
instalacja gazowa
100
AcDbBlockBegin
  2
*D7
 70
     1
 10
0.0
 20
0.0
 30
0.0
  3
*D7
  1
Acad:XRef
  0
LINE
  5
374
330
372
100
AcDbEntity
  8
instalacja gazowa
  6
Continuous
 62
     0
370
    -2
100
AcDbLine
 10
8417655.517186238
 20
5761206.498149201
 30
0.0
 11
8417656.200023431
 21
5761207.984832717
 31
0.0
  0
LINE
  5
375
330
372
100
AcDbEntity
  8
instalacja gazowa
  6
Continuous
 62
     0
370
    -2
100
AcDbLine
 10
8417656.885861909
 20
5761205.869513283
 30
0.0
 11
8417657.568699103
 21
5761207.356196799
 31
0.0
  0
LINE
  5
376
330
372
100
AcDbEntity
  8
instalacja gazowa
  6
Continuous
 62
     0
370
    -2
100
AcDbLine
 10
8417655.841867182
 20
5761206.773790149
 30
0.0
 11
8417655.980133437
 21
5761206.710284137
 31
0.0
  0
LINE
  5
377
330
372
100
AcDbEntity
  8
instalacja gazowa
  6
Continuous
 62
     0
370
    -2
100
AcDbLine
 10
8417656.883399692
 20
5761206.295411847
 30
0.0
 11
8417656.745133438
 21
5761206.358917859
 31
0.0
  0
SOLID
  5
378
330
372
100
AcDbEntity
  8
instalacja gazowa
  6
Continuous
 62
     0
100
AcDbTrace
 10
8417655.85438865
 20
5761206.801052079
 30
0.0
 11
8417655.829345715
 21
5761206.746528219
 31
0.0
 12
8417655.6782956
 22
5761206.848918957
 32
0.0
 13
8417655.6782956
 23
5761206.848918957
 33
0.0
  0
SOLID
  5
379
330
372
100
AcDbEntity
  8
instalacja gazowa
  6
Continuous
 62
     0
100
AcDbTrace
 10
8417656.870878223
 20
5761206.268149916
 30
0.0
 11
8417656.89592116
 21
5761206.322673777
 31
0.0
 12
8417657.046971273
 22
5761206.220283039
 32
0.0
 13
8417657.046971273
 23
5761206.220283039
 33
0.0
  0
MTEXT
  5
37A
330
372
100
AcDbEntity
  8
instalacja gazowa
  6
Continuous
 62
     0
100
AcDbMText
 10
8417656.362633437
 20
5761206.534600997
 30
0.0
 40
0.18
 41
0.0
 46
0.0
 71
     5
 72
     1
  1
\A1;1.5061
 73
     1
 44
1.0
  0
POINT
  5
37B
330
372
100
AcDbEntity
  8
Defpoints
  6
Continuous
 62
     0
100
AcDbPoint
 10
8417655.491099846
 20
5761206.441353513
 30
0.0
  0
POINT
  5
37C
330
372
100
AcDbEntity
  8
Defpoints
  6
Continuous
 62
     0
100
AcDbPoint
 10
8417656.859775517
 20
5761205.812717595
 30
0.0
  0
POINT
  5
37D
330
372
100
AcDbEntity
  8
Defpoints
  6
Continuous
 62
     0
100
AcDbPoint
 10
8417657.046971273
 20
5761206.220283039
 30
0.0
  0
ENDBLK
  5
37E
330
372
100
AcDbEntity
  8
instalacja gazowa
100
AcDbBlockEnd
  0
BLOCK
  5
381
330
380
100
AcDbEntity
  8
instalacja gazowa
100
AcDbBlockBegin
  2
*D8
 70
     1
 10
0.0
 20
0.0
 30
0.0
  3
*D8
  1
Acad:XRef
  0
LINE
  5
382
330
380
100
AcDbEntity
  8
instalacja gazowa
  6
Continuous
 62
     0
370
    -2
100
AcDbLine
 10
8417640.32719185
 20
5761174.085352942
 30
0.0
 11
8417641.010417904
 21
5761175.573046641
 31
0.0
  0
LINE
  5
383
330
380
100
AcDbEntity
  8
instalacja gazowa
  6
Continuous
 62
     0
370
    -2
100
AcDbLine
 10
8417641.690463595
 20
5761173.459267902
 30
0.0
 11
8417642.373689648
 21
5761174.946961601
 31
0.0
  0
LINE
  5
384
330
380
100
AcDbEntity
  8
instalacja gazowa
  6
Continuous
 62
     0
370
    -2
100
AcDbLine
 10
8417640.652312154
 20
5761174.36198914
 30
0.0
 11
8417640.778431486
 21
5761174.304068605
 31
0.0
  0
LINE
  5
385
330
380
100
AcDbEntity
  8
instalacja gazowa
  6
Continuous
 62
     0
370
    -2
100
AcDbLine
 10
8417641.688434471
 20
5761173.886148071
 30
0.0
 11
8417641.562315138
 21
5761173.944068606
 31
0.0
  0
SOLID
  5
386
330
380
100
AcDbEntity
  8
instalacja gazowa
  6
Continuous
 62
     0
100
AcDbTrace
 10
8417640.664832486
 20
5761174.389251591
 30
0.0
 11
8417640.639791821
 21
5761174.334726688
 31
0.0
 12
8417640.48873744
 22
5761174.437111126
 32
0.0
 13
8417640.48873744
 23
5761174.437111126
 33
0.0
  0
SOLID
  5
387
330
380
100
AcDbEntity
  8
instalacja gazowa
  6
Continuous
 62
     0
100
AcDbTrace
 10
8417641.675914138
 20
5761173.858885619
 30
0.0
 11
8417641.700954803
 21
5761173.913410524
 31
0.0
 12
8417641.852009184
 22
5761173.811026085
 32
0.0
 13
8417641.852009184
 23
5761173.811026085
 33
0.0
  0
MTEXT
  5
388
330
380
100
AcDbEntity
  8
instalacja gazowa
  6
Continuous
 62
     0
100
AcDbMText
 10
8417641.170373313
 20
5761174.124068605
 30
0.0
 40
0.18
 41
0.0
 46
0.0
 71
     5
 72
     1
  1
\A1;1.5002
 73
     1
 44
1.0
  0
POINT
  5
389
330
380
100
AcDbEntity
  8
Defpoints
  6
Continuous
 62
     0
100
AcDbPoint
 10
8417640.301107827
 20
5761174.028556167
 30
0.0
  0
POINT
  5
38A
330
380
100
AcDbEntity
  8
Defpoints
  6
Continuous
 62
     0
100
AcDbPoint
 10
8417641.664379573
 20
5761173.402471126
 30
0.0
  0
POINT
  5
38B
330
380
100
AcDbEntity
  8
Defpoints
  6
Continuous
 62
     0
100
AcDbPoint
 10
8417641.852009184
 20
5761173.811026085
 30
0.0
  0
ENDBLK
  5
38C
330
380
100
AcDbEntity
  8
instalacja gazowa
100
AcDbBlockEnd
  0
BLOCK
  5
38F
330
38E
100
AcDbEntity
  8
instalacja gazowa
  6
Continuous
100
AcDbBlockBegin
  2
*D9
 70
     1
 10
0.0
 20
0.0
 30
0.0
  3
*D9
  1

  0
LINE
  5
390
330
38E
100
AcDbEntity
  8
instalacja gazowa
  6
Continuous
 62
     0
370
    -2
100
AcDbLine
 10
8417629.626609294
 20
5761214.886167298
 30
0.0
 11
8417627.888284155
 21
5761215.706727568
 31
0.0
  0
LINE
  5
391
330
38E
100
AcDbEntity
  8
instalacja gazowa
  6
Continuous
 62
     0
370
    -2
100
AcDbLine
 10
8417629.093019181
 20
5761213.755777317
 30
0.0
 11
8417627.35469404
 21
5761214.576337589
 31
0.0
  0
LINE
  5
392
330
38E
100
AcDbEntity
  8
instalacja gazowa
  6
Continuous
 62
     0
370
    -2
100
AcDbLine
 10
8417628.941837186
 20
5761215.010361279
 30
0.0
 11
8417628.836846439
 21
5761214.78794245
 31
0.0
  0
LINE
  5
393
330
38E
100
AcDbEntity
  8
instalacja gazowa
  6
Continuous
 62
     0
370
    -2
100
AcDbLine
 10
8417628.561921031
 20
5761214.205523623
 30
0.0
 11
8417628.666911777
 21
5761214.427942451
 31
0.0
  0
SOLID
  5
394
330
38E
100
AcDbEntity
  8
instalacja gazowa
  6
Continuous
 62
     0
100
AcDbTrace
 10
8417628.968966546
 20
5761214.997555116
 30
0.0
 11
8417628.914707828
 21
5761215.023167442
 31
0.0
 12
8417629.018674166
 22
5761215.173137441
 32
0.0
 13
8417629.018674166
 23
5761215.173137441
 33
0.0
  0
SOLID
  5
395
330
38E
100
AcDbEntity
  8
instalacja gazowa
  6
Continuous
 62
     0
100
AcDbTrace
 10
8417628.534791671
 20
5761214.218329786
 30
0.0
 11
8417628.589050391
 21
5761214.19271746
 31
0.0
 12
8417628.485084051
 22
5761214.042747461
 32
0.0
 13
8417628.485084051
 23
5761214.042747461
 33
0.0
  0
MTEXT
  5
396
330
38E
100
AcDbEntity
  8
instalacja gazowa
  6
Continuous
 62
     0
100
AcDbMText
 10
8417628.751879107
 20
5761214.60794245
 30
0.0
 40
0.18
 41
0.0
 46
0.0
 71
     5
 72
     1
  1
\A1;1.2500
 73
     1
 44
1.0
  0
POINT
  5
397
330
38E
100
AcDbEntity
  8
Defpoints
  6
Continuous
 62
     0
100
AcDbPoint
 10
8417629.683128794
 20
5761214.859487791
 30
0.0
  0
POINT
  5
398
330
38E
100
AcDbEntity
  8
Defpoints
  6
Continuous
 62
     0
100
AcDbPoint
 10
8417629.149538681
 20
5761213.729097811
 30
0.0
  0
POINT
  5
399
330
38E
100
AcDbEntity
  8
Defpoints
  6
Continuous
 62
     0
100
AcDbPoint
 10
8417628.485084051
 20
5761214.042747461
 30
0.0
  0
ENDBLK
  5
39A
330
38E
100
AcDbEntity
  8
instalacja gazowa
  6
Continuous
100
AcDbBlockEnd
  0
BLOCK
  5
39D
330
39C
100
AcDbEntity
  8
instalacja gazowa
  6
Continuous
100
AcDbBlockBegin
  2
*D10
 70
     1
 10
0.0
 20
0.0
 30
0.0
  3
*D10
  1

  0
LINE
  5
39E
330
39C
100
AcDbEntity
  8
instalacja gazowa
  6
Continuous
 62
     0
370
    -2
100
AcDbLine
 10
8417639.403420688
 20
5761213.269136957
 30
0.0
 11
8417637.865077004
 21
5761213.995297834
 31
0.0
  0
LINE
  5
39F
330
39C
100
AcDbEntity
  8
instalacja gazowa
  6
Continuous
 62
     0
370
    -2
100
AcDbLine
 10
8417638.869830575
 20
5761212.138746977
 30
0.0
 11
8417637.33148689
 21
5761212.864907854
 31
0.0
  0
LINE
  5
3A0
330
39C
100
AcDbEntity
  8
instalacja gazowa
  6
Continuous
 62
     0
370
    -2
100
AcDbLine
 10
8417638.918630036
 20
5761213.298931545
 30
0.0
 11
8417638.813639289
 21
5761213.076512716
 31
0.0
  0
LINE
  5
3A1
330
39C
100
AcDbEntity
  8
instalacja gazowa
  6
Continuous
 62
     0
370
    -2
100
AcDbLine
 10
8417638.53871388
 20
5761212.494093889
 30
0.0
 11
8417638.643704627
 21
5761212.716512717
 31
0.0
  0
SOLID
  5
3A2
330
39C
100
AcDbEntity
  8
instalacja gazowa
  6
Continuous
 62
     0
100
AcDbTrace
 10
8417638.945759394
 20
5761213.286125382
 30
0.0
 11
8417638.891500676
 21
5761213.31173771
 31
0.0
 12
8417638.995467015
 22
5761213.461707707
 32
0.0
 13
8417638.995467015
 23
5761213.461707707
 33
0.0
  0
SOLID
  5
3A3
330
39C
100
AcDbEntity
  8
instalacja gazowa
  6
Continuous
 62
     0
100
AcDbTrace
 10
8417638.51158452
 20
5761212.506900052
 30
0.0
 11
8417638.56584324
 21
5761212.481287726
 31
0.0
 12
8417638.461876901
 22
5761212.331317728
 32
0.0
 13
8417638.461876901
 23
5761212.331317728
 33
0.0
  0
MTEXT
  5
3A4
330
39C
100
AcDbEntity
  8
instalacja gazowa
  6
Continuous
 62
     0
100
AcDbMText
 10
8417638.728671956
 20
5761212.896512716
 30
0.0
 40
0.18
 41
0.0
 46
0.0
 71
     5
 72
     1
  1
\A1;1.2500
 73
     1
 44
1.0
  0
POINT
  5
3A5
330
39C
100
AcDbEntity
  8
Defpoints
  6
Continuous
 62
     0
100
AcDbPoint
 10
8417639.45994019
 20
5761213.242457451
 30
0.0
  0
POINT
  5
3A6
330
39C
100
AcDbEntity
  8
Defpoints
  6
Continuous
 62
     0
100
AcDbPoint
 10
8417638.926350075
 20
5761212.11206747
 30
0.0
  0
POINT
  5
3A7
330
39C
100
AcDbEntity
  8
Defpoints
  6
Continuous
 62
     0
100
AcDbPoint
 10
8417638.461876901
 20
5761212.331317728
 30
0.0
  0
ENDBLK
  5
3A8
330
39C
100
AcDbEntity
  8
instalacja gazowa
  6
Continuous
100
AcDbBlockEnd
  0
BLOCK
  5
3AB
330
3AA
100
AcDbEntity
  8
instalacja gazowa
  6
Continuous
100
AcDbBlockBegin
  2
*D11
 70
     1
 10
0.0
 20
0.0
 30
0.0
  3
*D11
  1

  0
LINE
  5
3AC
330
3AA
100
AcDbEntity
  8
instalacja gazowa
  6
Continuous
 62
     0
370
    -2
100
AcDbLine
 10
8417638.229522406
 20
5761210.782278936
 30
0.0
 11
8417636.628045599
 21
5761211.538241221
 31
0.0
  0
LINE
  5
3AD
330
3AA
100
AcDbEntity
  8
instalacja gazowa
  6
Continuous
 62
     0
370
    -2
100
AcDbLine
 10
8417637.695932292
 20
5761209.651888956
 30
0.0
 11
8417636.094455485
 21
5761210.407851241
 31
0.0
  0
LINE
  5
3AE
330
3AA
100
AcDbEntity
  8
instalacja gazowa
  6
Continuous
 62
     0
370
    -2
100
AcDbLine
 10
8417637.68159863
 20
5761210.841874931
 30
0.0
 11
8417637.576607884
 21
5761210.619456103
 31
0.0
  0
LINE
  5
3AF
330
3AA
100
AcDbEntity
  8
instalacja gazowa
  6
Continuous
 62
     0
370
    -2
100
AcDbLine
 10
8417637.301682473
 20
5761210.037037275
 30
0.0
 11
8417637.406673222
 21
5761210.259456104
 31
0.0
  0
SOLID
  5
3B0
330
3AA
100
AcDbEntity
  8
instalacja gazowa
  6
Continuous
 62
     0
100
AcDbTrace
 10
8417637.70872799
 20
5761210.829068768
 30
0.0
 11
8417637.65446927
 21
5761210.854681094
 31
0.0
 12
8417637.758435608
 22
5761211.004651093
 32
0.0
 13
8417637.758435608
 23
5761211.004651093
 33
0.0
  0
SOLID
  5
3B1
330
3AA
100
AcDbEntity
  8
instalacja gazowa
  6
Continuous
 62
     0
100
AcDbTrace
 10
8417637.274553115
 20
5761210.049843437
 30
0.0
 11
8417637.328811833
 21
5761210.024231112
 31
0.0
 12
8417637.224845496
 22
5761209.874261113
 32
0.0
 13
8417637.224845496
 23
5761209.874261113
 33
0.0
  0
MTEXT
  5
3B2
330
3AA
100
AcDbEntity
  8
instalacja gazowa
  6
Continuous
 62
     0
100
AcDbMText
 10
8417637.491640553
 20
5761210.439456103
 30
0.0
 40
0.18
 41
0.0
 46
0.0
 71
     5
 72
     1
  1
\A1;1.2500
 73
     1
 44
1.0
  0
POINT
  5
3B3
330
3AA
100
AcDbEntity
  8
Defpoints
  6
Continuous
 62
     0
100
AcDbPoint
 10
8417638.286041906
 20
5761210.75559943
 30
0.0
  0
POINT
  5
3B4
330
3AA
100
AcDbEntity
  8
Defpoints
  6
Continuous
 62
     0
100
AcDbPoint
 10
8417637.752451792
 20
5761209.62520945
 30
0.0
  0
POINT
  5
3B5
330
3AA
100
AcDbEntity
  8
Defpoints
  6
Continuous
 62
     0
100
AcDbPoint
 10
8417637.224845496
 20
5761209.874261113
 30
0.0
  0
ENDBLK
  5
3B6
330
3AA
100
AcDbEntity
  8
instalacja gazowa
  6
Continuous
100
AcDbBlockEnd
  0
BLOCK
  5
3B9
330
3B8
100
AcDbEntity
  8
instalacja gazowa
  6
Continuous
100
AcDbBlockBegin
  2
*D12
 70
     1
 10
0.0
 20
0.0
 30
0.0
  3
*D12
  1

  0
LINE
  5
3BA
330
3B8
100
AcDbEntity
  8
instalacja gazowa
  6
Continuous
 62
     0
370
    -2
100
AcDbLine
 10
8417637.055624139
 20
5761208.295420946
 30
0.0
 11
8417635.427979226
 21
5761209.063735641
 31
0.0
  0
LINE
  5
3BB
330
3B8
100
AcDbEntity
  8
instalacja gazowa
  6
Continuous
 62
     0
370
    -2
100
AcDbLine
 10
8417636.52203401
 20
5761207.165030936
 30
0.0
 11
8417634.894389097
 21
5761207.933345632
 31
0.0
  0
LINE
  5
3BC
330
3B8
100
AcDbEntity
  8
instalacja gazowa
  6
Continuous
 62
     0
370
    -2
100
AcDbLine
 10
8417636.481532257
 20
5761208.367369353
 30
0.0
 11
8417636.376541505
 21
5761208.144950509
 31
0.0
  0
LINE
  5
3BD
330
3B8
100
AcDbEntity
  8
instalacja gazowa
  6
Continuous
 62
     0
370
    -2
100
AcDbLine
 10
8417636.101616086
 20
5761207.562531665
 30
0.0
 11
8417636.206606839
 21
5761207.78495051
 31
0.0
  0
SOLID
  5
3BE
330
3B8
100
AcDbEntity
  8
instalacja gazowa
  6
Continuous
 62
     0
100
AcDbTrace
 10
8417636.508661617
 20
5761208.35456319
 30
0.0
 11
8417636.454402897
 21
5761208.380175515
 31
0.0
 12
8417636.558369236
 22
5761208.530145514
 32
0.0
 13
8417636.558369236
 23
5761208.530145514
 33
0.0
  0
SOLID
  5
3BF
330
3B8
100
AcDbEntity
  8
instalacja gazowa
  6
Continuous
 62
     0
100
AcDbTrace
 10
8417636.074486727
 20
5761207.575337827
 30
0.0
 11
8417636.128745446
 21
5761207.549725502
 31
0.0
 12
8417636.024779108
 22
5761207.399755504
 32
0.0
 13
8417636.024779108
 23
5761207.399755504
 33
0.0
  0
MTEXT
  5
3C0
330
3B8
100
AcDbEntity
  8
instalacja gazowa
  6
Continuous
 62
     0
100
AcDbMText
 10
8417636.291574172
 20
5761207.964950509
 30
0.0
 40
0.18
 41
0.0
 46
0.0
 71
     5
 72
     1
  1
\A1;1.2500
 73
     1
 44
1.0
  0
POINT
  5
3C1
330
3B8
100
AcDbEntity
  8
Defpoints
  6
Continuous
 62
     0
100
AcDbPoint
 10
8417637.112143639
 20
5761208.268741439
 30
0.0
  0
POINT
  5
3C2
330
3B8
100
AcDbEntity
  8
Defpoints
  6
Continuous
 62
     0
100
AcDbPoint
 10
8417636.57855351
 20
5761207.138351429
 30
0.0
  0
POINT
  5
3C3
330
3B8
100
AcDbEntity
  8
Defpoints
  6
Continuous
 62
     0
100
AcDbPoint
 10
8417636.024779108
 20
5761207.399755504
 30
0.0
  0
ENDBLK
  5
3C4
330
3B8
100
AcDbEntity
  8
instalacja gazowa
  6
Continuous
100
AcDbBlockEnd
  0
BLOCK
  5
3C7
330
3C6
100
AcDbEntity
  8
instalacja gazowa
  6
Continuous
100
AcDbBlockBegin
  2
*D13
 70
     1
 10
0.0
 20
0.0
 30
0.0
  3
*D13
  1

  0
LINE
  5
3C8
330
3C6
100
AcDbEntity
  8
instalacja gazowa
  6
Continuous
 62
     0
370
    -2
100
AcDbLine
 10
8417638.869830579
 20
5761212.138746976
 30
0.0
 11
8417637.449968189
 21
5761212.808979862
 31
0.0
  0
LINE
  5
3C9
330
3C6
100
AcDbEntity
  8
instalacja gazowa
  6
Continuous
 62
     0
370
    -2
100
AcDbLine
 10
8417638.22952242
 20
5761210.782278966
 30
0.0
 11
8417636.809660031
 21
5761211.452511853
 31
0.0
  0
LINE
  5
3CA
330
3C6
100
AcDbEntity
  8
instalacja gazowa
  6
Continuous
 62
     0
370
    -2
100
AcDbLine
 10
8417638.503521219
 20
5761212.11261357
 30
0.0
 11
8417638.34517145
 21
5761211.777155726
 31
0.0
  0
LINE
  5
3CB
330
3C6
100
AcDbEntity
  8
instalacja gazowa
  6
Continuous
 62
     0
370
    -2
100
AcDbLine
 10
8417638.016887018
 20
5761211.081697884
 30
0.0
 11
8417638.175236787
 21
5761211.417155727
 31
0.0
  0
SOLID
  5
3CC
330
3C6
100
AcDbEntity
  8
instalacja gazowa
  6
Continuous
 62
     0
100
AcDbTrace
 10
8417638.530650579
 20
5761212.099807407
 30
0.0
 11
8417638.476391859
 21
5761212.125419733
 31
0.0
 12
8417638.580358197
 22
5761212.275389731
 32
0.0
 13
8417638.580358197
 23
5761212.275389731
 33
0.0
  0
SOLID
  5
3CD
330
3C6
100
AcDbEntity
  8
instalacja gazowa
  6
Continuous
 62
     0
100
AcDbTrace
 10
8417637.989757659
 20
5761211.094504046
 30
0.0
 11
8417638.044016378
 21
5761211.06889172
 31
0.0
 12
8417637.94005004
 22
5761210.918921721
 32
0.0
 13
8417637.94005004
 23
5761210.918921721
 33
0.0
  0
MTEXT
  5
3CE
330
3C6
100
AcDbEntity
  8
instalacja gazowa
  6
Continuous
 62
     0
100
AcDbMText
 10
8417638.260204117
 20
5761211.597155727
 30
0.0
 40
0.18
 41
0.0
 46
0.0
 71
     5
 72
     1
  1
\A1;1.5000
 73
     1
 44
1.0
  0
POINT
  5
3CF
330
3C6
100
AcDbEntity
  8
Defpoints
  6
Continuous
 62
     0
100
AcDbPoint
 10
8417638.926350079
 20
5761212.112067469
 30
0.0
  0
POINT
  5
3D0
330
3C6
100
AcDbEntity
  8
Defpoints
  6
Continuous
 62
     0
100
AcDbPoint
 10
8417638.28604192
 20
5761210.75559946
 30
0.0
  0
POINT
  5
3D1
330
3C6
100
AcDbEntity
  8
Defpoints
  6
Continuous
 62
     0
100
AcDbPoint
 10
8417637.94005004
 20
5761210.918921721
 30
0.0
  0
ENDBLK
  5
3D2
330
3C6
100
AcDbEntity
  8
instalacja gazowa
  6
Continuous
100
AcDbBlockEnd
  0
BLOCK
  5
3D5
330
3D4
100
AcDbEntity
  8
instalacja gazowa
  6
Continuous
100
AcDbBlockBegin
  2
*D14
 70
     1
 10
0.0
 20
0.0
 30
0.0
  3
*D14
  1

  0
LINE
  5
3D6
330
3D4
100
AcDbEntity
  8
instalacja gazowa
  6
Continuous
 62
     0
370
    -2
100
AcDbLine
 10
8417637.638351106
 20
5761209.676192396
 30
0.0
 11
8417636.006223027
 21
5761210.365068921
 31
0.0
  0
LINE
  5
3D7
330
3D4
100
AcDbEntity
  8
instalacja gazowa
  6
Continuous
 62
     0
370
    -2
100
AcDbLine
 10
8417637.05456244
 20
5761208.293044849
 30
0.0
 11
8417635.42243436
 21
5761208.981921373
 31
0.0
  0
LINE
  5
3D8
330
3D4
100
AcDbEntity
  8
instalacja gazowa
  6
Continuous
 62
     0
370
    -2
100
AcDbLine
 10
8417637.087852813
 20
5761209.713166316
 30
0.0
 11
8417636.941925451
 21
5761209.367426354
 31
0.0
  0
LINE
  5
3D9
330
3D4
100
AcDbEntity
  8
instalacja gazowa
  6
Continuous
 62
     0
370
    -2
100
AcDbLine
 10
8417636.644051958
 20
5761208.661686391
 30
0.0
 11
8417636.78997932
 21
5761209.007426353
 31
0.0
  0
SOLID
  5
3DA
330
3D4
100
AcDbEntity
  8
instalacja gazowa
  6
Continuous
 62
     0
100
AcDbTrace
 10
8417637.115491782
 20
5761209.701500665
 30
0.0
 11
8417637.060213845
 21
5761209.724831967
 31
0.0
 12
8417637.157846719
 22
5761209.879000127
 32
0.0
 13
8417637.157846719
 23
5761209.879000127
 33
0.0
  0
SOLID
  5
3DB
330
3D4
100
AcDbEntity
  8
instalacja gazowa
  6
Continuous
 62
     0
100
AcDbTrace
 10
8417636.616412989
 20
5761208.673352042
 30
0.0
 11
8417636.671690926
 21
5761208.650020741
 31
0.0
 12
8417636.574058052
 22
5761208.49585258
 32
0.0
 13
8417636.574058052
 23
5761208.49585258
 33
0.0
  0
MTEXT
  5
3DC
330
3D4
100
AcDbEntity
  8
instalacja gazowa
  6
Continuous
 62
     0
100
AcDbMText
 10
8417636.865952385
 20
5761209.187426353
 30
0.0
 40
0.18
 41
0.0
 46
0.0
 71
     5
 72
     1
  1
\A1;1.5013
 73
     1
 44
1.0
  0
POINT
  5
3DD
330
3D4
100
AcDbEntity
  8
Defpoints
  6
Continuous
 62
     0
100
AcDbPoint
 10
8417637.695932292
 20
5761209.651888956
 30
0.0
  0
POINT
  5
3DE
330
3D4
100
AcDbEntity
  8
Defpoints
  6
Continuous
 62
     0
100
AcDbPoint
 10
8417637.112143625
 20
5761208.268741409
 30
0.0
  0
POINT
  5
3DF
330
3D4
100
AcDbEntity
  8
Defpoints
  6
Continuous
 62
     0
100
AcDbPoint
 10
8417636.574058052
 20
5761208.49585258
 30
0.0
  0
ENDBLK
  5
3E0
330
3D4
100
AcDbEntity
  8
instalacja gazowa
  6
Continuous
100
AcDbBlockEnd
  0
BLOCK
  5
3E3
330
3E2
100
AcDbEntity
  8
instalacja gazowa
  6
Continuous
100
AcDbBlockBegin
  2
*D15
 70
     1
 10
0.0
 20
0.0
 30
0.0
  3
*D15
  1

  0
LINE
  5
3E4
330
3E2
100
AcDbEntity
  8
instalacja gazowa
  6
Continuous
 62
     0
370
    -2
100
AcDbLine
 10
8417636.52203401
 20
5761207.165030936
 30
0.0
 11
8417634.860496885
 21
5761207.949344136
 31
0.0
  0
LINE
  5
3E5
330
3E2
100
AcDbEntity
  8
instalacja gazowa
  6
Continuous
 62
     0
370
    -2
100
AcDbLine
 10
8417635.881725857
 20
5761205.808562924
 30
0.0
 11
8417634.220188734
 21
5761206.592876125
 31
0.0
  0
LINE
  5
3E6
330
3E2
100
AcDbEntity
  8
instalacja gazowa
  6
Continuous
 62
     0
370
    -2
100
AcDbLine
 10
8417635.914049919
 20
5761207.252977847
 30
0.0
 11
8417635.755700153
 21
5761206.917520001
 31
0.0
  0
LINE
  5
3E7
330
3E2
100
AcDbEntity
  8
instalacja gazowa
  6
Continuous
 62
     0
370
    -2
100
AcDbLine
 10
8417635.427415723
 20
5761206.222062159
 30
0.0
 11
8417635.58576549
 21
5761206.557520003
 31
0.0
  0
SOLID
  5
3E8
330
3E2
100
AcDbEntity
  8
instalacja gazowa
  6
Continuous
 62
     0
100
AcDbTrace
 10
8417635.941179279
 20
5761207.240171683
 30
0.0
 11
8417635.886920558
 21
5761207.265784009
 31
0.0
 12
8417635.990886896
 22
5761207.415754008
 32
0.0
 13
8417635.990886896
 23
5761207.415754008
 33
0.0
  0
SOLID
  5
3E9
330
3E2
100
AcDbEntity
  8
instalacja gazowa
  6
Continuous
 62
     0
100
AcDbTrace
 10
8417635.400286364
 20
5761206.234868321
 30
0.0
 11
8417635.454545083
 21
5761206.209255995
 31
0.0
 12
8417635.350578745
 22
5761206.059285997
 32
0.0
 13
8417635.350578745
 23
5761206.059285997
 33
0.0
  0
MTEXT
  5
3EA
330
3E2
100
AcDbEntity
  8
instalacja gazowa
  6
Continuous
 62
     0
100
AcDbMText
 10
8417635.670732821
 20
5761206.737520002
 30
0.0
 40
0.18
 41
0.0
 46
0.0
 71
     5
 72
     1
  1
\A1;1.5000
 73
     1
 44
1.0
  0
POINT
  5
3EB
330
3E2
100
AcDbEntity
  8
Defpoints
  6
Continuous
 62
     0
100
AcDbPoint
 10
8417636.57855351
 20
5761207.138351429
 30
0.0
  0
POINT
  5
3EC
330
3E2
100
AcDbEntity
  8
Defpoints
  6
Continuous
 62
     0
100
AcDbPoint
 10
8417635.938245359
 20
5761205.781883417
 30
0.0
  0
POINT
  5
3ED
330
3E2
100
AcDbEntity
  8
Defpoints
  6
Continuous
 62
     0
100
AcDbPoint
 10
8417635.350578745
 20
5761206.059285997
 30
0.0
  0
ENDBLK
  5
3EE
330
3E2
100
AcDbEntity
  8
instalacja gazowa
  6
Continuous
100
AcDbBlockEnd
  0
BLOCK
  5
3F1
330
3F0
100
AcDbEntity
  8
instalacja gazowa
  6
Continuous
100
AcDbBlockBegin
  2
*D16
 70
     1
 10
0.0
 20
0.0
 30
0.0
  3
*D16
  1

  0
LINE
  5
3F2
330
3F0
100
AcDbEntity
  8
instalacja gazowa
  6
Continuous
 62
     0
370
    -2
100
AcDbLine
 10
8417635.348135728
 20
5761204.678172914
 30
0.0
 11
8417633.709977735
 21
5761205.45145021
 31
0.0
  0
LINE
  5
3F3
330
3F0
100
AcDbEntity
  8
instalacja gazowa
  6
Continuous
 62
     0
370
    -2
100
AcDbLine
 10
8417634.707827575
 20
5761203.321704901
 30
0.0
 11
8417633.069669582
 21
5761204.094982198
 31
0.0
  0
LINE
  5
3F4
330
3F0
100
AcDbEntity
  8
instalacja gazowa
  6
Continuous
 62
     0
370
    -2
100
AcDbLine
 10
8417634.763530767
 20
5761204.755083922
 30
0.0
 11
8417634.605181001
 21
5761204.419626077
 31
0.0
  0
LINE
  5
3F5
330
3F0
100
AcDbEntity
  8
instalacja gazowa
  6
Continuous
 62
     0
370
    -2
100
AcDbLine
 10
8417634.276896572
 20
5761203.724168233
 30
0.0
 11
8417634.435246338
 21
5761204.059626078
 31
0.0
  0
SOLID
  5
3F6
330
3F0
100
AcDbEntity
  8
instalacja gazowa
  6
Continuous
 62
     0
100
AcDbTrace
 10
8417634.790660127
 20
5761204.742277759
 30
0.0
 11
8417634.736401407
 21
5761204.767890085
 31
0.0
 12
8417634.840367746
 22
5761204.917860084
 32
0.0
 13
8417634.840367746
 23
5761204.917860084
 33
0.0
  0
SOLID
  5
3F7
330
3F0
100
AcDbEntity
  8
instalacja gazowa
  6
Continuous
 62
     0
100
AcDbTrace
 10
8417634.249767212
 20
5761203.736974397
 30
0.0
 11
8417634.304025931
 21
5761203.71136207
 31
0.0
 12
8417634.200059593
 22
5761203.561392071
 32
0.0
 13
8417634.200059593
 23
5761203.561392071
 33
0.0
  0
MTEXT
  5
3F8
330
3F0
100
AcDbEntity
  8
instalacja gazowa
  6
Continuous
 62
     0
100
AcDbMText
 10
8417634.520213669
 20
5761204.239626078
 30
0.0
 40
0.18
 41
0.0
 46
0.0
 71
     5
 72
     1
  1
\A1;1.5000
 73
     1
 44
1.0
  0
POINT
  5
3F9
330
3F0
100
AcDbEntity
  8
Defpoints
  6
Continuous
 62
     0
100
AcDbPoint
 10
8417635.404655229
 20
5761204.651493407
 30
0.0
  0
POINT
  5
3FA
330
3F0
100
AcDbEntity
  8
Defpoints
  6
Continuous
 62
     0
100
AcDbPoint
 10
8417634.764347075
 20
5761203.295025395
 30
0.0
  0
POINT
  5
3FB
330
3F0
100
AcDbEntity
  8
Defpoints
  6
Continuous
 62
     0
100
AcDbPoint
 10
8417634.200059593
 20
5761203.561392071
 30
0.0
  0
ENDBLK
  5
3FC
330
3F0
100
AcDbEntity
  8
instalacja gazowa
  6
Continuous
100
AcDbBlockEnd
  0
BLOCK
  5
3FF
330
3FE
100
AcDbEntity
  8
instalacja gazowa
  6
Continuous
100
AcDbBlockBegin
  2
*D17
 70
     1
 10
0.0
 20
0.0
 30
0.0
  3
*D17
  1

  0
LINE
  5
400
330
3FE
100
AcDbEntity
  8
instalacja gazowa
  6
Continuous
 62
     0
370
    -2
100
AcDbLine
 10
8417639.723574781
 20
5761213.947370992
 30
0.0
 11
8417638.185231094
 21
5761214.673531871
 31
0.0
  0
LINE
  5
401
330
3FE
100
AcDbEntity
  8
instalacja gazowa
  6
Continuous
 62
     0
370
    -2
100
AcDbLine
 10
8417639.403420706
 20
5761213.269136987
 30
0.0
 11
8417637.865077018
 21
5761213.995297866
 31
0.0
  0
LINE
  5
402
330
3FE
100
AcDbEntity
  8
instalacja gazowa
  6
Continuous
 62
     0
370
    -2
100
AcDbLine
 10
8417639.392458085
 20
5761214.302717905
 30
0.0
 11
8417639.469295064
 21
5761214.465494068
 31
0.0
  0
LINE
  5
403
330
3FE
100
AcDbEntity
  8
instalacja gazowa
  6
Continuous
 62
     0
370
    -2
100
AcDbLine
 10
8417638.918630052
 20
5761213.298931576
 30
0.0
 11
8417638.841793072
 21
5761213.136155414
 31
0.0
  0
SOLID
  5
404
330
3FE
100
AcDbEntity
  8
instalacja gazowa
  6
Continuous
 62
     0
100
AcDbTrace
 10
8417639.365328724
 20
5761214.315524068
 30
0.0
 11
8417639.419587445
 21
5761214.289911743
 31
0.0
 12
8417639.315621107
 22
5761214.139941744
 32
0.0
 13
8417639.315621107
 23
5761214.139941744
 33
0.0
  0
SOLID
  5
405
330
3FE
100
AcDbEntity
  8
instalacja gazowa
  6
Continuous
 62
     0
100
AcDbTrace
 10
8417638.94575941
 20
5761213.286125413
 30
0.0
 11
8417638.891500692
 21
5761213.31173774
 31
0.0
 12
8417638.995467029
 22
5761213.461707739
 32
0.0
 13
8417638.995467029
 23
5761213.461707739
 33
0.0
  0
MTEXT
  5
406
330
3FE
100
AcDbEntity
  8
instalacja gazowa
  6
Continuous
 62
     0
100
AcDbMText
 10
8417639.155544069
 20
5761213.800824741
 30
0.0
 40
0.18
 41
0.0
 46
0.0
 71
     5
 72
     1
  1
\A1;0.7500
 73
     1
 44
1.0
  0
POINT
  5
407
330
3FE
100
AcDbEntity
  8
Defpoints
  6
Continuous
 62
     0
100
AcDbPoint
 10
8417639.780094283
 20
5761213.920691485
 30
0.0
  0
POINT
  5
408
330
3FE
100
AcDbEntity
  8
Defpoints
  6
Continuous
 62
     0
100
AcDbPoint
 10
8417639.459940206
 20
5761213.24245748
 30
0.0
  0
POINT
  5
409
330
3FE
100
AcDbEntity
  8
Defpoints
  6
Continuous
 62
     0
100
AcDbPoint
 10
8417638.995467029
 20
5761213.461707739
 30
0.0
  0
ENDBLK
  5
40A
330
3FE
100
AcDbEntity
  8
instalacja gazowa
  6
Continuous
100
AcDbBlockEnd
  0
BLOCK
  5
40D
330
40C
100
AcDbEntity
  8
instalacja gazowa
  6
Continuous
100
AcDbBlockBegin
  2
*D18
 70
     1
 10
0.0
 20
0.0
 30
0.0
  3
*D18
  1

  0
LINE
  5
40E
330
40C
100
AcDbEntity
  8
instalacja gazowa
  6
Continuous
 62
     0
370
    -2
100
AcDbLine
 10
8417638.640072121
 20
5761170.625588206
 30
0.0
 11
8417635.973159487
 21
5761170.896682052
 31
0.0
  0
LINE
  5
40F
330
40C
100
AcDbEntity
  8
instalacja gazowa
  6
Continuous
 62
     0
370
    -2
100
AcDbLine
 10
8417637.782569117
 20
5761162.189817241
 30
0.0
 11
8417635.115656484
 21
5761162.460911086
 31
0.0
  0
LINE
  5
410
330
40C
100
AcDbEntity
  8
instalacja gazowa
  6
Continuous
 62
     0
370
    -2
100
AcDbLine
 10
8417637.19854771
 20
5761170.591192768
 30
0.0
 11
8417636.806296696
 21
5761166.732384471
 31
0.0
  0
LINE
  5
411
330
40C
100
AcDbEntity
  8
instalacja gazowa
  6
Continuous
 62
     0
370
    -2
100
AcDbLine
 10
8417636.377451392
 20
5761162.513576175
 30
0.0
 11
8417636.769702406
 21
5761166.372384471
 31
0.0
  0
SOLID
  5
412
330
40C
100
AcDbEntity
  8
instalacja gazowa
  6
Continuous
 62
     0
100
AcDbTrace
 10
8417637.228393907
 20
5761170.588158878
 30
0.0
 11
8417637.168701514
 21
5761170.594226659
 31
0.0
 12
8417637.216751051
 22
5761170.770269955
 32
0.0
 13
8417637.216751051
 23
5761170.770269955
 33
0.0
  0
SOLID
  5
413
330
40C
100
AcDbEntity
  8
instalacja gazowa
  6
Continuous
 62
     0
100
AcDbTrace
 10
8417636.347605194
 20
5761162.516610065
 30
0.0
 11
8417636.407297589
 21
5761162.510542285
 31
0.0
 12
8417636.359248049
 22
5761162.334498989
 32
0.0
 13
8417636.359248049
 23
5761162.334498989
 33
0.0
  0
MTEXT
  5
414
330
40C
100
AcDbEntity
  8
instalacja gazowa
  6
Continuous
 62
     0
100
AcDbMText
 10
8417636.787999551
 20
5761166.552384471
 30
0.0
 40
0.18
 41
0.0
 46
0.0
 71
     5
 72
     1
  1
\A1;8.4792
 73
     1
 44
1.0
  0
POINT
  5
415
330
40C
100
AcDbEntity
  8
Defpoints
  6
Continuous
 62
     0
100
AcDbPoint
 10
8417638.7022517
 20
5761170.619267601
 30
0.0
  0
POINT
  5
416
330
40C
100
AcDbEntity
  8
Defpoints
  6
Continuous
 62
     0
100
AcDbPoint
 10
8417637.844748696
 20
5761162.183496636
 30
0.0
  0
POINT
  5
417
330
40C
100
AcDbEntity
  8
Defpoints
  6
Continuous
 62
     0
100
AcDbPoint
 10
8417636.359248049
 20
5761162.334498989
 30
0.0
  0
ENDBLK
  5
418
330
40C
100
AcDbEntity
  8
instalacja gazowa
  6
Continuous
100
AcDbBlockEnd
  0
BLOCK
  5
41B
330
41A
100
AcDbEntity
  8
instalacja gazowa
  6
Continuous
100
AcDbBlockBegin
  2
*D19
 70
     1
 10
0.0
 20
0.0
 30
0.0
  3
*D19
  1

  0
LINE
  5
41C
330
41A
100
AcDbEntity
  8
instalacja gazowa
  6
Continuous
 62
     0
370
    -2
100
AcDbLine
 10
8417648.430638688
 20
5761169.134088821
 30
0.0
 11
8417646.033622409
 21
5761169.399154483
 31
0.0
  0
LINE
  5
41D
330
41A
100
AcDbEntity
  8
instalacja gazowa
  6
Continuous
 62
     0
370
    -2
100
AcDbLine
 10
8417647.563563594
 20
5761161.29303879
 30
0.0
 11
8417645.166547314
 21
5761161.558104453
 31
0.0
  0
LINE
  5
41E
330
41A
100
AcDbEntity
  8
instalacja gazowa
  6
Continuous
 62
     0
370
    -2
100
AcDbLine
 10
8417647.25626505
 20
5761169.082855623
 30
0.0
 11
8417646.862416251
 21
5761165.521240054
 31
0.0
  0
LINE
  5
41F
330
41A
100
AcDbEntity
  8
instalacja gazowa
  6
Continuous
 62
     0
370
    -2
100
AcDbLine
 10
8417646.428758109
 20
5761161.599624487
 30
0.0
 11
8417646.822606908
 21
5761165.161240056
 31
0.0
  0
SOLID
  5
420
330
41A
100
AcDbEntity
  8
instalacja gazowa
  6
Continuous
 62
     0
100
AcDbTrace
 10
8417647.28608329
 20
5761169.079558277
 30
0.0
 11
8417647.22644681
 21
5761169.086152968
 31
0.0
 12
8417647.276049127
 22
5761169.26176507
 32
0.0
 13
8417647.276049127
 23
5761169.26176507
 33
0.0
  0
SOLID
  5
421
330
41A
100
AcDbEntity
  8
instalacja gazowa
  6
Continuous
 62
     0
100
AcDbTrace
 10
8417646.398939869
 20
5761161.602921832
 30
0.0
 11
8417646.458576349
 21
5761161.59632714
 31
0.0
 12
8417646.408974032
 22
5761161.42071504
 32
0.0
 13
8417646.408974032
 23
5761161.42071504
 33
0.0
  0
MTEXT
  5
422
330
41A
100
AcDbEntity
  8
instalacja gazowa
  6
Continuous
 62
     0
100
AcDbMText
 10
8417646.84251158
 20
5761165.341240054
 30
0.0
 40
0.18
 41
0.0
 46
0.0
 71
     5
 72
     1
  1
\A1;7.8888
 73
     1
 44
1.0
  0
POINT
  5
423
330
41A
100
AcDbEntity
  8
Defpoints
  6
Continuous
 62
     0
100
AcDbPoint
 10
8417648.492760022
 20
5761169.127219351
 30
0.0
  0
POINT
  5
424
330
41A
100
AcDbEntity
  8
Defpoints
  6
Continuous
 62
     0
100
AcDbPoint
 10
8417647.625684931
 20
5761161.28616932
 30
0.0
  0
POINT
  5
425
330
41A
100
AcDbEntity
  8
Defpoints
  6
Continuous
 62
     0
100
AcDbPoint
 10
8417646.408974032
 20
5761161.42071504
 30
0.0
  0
ENDBLK
  5
426
330
41A
100
AcDbEntity
  8
instalacja gazowa
  6
Continuous
100
AcDbBlockEnd
  0
BLOCK
  5
429
330
428
100
AcDbEntity
  8
instalacja gazowa
  6
Continuous
100
AcDbBlockBegin
  2
*D20
 70
     1
 10
0.0
 20
0.0
 30
0.0
  3
*D20
  1

  0
LINE
  5
42A
330
428
100
AcDbEntity
  8
instalacja gazowa
  6
Continuous
 62
     0
370
    -2
100
AcDbLine
 10
8417629.946763387
 20
5761215.564401332
 30
0.0
 11
8417624.61221629
 21
5761218.082524853
 31
0.0
  0
LINE
  5
42B
330
428
100
AcDbEntity
  8
instalacja gazowa
  6
Continuous
 62
     0
370
    -2
100
AcDbLine
 10
8417619.381678846
 20
5761193.182679138
 30
0.0
 11
8417614.047131751
 21
5761195.700802657
 31
0.0
  0
LINE
  5
42C
330
428
100
AcDbEntity
  8
instalacja gazowa
  6
Continuous
 62
     0
370
    -2
100
AcDbLine
 10
8417625.665769323
 20
5761217.386158562
 30
0.0
 11
8417620.545031363
 21
5761206.538073626
 31
0.0
  0
LINE
  5
42D
330
428
100
AcDbEntity
  8
instalacja gazowa
  6
Continuous
 62
     0
370
    -2
100
AcDbLine
 10
8417615.254358741
 20
5761195.329988691
 30
0.0
 11
8417620.375096699
 21
5761206.178073625
 31
0.0
  0
SOLID
  5
42E
330
428
100
AcDbEntity
  8
instalacja gazowa
  6
Continuous
 62
     0
100
AcDbTrace
 10
8417625.692898681
 20
5761217.373352398
 30
0.0
 11
8417625.638639963
 21
5761217.398964724
 31
0.0
 12
8417625.742606301
 22
5761217.548934723
 32
0.0
 13
8417625.742606301
 23
5761217.548934723
 33
0.0
  0
SOLID
  5
42F
330
428
100
AcDbEntity
  8
instalacja gazowa
  6
Continuous
 62
     0
100
AcDbTrace
 10
8417615.227229381
 20
5761195.342794853
 30
0.0
 11
8417615.2814881
 21
5761195.317182527
 31
0.0
 12
8417615.177521762
 22
5761195.167212528
 32
0.0
 13
8417615.177521762
 23
5761195.167212528
 33
0.0
  0
MTEXT
  5
430
330
428
100
AcDbEntity
  8
instalacja gazowa
  6
Continuous
 62
     0
100
AcDbMText
 10
8417620.46006403
 20
5761206.358073626
 30
0.0
 40
0.18
 41
0.0
 46
0.0
 71
     5
 72
     1
  1
\A1;24.7500
 73
     1
 44
1.0
  0
POINT
  5
431
330
428
100
AcDbEntity
  8
Defpoints
  6
Continuous
 62
     0
100
AcDbPoint
 10
8417630.003282889
 20
5761215.537721827
 30
0.0
  0
POINT
  5
432
330
428
100
AcDbEntity
  8
Defpoints
  6
Continuous
 62
     0
100
AcDbPoint
 10
8417619.438198348
 20
5761193.155999632
 30
0.0
  0
POINT
  5
433
330
428
100
AcDbEntity
  8
Defpoints
  6
Continuous
 62
     0
100
AcDbPoint
 10
8417615.177521762
 20
5761195.167212528
 30
0.0
  0
ENDBLK
  5
434
330
428
100
AcDbEntity
  8
instalacja gazowa
  6
Continuous
100
AcDbBlockEnd
  0
BLOCK
  5
437
330
436
100
AcDbEntity
  8
instalacja gazowa
  6
Continuous
100
AcDbBlockBegin
  2
*D21
 70
     1
 10
0.0
 20
0.0
 30
0.0
  3
*D21
  1

  0
LINE
  5
438
330
436
100
AcDbEntity
  8
instalacja gazowa
  6
Continuous
 62
     0
370
    -2
100
AcDbLine
 10
8417619.411518842
 20
5761193.099480131
 30
0.0
 11
8417618.406531513
 21
5761190.970453419
 31
0.0
  0
LINE
  5
439
330
436
100
AcDbEntity
  8
instalacja gazowa
  6
Continuous
 62
     0
370
    -2
100
AcDbLine
 10
8417626.646014909
 20
5761189.68450331
 30
0.0
 11
8417625.641027578
 21
5761187.555476599
 31
0.0
  0
LINE
  5
43A
330
436
100
AcDbEntity
  8
instalacja gazowa
  6
Continuous
 62
     0
370
    -2
100
AcDbLine
 10
8417619.102897802
 20
5761192.024006451
 30
0.0
 11
8417622.17604665
 21
5761190.573355019
 31
0.0
  0
LINE
  5
43B
330
436
100
AcDbEntity
  8
instalacja gazowa
  6
Continuous
 62
     0
370
    -2
100
AcDbLine
 10
8417626.011841546
 20
5761188.762703588
 30
0.0
 11
8417622.938692698
 21
5761190.213355019
 31
0.0
  0
SOLID
  5
43C
330
436
100
AcDbEntity
  8
instalacja gazowa
  6
Continuous
 62
     0
100
AcDbTrace
 10
8417619.115703965
 20
5761192.051135812
 30
0.0
 11
8417619.09009164
 21
5761191.996877092
 31
0.0
 12
8417618.940121641
 22
5761192.100843429
 32
0.0
 13
8417618.940121641
 23
5761192.100843429
 33
0.0
  0
SOLID
  5
43D
330
436
100
AcDbEntity
  8
instalacja gazowa
  6
Continuous
 62
     0
100
AcDbTrace
 10
8417625.999035385
 20
5761188.735574227
 30
0.0
 11
8417626.024647709
 21
5761188.789832949
 31
0.0
 12
8417626.174617707
 22
5761188.685866609
 32
0.0
 13
8417626.174617707
 23
5761188.685866609
 33
0.0
  0
MTEXT
  5
43E
330
436
100
AcDbEntity
  8
instalacja gazowa
  6
Continuous
 62
     0
100
AcDbMText
 10
8417622.557369677
 20
5761190.393355019
 30
0.0
 40
0.18
 41
0.0
 46
0.0
 71
     5
 72
     1
  1
\A1;8.0000
 73
     1
 44
1.0
  0
POINT
  5
43F
330
436
100
AcDbEntity
  8
Defpoints
  6
Continuous
 62
     0
100
AcDbPoint
 10
8417619.438198348
 20
5761193.155999632
 30
0.0
  0
POINT
  5
440
330
436
100
AcDbEntity
  8
Defpoints
  6
Continuous
 62
     0
100
AcDbPoint
 10
8417626.672694416
 20
5761189.741022811
 30
0.0
  0
POINT
  5
441
330
436
100
AcDbEntity
  8
Defpoints
  6
Continuous
 62
     0
100
AcDbPoint
 10
8417626.174617707
 20
5761188.685866609
 30
0.0
  0
ENDBLK
  5
442
330
436
100
AcDbEntity
  8
instalacja gazowa
  6
Continuous
100
AcDbBlockEnd
  0
BLOCK
  5
445
330
444
100
AcDbEntity
  8
instalacja gazowa
  6
Continuous
100
AcDbBlockBegin
  2
*D22
 70
     1
 10
0.0
 20
0.0
 30
0.0
  3
*D22
  1

  0
LINE
  5
446
330
444
100
AcDbEntity
  8
instalacja gazowa
  6
Continuous
 62
     0
370
    -2
100
AcDbLine
 10
8417617.735482791
 20
5761186.144389417
 30
0.0
 11
8417619.171784521
 21
5761185.754463544
 31
0.0
  0
LINE
  5
447
330
444
100
AcDbEntity
  8
instalacja gazowa
  6
Continuous
 62
     0
370
    -2
100
AcDbLine
 10
8417619.818669232
 20
5761193.817858886
 30
0.0
 11
8417621.254970962
 21
5761193.427933014
 31
0.0
  0
LINE
  5
448
330
444
100
AcDbEntity
  8
instalacja gazowa
  6
Continuous
 62
     0
370
    -2
100
AcDbLine
 10
8417618.012607617
 20
5761186.255670993
 30
0.0
 11
8417618.958175319
 21
5761189.738693318
 31
0.0
  0
LINE
  5
449
330
444
100
AcDbEntity
  8
instalacja gazowa
  6
Continuous
 62
     0
370
    -2
100
AcDbLine
 10
8417620.001475487
 20
5761193.581715643
 30
0.0
 11
8417619.055907787
 21
5761190.098693317
 31
0.0
  0
SOLID
  5
44A
330
444
100
AcDbEntity
  8
instalacja gazowa
  6
Continuous
 62
     0
100
AcDbTrace
 10
8417617.983655549
 20
5761186.263530874
 30
0.0
 11
8417618.041559686
 21
5761186.247811113
 31
0.0
 12
8417617.96544833
 22
5761186.081958583
 32
0.0
 13
8417617.96544833
 23
5761186.081958583
 33
0.0
  0
SOLID
  5
44B
330
444
100
AcDbEntity
  8
instalacja gazowa
  6
Continuous
 62
     0
100
AcDbTrace
 10
8417620.030427555
 20
5761193.573855762
 30
0.0
 11
8417619.97252342
 21
5761193.589575523
 31
0.0
 12
8417620.048634773
 22
5761193.755428053
 32
0.0
 13
8417620.048634773
 23
5761193.755428053
 33
0.0
  0
MTEXT
  5
44C
330
444
100
AcDbEntity
  8
instalacja gazowa
  6
Continuous
 62
     0
100
AcDbMText
 10
8417619.007041551
 20
5761189.918693317
 30
0.0
 40
0.18
 41
0.0
 46
0.0
 71
     5
 72
     1
  1
\A1;7.9512
 73
     1
 44
1.0
  0
POINT
  5
44D
330
444
100
AcDbEntity
  8
Defpoints
  6
Continuous
 62
     0
100
AcDbPoint
 10
8417617.675165981
 20
5761186.160764168
 30
0.0
  0
POINT
  5
44E
330
444
100
AcDbEntity
  8
Defpoints
  6
Continuous
 62
     0
100
AcDbPoint
 10
8417619.758352422
 20
5761193.834233639
 30
0.0
  0
POINT
  5
44F
330
444
100
AcDbEntity
  8
Defpoints
  6
Continuous
 62
     0
100
AcDbPoint
 10
8417620.048634773
 20
5761193.755428053
 30
0.0
  0
ENDBLK
  5
450
330
444
100
AcDbEntity
  8
instalacja gazowa
  6
Continuous
100
AcDbBlockEnd
  0
BLOCK
  5
453
330
452
100
AcDbEntity
  8
instalacja gazowa
  6
Continuous
100
AcDbBlockBegin
  2
*D23
 70
     1
 10
0.0
 20
0.0
 30
0.0
  3
*D23
  1

  0
LINE
  5
454
330
452
100
AcDbEntity
  8
instalacja gazowa
  6
Continuous
 62
     0
370
    -2
100
AcDbLine
 10
8417617.7011459
 20
5761186.103919642
 30
0.0
 11
8417618.197413979
 21
5761185.018073498
 31
0.0
  0
LINE
  5
455
330
452
100
AcDbEntity
  8
instalacja gazowa
  6
Continuous
 62
     0
370
    -2
100
AcDbLine
 10
8417627.018828333
 20
5761190.362412313
 30
0.0
 11
8417627.515096413
 21
5761189.276566169
 31
0.0
  0
LINE
  5
456
330
452
100
AcDbEntity
  8
instalacja gazowa
  6
Continuous
 62
     0
370
    -2
100
AcDbLine
 10
8417617.841529283
 20
5761186.229785537
 30
0.0
 11
8417621.942814074
 21
5761188.10420993
 31
0.0
  0
LINE
  5
457
330
452
100
AcDbEntity
  8
instalacja gazowa
  6
Continuous
 62
     0
370
    -2
100
AcDbLine
 10
8417626.831787361
 20
5761190.338634321
 30
0.0
 11
8417622.730502568
 21
5761188.464209928
 31
0.0
  0
SOLID
  5
458
330
452
100
AcDbEntity
  8
instalacja gazowa
  6
Continuous
 62
     0
100
AcDbTrace
 10
8417617.829058958
 20
5761186.2570709
 30
0.0
 11
8417617.853999605
 21
5761186.202500176
 31
0.0
 12
8417617.677817103
 22
5761186.154963594
 32
0.0
 13
8417617.677817103
 23
5761186.154963594
 33
0.0
  0
SOLID
  5
459
330
452
100
AcDbEntity
  8
instalacja gazowa
  6
Continuous
 62
     0
100
AcDbTrace
 10
8417626.844257684
 20
5761190.311348959
 30
0.0
 11
8417626.819317037
 21
5761190.365919684
 31
0.0
 12
8417626.995499539
 22
5761190.413456265
 32
0.0
 13
8417626.995499539
 23
5761190.413456265
 33
0.0
  0
MTEXT
  5
45A
330
452
100
AcDbEntity
  8
instalacja gazowa
  6
Continuous
 62
     0
100
AcDbMText
 10
8417622.336658322
 20
5761188.284209929
 30
0.0
 40
0.18
 41
0.0
 46
0.0
 71
     5
 72
     1
  1
\A1;10.2447
 73
     1
 44
1.0
  0
POINT
  5
45B
330
452
100
AcDbEntity
  8
Defpoints
  6
Continuous
 62
     0
100
AcDbPoint
 10
8417617.675166058
 20
5761186.160764147
 30
0.0
  0
POINT
  5
45C
330
452
100
AcDbEntity
  8
Defpoints
  6
Continuous
 62
     0
100
AcDbPoint
 10
8417626.992848491
 20
5761190.419256818
 30
0.0
  0
POINT
  5
45D
330
452
100
AcDbEntity
  8
Defpoints
  6
Continuous
 62
     0
100
AcDbPoint
 10
8417626.995499539
 20
5761190.413456265
 30
0.0
  0
ENDBLK
  5
45E
330
452
100
AcDbEntity
  8
instalacja gazowa
  6
Continuous
100
AcDbBlockEnd
  0
BLOCK
  5
461
330
460
100
AcDbEntity
  8
instalacja gazowa
  6
Continuous
100
AcDbBlockBegin
  2
*D24
 70
     1
 10
0.0
 20
0.0
 30
0.0
  3
*D24
  1

  0
LINE
  5
462
330
460
100
AcDbEntity
  8
instalacja gazowa
  6
Continuous
 62
     0
370
    -2
100
AcDbLine
 10
8417625.666635396
 20
5761184.021875725
 30
0.0
 11
8417624.635749078
 21
5761181.837983008
 31
0.0
  0
LINE
  5
463
330
460
100
AcDbEntity
  8
instalacja gazowa
  6
Continuous
 62
     0
370
    -2
100
AcDbLine
 10
8417632.901131456
 20
5761180.606898907
 30
0.0
 11
8417631.870245138
 21
5761178.423006189
 31
0.0
  0
LINE
  5
464
330
460
100
AcDbEntity
  8
instalacja gazowa
  6
Continuous
 62
     0
370
    -2
100
AcDbLine
 10
8417625.332115367
 20
5761182.89153604
 30
0.0
 11
8417628.405264212
 21
5761181.440884607
 31
0.0
  0
LINE
  5
465
330
460
100
AcDbEntity
  8
instalacja gazowa
  6
Continuous
 62
     0
370
    -2
100
AcDbLine
 10
8417632.241059106
 20
5761179.630233177
 30
0.0
 11
8417629.167910261
 21
5761181.080884608
 31
0.0
  0
SOLID
  5
466
330
460
100
AcDbEntity
  8
instalacja gazowa
  6
Continuous
 62
     0
100
AcDbTrace
 10
8417625.34492153
 20
5761182.918665399
 30
0.0
 11
8417625.319309205
 21
5761182.864406679
 31
0.0
 12
8417625.169339206
 22
5761182.968373017
 32
0.0
 13
8417625.169339206
 23
5761182.968373017
 33
0.0
  0
SOLID
  5
467
330
460
100
AcDbEntity
  8
instalacja gazowa
  6
Continuous
 62
     0
100
AcDbTrace
 10
8417632.228252944
 20
5761179.603103816
 30
0.0
 11
8417632.253865269
 21
5761179.657362537
 31
0.0
 12
8417632.403835266
 22
5761179.553396199
 32
0.0
 13
8417632.403835266
 23
5761179.553396199
 33
0.0
  0
MTEXT
  5
468
330
460
100
AcDbEntity
  8
instalacja gazowa
  6
Continuous
 62
     0
100
AcDbMText
 10
8417628.786587236
 20
5761181.260884608
 30
0.0
 40
0.18
 41
0.0
 46
0.0
 71
     5
 72
     1
  1
\A1;8.0000
 73
     1
 44
1.0
  0
POINT
  5
469
330
460
100
AcDbEntity
  8
Defpoints
  6
Continuous
 62
     0
100
AcDbPoint
 10
8417625.693314903
 20
5761184.078395226
 30
0.0
  0
POINT
  5
46A
330
460
100
AcDbEntity
  8
Defpoints
  6
Continuous
 62
     0
100
AcDbPoint
 10
8417632.927810963
 20
5761180.663418407
 30
0.0
  0
POINT
  5
46B
330
460
100
AcDbEntity
  8
Defpoints
  6
Continuous
 62
     0
100
AcDbPoint
 10
8417632.403835266
 20
5761179.553396199
 30
0.0
  0
ENDBLK
  5
46C
330
460
100
AcDbEntity
  8
instalacja gazowa
  6
Continuous
100
AcDbBlockEnd
  0
BLOCK
  5
46F
330
46E
100
AcDbEntity
  8
instalacja gazowa
  6
Continuous
100
AcDbBlockBegin
  2
*D25
 70
     1
 10
0.0
 20
0.0
 30
0.0
  3
*D25
  1

  0
LINE
  5
470
330
46E
100
AcDbEntity
  8
instalacja gazowa
  6
Continuous
 62
     0
370
    -2
100
AcDbLine
 10
8417639.723574781
 20
5761213.947370992
 30
0.0
 11
8417637.950801914
 21
5761214.784191995
 31
0.0
  0
LINE
  5
471
330
46E
100
AcDbEntity
  8
instalacja gazowa
  6
Continuous
 62
     0
370
    -2
100
AcDbLine
 10
8417625.636795403
 20
5761184.105074732
 30
0.0
 11
8417623.864022534
 21
5761184.941895735
 31
0.0
  0
LINE
  5
472
330
46E
100
AcDbEntity
  8
instalacja gazowa
  6
Continuous
 62
     0
370
    -2
100
AcDbLine
 10
8417639.004354946
 20
5761214.087825704
 30
0.0
 11
8417632.122769566
 21
5761199.509453736
 31
0.0
  0
LINE
  5
473
330
46E
100
AcDbEntity
  8
instalacja gazowa
  6
Continuous
 62
     0
370
    -2
100
AcDbLine
 10
8417625.071249524
 20
5761184.571081769
 30
0.0
 11
8417631.952834904
 21
5761199.149453736
 31
0.0
  0
SOLID
  5
474
330
46E
100
AcDbEntity
  8
instalacja gazowa
  6
Continuous
 62
     0
100
AcDbTrace
 10
8417639.031484306
 20
5761214.075019542
 30
0.0
 11
8417638.977225587
 21
5761214.100631868
 31
0.0
 12
8417639.081191925
 22
5761214.250601866
 32
0.0
 13
8417639.081191925
 23
5761214.250601866
 33
0.0
  0
SOLID
  5
475
330
46E
100
AcDbEntity
  8
instalacja gazowa
  6
Continuous
 62
     0
100
AcDbTrace
 10
8417625.044120164
 20
5761184.583887931
 30
0.0
 11
8417625.098378884
 21
5761184.558275606
 31
0.0
 12
8417624.994412545
 22
5761184.408305608
 32
0.0
 13
8417624.994412545
 23
5761184.408305608
 33
0.0
  0
MTEXT
  5
476
330
46E
100
AcDbEntity
  8
instalacja gazowa
  6
Continuous
 62
     0
100
AcDbMText
 10
8417632.037802233
 20
5761199.329453736
 30
0.0
 40
0.18
 41
0.0
 46
0.0
 71
     5
 72
     1
  1
\A1;33.0000
 73
     1
 44
1.0
  0
POINT
  5
477
330
46E
100
AcDbEntity
  8
Defpoints
  6
Continuous
 62
     0
100
AcDbPoint
 10
8417639.780094283
 20
5761213.920691485
 30
0.0
  0
POINT
  5
478
330
46E
100
AcDbEntity
  8
Defpoints
  6
Continuous
 62
     0
100
AcDbPoint
 10
8417625.693314903
 20
5761184.078395226
 30
0.0
  0
POINT
  5
479
330
46E
100
AcDbEntity
  8
Defpoints
  6
Continuous
 62
     0
100
AcDbPoint
 10
8417624.994412545
 20
5761184.408305608
 30
0.0
  0
ENDBLK
  5
47A
330
46E
100
AcDbEntity
  8
instalacja gazowa
  6
Continuous
100
AcDbBlockEnd
  0
BLOCK
  5
47D
330
47C
100
AcDbEntity
  8
instalacja gazowa
  6
Continuous
100
AcDbBlockBegin
  2
*D26
 70
     1
 10
0.0
 20
0.0
 30
0.0
  3
*D26
  1

  0
LINE
  5
47E
330
47C
100
AcDbEntity
  8
instalacja gazowa
  6
Continuous
 62
     0
370
    -2
100
AcDbLine
 10
8417626.699373922
 20
5761189.797542312
 30
0.0
 11
8417627.206284542
 21
5761190.871412821
 31
0.0
  0
LINE
  5
47F
330
47C
100
AcDbEntity
  8
instalacja gazowa
  6
Continuous
 62
     0
370
    -2
100
AcDbLine
 10
8417628.084375769
 20
5761189.143765027
 30
0.0
 11
8417628.591286389
 21
5761190.217635535
 31
0.0
  0
LINE
  5
480
330
47C
100
AcDbEntity
  8
instalacja gazowa
  6
Continuous
 62
     0
370
    -2
100
AcDbLine
 10
8417626.835470576
 20
5761189.664185831
 30
0.0
 11
8417626.983872313
 21
5761189.594134167
 31
0.0
  0
LINE
  5
481
330
47C
100
AcDbEntity
  8
instalacja gazowa
  6
Continuous
 62
     0
370
    -2
100
AcDbLine
 10
8417627.894920101
 20
5761189.164082502
 30
0.0
 11
8417627.746518363
 21
5761189.234134167
 31
0.0
  0
SOLID
  5
482
330
47C
100
AcDbEntity
  8
instalacja gazowa
  6
Continuous
 62
     0
100
AcDbTrace
 10
8417626.848276738
 20
5761189.691315191
 30
0.0
 11
8417626.822664413
 21
5761189.637056471
 31
0.0
 12
8417626.672694416
 22
5761189.74102281
 32
0.0
 13
8417626.672694416
 23
5761189.74102281
 33
0.0
  0
SOLID
  5
483
330
47C
100
AcDbEntity
  8
instalacja gazowa
  6
Continuous
 62
     0
100
AcDbTrace
 10
8417627.88211394
 20
5761189.136953142
 30
0.0
 11
8417627.907726265
 21
5761189.191211863
 31
0.0
 12
8417628.057696262
 22
5761189.087245524
 32
0.0
 13
8417628.057696262
 23
5761189.087245524
 33
0.0
  0
MTEXT
  5
484
330
47C
100
AcDbEntity
  8
instalacja gazowa
  6
Continuous
 62
     0
100
AcDbMText
 10
8417627.365195338
 20
5761189.414134167
 30
0.0
 40
0.18
 41
0.0
 46
0.0
 71
     5
 72
     1
  1
\A1;1.5316
 73
     1
 44
1.0
  0
POINT
  5
485
330
47C
100
AcDbEntity
  8
Defpoints
  6
Continuous
 62
     0
100
AcDbPoint
 10
8417626.672694416
 20
5761189.741022811
 30
0.0
  0
POINT
  5
486
330
47C
100
AcDbEntity
  8
Defpoints
  6
Continuous
 62
     0
100
AcDbPoint
 10
8417628.057696262
 20
5761189.087245526
 30
0.0
  0
POINT
  5
487
330
47C
100
AcDbEntity
  8
Defpoints
  6
Continuous
 62
     0
100
AcDbPoint
 10
8417628.057696262
 20
5761189.087245524
 30
0.0
  0
ENDBLK
  5
488
330
47C
100
AcDbEntity
  8
instalacja gazowa
  6
Continuous
100
AcDbBlockEnd
  0
BLOCK
  5
48E
330
48D
100
AcDbEntity
  8
_OBRYS_POD_ZB
  6
Continuous
100
AcDbBlockBegin
  2
*D27
 70
     1
 10
0.0
 20
0.0
 30
0.0
  3
*D27
  1

  0
LINE
  5
48F
330
48D
100
AcDbEntity
  8
instalacja gazowa
  6
Continuous
 62
     0
370
    -2
100
AcDbLine
 10
8417639.678451905
 20
5761194.96250387
 30
0.0
 11
8417640.258409265
 21
5761196.15185762
 31
0.0
  0
LINE
  5
490
330
48D
100
AcDbEntity
  8
instalacja gazowa
  6
Continuous
 62
     0
370
    -2
100
AcDbLine
 10
8417641.026643138
 20
5761194.305093551
 30
0.0
 11
8417641.606600499
 21
5761195.494447301
 31
0.0
  0
LINE
  5
491
330
48D
100
AcDbEntity
  8
instalacja gazowa
  6
Continuous
 62
     0
370
    -2
100
AcDbLine
 10
8417639.872333801
 20
5761194.949424365
 30
0.0
 11
8417640.015502641
 21
5761194.879611811
 31
0.0
  0
LINE
  5
492
330
48D
100
AcDbEntity
  8
instalacja gazowa
  6
Continuous
 62
     0
370
    -2
100
AcDbLine
 10
8417640.896945327
 20
5761194.449799257
 30
0.0
 11
8417640.753776485
 21
5761194.519611811
 31
0.0
  0
SOLID
  5
493
330
48D
100
AcDbEntity
  8
instalacja gazowa
  6
Continuous
 62
     0
100
AcDbTrace
 10
8417639.885482568
 20
5761194.97638934
 30
0.0
 11
8417639.859185033
 21
5761194.922459388
 31
0.0
 12
8417639.710543948
 22
5761195.028316969
 32
0.0
 13
8417639.710543948
 23
5761195.028316969
 33
0.0
  0
SOLID
  5
494
330
48D
100
AcDbEntity
  8
instalacja gazowa
  6
Continuous
 62
     0
100
AcDbTrace
 10
8417640.883796559
 20
5761194.422834281
 30
0.0
 11
8417640.910094094
 21
5761194.476764232
 31
0.0
 12
8417641.058735181
 22
5761194.37090665
 32
0.0
 13
8417641.058735181
 23
5761194.37090665
 33
0.0
  0
MTEXT
  5
495
330
48D
100
AcDbEntity
  8
instalacja gazowa
  6
Continuous
 62
     0
100
AcDbMText
 10
8417640.384639565
 20
5761194.699611811
 30
0.0
 40
0.18
 41
0.0
 46
0.0
 71
     5
 72
     1
  1
\A1;1.4999
 73
     1
 44
1.0
  0
POINT
  5
496
330
48D
100
AcDbEntity
  8
Defpoints
  6
Continuous
 62
     0
100
AcDbPoint
 10
8417639.651058639
 20
5761194.906326838
 30
0.0
  0
POINT
  5
497
330
48D
100
AcDbEntity
  8
Defpoints
  6
Continuous
 62
     0
100
AcDbPoint
 10
8417640.999249872
 20
5761194.248916519
 30
0.0
  0
POINT
  5
498
330
48D
100
AcDbEntity
  8
Defpoints
  6
Continuous
 62
     0
100
AcDbPoint
 10
8417641.058735181
 20
5761194.37090665
 30
0.0
  0
ENDBLK
  5
499
330
48D
100
AcDbEntity
  8
_OBRYS_POD_ZB
  6
Continuous
100
AcDbBlockEnd
  0
BLOCK
  5
49C
330
49B
100
AcDbEntity
  8
_OBRYS_POD_ZB
  6
Continuous
100
AcDbBlockBegin
  2
*D28
 70
     1
 10
0.0
 20
0.0
 30
0.0
  3
*D28
  1

  0
LINE
  5
49D
330
49B
100
AcDbEntity
  8
_OBRYS_POD_ZB
  6
Continuous
 62
     0
370
    -2
100
AcDbLine
 10
8417631.074410033
 20
5761199.066928846
 30
0.0
 11
8417631.681461386
 21
5761200.377018221
 31
0.0
  0
LINE
  5
49E
330
49B
100
AcDbEntity
  8
_OBRYS_POD_ZB
  6
Continuous
 62
     0
370
    -2
100
AcDbLine
 10
8417632.464065171
 20
5761198.423009396
 30
0.0
 11
8417633.071116524
 21
5761199.733098772
 31
0.0
  0
LINE
  5
49F
330
49B
100
AcDbEntity
  8
_OBRYS_POD_ZB
  6
Continuous
 62
     0
370
    -2
100
AcDbLine
 10
8417631.319249103
 20
5761199.167182589
 30
0.0
 11
8417631.462296242
 21
5761199.100899355
 31
0.0
  0
LINE
  5
4A0
330
49B
100
AcDbEntity
  8
_OBRYS_POD_ZB
  6
Continuous
 62
     0
370
    -2
100
AcDbLine
 10
8417632.382266406
 20
5761198.674616123
 30
0.0
 11
8417632.239219269
 21
5761198.740899356
 31
0.0
  0
SOLID
  5
4A1
330
49B
100
AcDbEntity
  8
_OBRYS_POD_ZB
  6
Continuous
 62
     0
100
AcDbTrace
 10
8417631.331861851
 20
5761199.194402409
 30
0.0
 11
8417631.306636355
 21
5761199.139962769
 31
0.0
 12
8417631.155930186
 22
5761199.242859081
 32
0.0
 13
8417631.155930186
 23
5761199.242859081
 33
0.0
  0
SOLID
  5
4A2
330
49B
100
AcDbEntity
  8
_OBRYS_POD_ZB
  6
Continuous
 62
     0
100
AcDbTrace
 10
8417632.369653658
 20
5761198.647396304
 30
0.0
 11
8417632.394879154
 21
5761198.701835943
 31
0.0
 12
8417632.545585323
 22
5761198.598939631
 32
0.0
 13
8417632.545585323
 23
5761198.598939631
 33
0.0
  0
MTEXT
  5
4A3
330
49B
100
AcDbEntity
  8
_OBRYS_POD_ZB
  6
Continuous
 62
     0
100
AcDbMText
 10
8417631.850757755
 20
5761198.920899357
 30
0.0
 40
0.18
 41
0.0
 46
0.0
 71
     5
 72
     1
  1
\A1;1.5316
 73
     1
 44
1.0
  0
POINT
  5
4A4
330
49B
100
AcDbEntity
  8
Defpoints
  6
Continuous
 62
     0
100
AcDbPoint
 10
8417631.048133472
 20
5761199.01022089
 30
0.0
  0
POINT
  5
4A5
330
49B
100
AcDbEntity
  8
Defpoints
  6
Continuous
 62
     0
100
AcDbPoint
 10
8417632.43778861
 20
5761198.36630144
 30
0.0
  0
POINT
  5
4A6
330
49B
100
AcDbEntity
  8
Defpoints
  6
Continuous
 62
     0
100
AcDbPoint
 10
8417632.545585323
 20
5761198.598939631
 30
0.0
  0
ENDBLK
  5
4A7
330
49B
100
AcDbEntity
  8
_OBRYS_POD_ZB
  6
Continuous
100
AcDbBlockEnd
  0
BLOCK
  5
4AA
330
4A9
100
AcDbEntity
  8
_OBRYS_POD_ZB
  6
Continuous
100
AcDbBlockBegin
  2
*D29
 70
     1
 10
0.0
 20
0.0
 30
0.0
  3
*D29
  1

  0
LINE
  5
4AB
330
4A9
100
AcDbEntity
  8
instalacja gazowa
  6
Continuous
 62
     0
370
    -2
100
AcDbLine
 10
8417648.273595677
 20
5761191.209392869
 30
0.0
 11
8417648.777954921
 21
5761192.286008884
 31
0.0
  0
LINE
  5
4AC
330
4A9
100
AcDbEntity
  8
instalacja gazowa
  6
Continuous
 62
     0
370
    -2
100
AcDbLine
 10
8417649.621855703
 20
5761190.577777056
 30
0.0
 11
8417650.126214947
 21
5761191.65439307
 31
0.0
  0
LINE
  5
4AD
330
4A9
100
AcDbEntity
  8
instalacja gazowa
  6
Continuous
 62
     0
370
    -2
100
AcDbLine
 10
8417648.410675388
 20
5761191.077701879
 30
0.0
 11
8417648.537573413
 21
5761191.018254296
 31
0.0
  0
LINE
  5
4AE
330
4A9
100
AcDbEntity
  8
instalacja gazowa
  6
Continuous
 62
     0
370
    -2
100
AcDbLine
 10
8417649.432934794
 20
5761190.598806714
 30
0.0
 11
8417649.30603677
 21
5761190.658254296
 31
0.0
  0
SOLID
  5
4AF
330
4A9
100
AcDbEntity
  8
instalacja gazowa
  6
Continuous
 62
     0
100
AcDbTrace
 10
8417648.423402109
 20
5761191.104868597
 30
0.0
 11
8417648.397948667
 21
5761191.05053516
 31
0.0
 12
8417648.247675078
 22
5761191.154062203
 32
0.0
 13
8417648.247675078
 23
5761191.154062203
 33
0.0
  0
SOLID
  5
4B0
330
4A9
100
AcDbEntity
  8
instalacja gazowa
  6
Continuous
 62
     0
100
AcDbTrace
 10
8417649.420208075
 20
5761190.571639994
 30
0.0
 11
8417649.445661515
 21
5761190.625973433
 31
0.0
 12
8417649.595935104
 22
5761190.52244639
 32
0.0
 13
8417649.595935104
 23
5761190.52244639
 33
0.0
  0
MTEXT
  5
4B1
330
4A9
100
AcDbEntity
  8
instalacja gazowa
  6
Continuous
 62
     0
100
AcDbMText
 10
8417648.921805092
 20
5761190.838254297
 30
0.0
 40
0.18
 41
0.0
 46
0.0
 71
     5
 72
     1
  1
\A1;1.4889
 73
     1
 44
1.0
  0
POINT
  5
4B2
330
4A9
100
AcDbEntity
  8
Defpoints
  6
Continuous
 62
     0
100
AcDbPoint
 10
8417648.247081686
 20
5761191.152795536
 30
0.0
  0
POINT
  5
4B3
330
4A9
100
AcDbEntity
  8
Defpoints
  6
Continuous
 62
     0
100
AcDbPoint
 10
8417649.595341712
 20
5761190.521179721
 30
0.0
  0
POINT
  5
4B4
330
4A9
100
AcDbEntity
  8
Defpoints
  6
Continuous
 62
     0
100
AcDbPoint
 10
8417649.595935104
 20
5761190.52244639
 30
0.0
  0
ENDBLK
  5
4B5
330
4A9
100
AcDbEntity
  8
_OBRYS_POD_ZB
  6
Continuous
100
AcDbBlockEnd
  0
BLOCK
  5
4B8
330
4B7
100
AcDbEntity
  8
_OBRYS_POD_ZB
  6
Continuous
100
AcDbBlockBegin
  2
*D30
 70
     1
 10
0.0
 20
0.0
 30
0.0
  3
*D30
  1

  0
LINE
  5
4B9
330
4B7
100
AcDbEntity
  8
_OBRYS_POD_ZB
  6
Continuous
 62
     0
370
    -2
100
AcDbLine
 10
8417654.201199818
 20
5761203.474569153
 30
0.0
 11
8417653.69959544
 21
5761202.398209758
 31
0.0
  0
LINE
  5
4BA
330
4B7
100
AcDbEntity
  8
_OBRYS_POD_ZB
  6
Continuous
 62
     0
370
    -2
100
AcDbLine
 10
8417655.289666168
 20
5761202.960768806
 30
0.0
 11
8417654.78806179
 21
5761201.884409409
 31
0.0
  0
LINE
  5
4BB
330
4B7
100
AcDbEntity
  8
_OBRYS_POD_ZB
  6
Continuous
 62
     0
370
    -2
100
AcDbLine
 10
8417654.064823834
 20
5761203.608056513
 30
0.0
 11
8417653.902047666
 21
5761203.68489348
 31
0.0
  0
LINE
  5
4BC
330
4B7
100
AcDbEntity
  8
_OBRYS_POD_ZB
  6
Continuous
 62
     0
370
    -2
100
AcDbLine
 10
8417655.478842521
 20
5761202.940582234
 30
0.0
 11
8417655.64161869
 21
5761202.863745268
 31
0.0
  0
SOLID
  5
4BD
330
4B7
100
AcDbEntity
  8
_OBRYS_POD_ZB
  6
Continuous
 62
     0
100
AcDbTrace
 10
8417654.052017674
 20
5761203.580927152
 30
0.0
 11
8417654.077629995
 21
5761203.635185875
 31
0.0
 12
8417654.227600003
 22
5761203.531219547
 32
0.0
 13
8417654.227600003
 23
5761203.531219547
 33
0.0
  0
SOLID
  5
4BE
330
4B7
100
AcDbEntity
  8
_OBRYS_POD_ZB
  6
Continuous
 62
     0
100
AcDbTrace
 10
8417655.491648682
 20
5761202.967711595
 30
0.0
 11
8417655.466036361
 21
5761202.913452872
 31
0.0
 12
8417655.316066353
 22
5761203.0174192
 32
0.0
 13
8417655.316066353
 23
5761203.0174192
 33
0.0
  0
MTEXT
  5
4BF
330
4B7
100
AcDbEntity
  8
_OBRYS_POD_ZB
  6
Continuous
 62
     0
100
AcDbMText
 10
8417654.771833177
 20
5761203.274319373
 30
0.0
 40
0.18
 41
0.0
 46
0.0
 71
     5
 72
     1
  1
\A1;1.2036
 73
     1
 44
1.0
  0
POINT
  5
4C0
330
4B7
100
AcDbEntity
  8
Defpoints
  6
Continuous
 62
     0
100
AcDbPoint
 10
8417654.227600047
 20
5761203.531219644
 30
0.0
  0
POINT
  5
4C1
330
4B7
100
AcDbEntity
  8
Defpoints
  6
Continuous
 62
     0
100
AcDbPoint
 10
8417655.316066397
 20
5761203.017419295
 30
0.0
  0
POINT
  5
4C2
330
4B7
100
AcDbEntity
  8
Defpoints
  6
Continuous
 62
     0
100
AcDbPoint
 10
8417655.316066353
 20
5761203.0174192
 30
0.0
  0
ENDBLK
  5
4C3
330
4B7
100
AcDbEntity
  8
_OBRYS_POD_ZB
  6
Continuous
100
AcDbBlockEnd
  0
BLOCK
  5
4C6
330
4C5
100
AcDbEntity
  8
_OBRYS_POD_ZB
  6
Continuous
100
AcDbBlockBegin
  2
*D31
 70
     1
 10
0.0
 20
0.0
 30
0.0
  3
*D31
  1

  0
LINE
  5
4C7
330
4C5
100
AcDbEntity
  8
instalacja gazowa
  6
Continuous
 62
     0
370
    -2
100
AcDbLine
 10
8417648.697431905
 20
5761210.703163003
 30
0.0
 11
8417647.091093867
 21
5761211.461419988
 31
0.0
  0
LINE
  5
4C8
330
4C5
100
AcDbEntity
  8
instalacja gazowa
  6
Continuous
 62
     0
370
    -2
100
AcDbLine
 10
8417631.088957678
 20
5761173.400292672
 30
0.0
 11
8417629.48261964
 21
5761174.158549659
 31
0.0
  0
LINE
  5
4C9
330
4C5
100
AcDbEntity
  8
instalacja gazowa
  6
Continuous
 62
     0
370
    -2
100
AcDbLine
 10
8417648.144646896
 20
5761210.765053699
 30
0.0
 11
8417639.502214093
 21
5761192.456394694
 31
0.0
  0
LINE
  5
4CA
330
4C5
100
AcDbEntity
  8
instalacja gazowa
  6
Continuous
 62
     0
370
    -2
100
AcDbLine
 10
8417630.689846628
 20
5761173.787735692
 30
0.0
 11
8417639.332279431
 21
5761192.096394695
 31
0.0
  0
SOLID
  5
4CB
330
4C5
100
AcDbEntity
  8
instalacja gazowa
  6
Continuous
 62
     0
100
AcDbTrace
 10
8417648.171776255
 20
5761210.752247535
 30
0.0
 11
8417648.117517536
 21
5761210.777859862
 31
0.0
 12
8417648.221483876
 22
5761210.927829861
 32
0.0
 13
8417648.221483876
 23
5761210.927829861
 33
0.0
  0
SOLID
  5
4CC
330
4C5
100
AcDbEntity
  8
instalacja gazowa
  6
Continuous
 62
     0
100
AcDbTrace
 10
8417630.662717268
 20
5761173.800541854
 30
0.0
 11
8417630.716975988
 21
5761173.774929528
 31
0.0
 12
8417630.613009649
 22
5761173.624959529
 32
0.0
 13
8417630.613009649
 23
5761173.624959529
 33
0.0
  0
MTEXT
  5
4CD
330
4C5
100
AcDbEntity
  8
instalacja gazowa
  6
Continuous
 62
     0
100
AcDbMText
 10
8417639.417246762
 20
5761192.276394694
 30
0.0
 40
0.18
 41
0.0
 46
0.0
 71
     5
 72
     1
  1
\A1;41.2500
 73
     1
 44
1.0
  0
POINT
  5
4CE
330
4C5
100
AcDbEntity
  8
Defpoints
  6
Continuous
 62
     0
100
AcDbPoint
 10
8417648.753951405
 20
5761210.676483496
 30
0.0
  0
POINT
  5
4CF
330
4C5
100
AcDbEntity
  8
Defpoints
  6
Continuous
 62
     0
100
AcDbPoint
 10
8417631.14547718
 20
5761173.373613165
 30
0.0
  0
POINT
  5
4D0
330
4C5
100
AcDbEntity
  8
Defpoints
  6
Continuous
 62
     0
100
AcDbPoint
 10
8417630.613009649
 20
5761173.624959529
 30
0.0
  0
ENDBLK
  5
4D1
330
4C5
100
AcDbEntity
  8
_OBRYS_POD_ZB
  6
Continuous
100
AcDbBlockEnd
  0
BLOCK
  5
5BF
330
5B4
100
AcDbEntity
  8
0
100
AcDbBlockBegin
  2
*D32
 70
     1
 10
0.0
 20
0.0
 30
0.0
  3
*D32
  1

  0
LINE
  5
72D
330
5B4
100
AcDbEntity
  8
instalacja gazowa
  6
Continuous
 62
     0
370
    -2
100
AcDbLine
 10
8417703.760928379
 20
5761345.733066262
 30
0.0
 11
8417702.726437189
 21
5761346.381603342
 31
0.0
  0
LINE
  5
72E
330
5B4
100
AcDbEntity
  8
instalacja gazowa
  6
Continuous
 62
     0
370
    -2
100
AcDbLine
 10
8417703.096534216
 20
5761344.673281199
 30
0.0
 11
8417702.062043025
 21
5761345.32181828
 31
0.0
  0
LINE
  5
72F
330
5B4
100
AcDbEntity
  8
instalacja gazowa
  6
Continuous
 62
     0
370
    -2
100
AcDbLine
 10
8417703.689913349
 20
5761345.565139204
 30
0.0
 11
8417703.567363536
 21
5761345.369658165
 31
0.0
  0
LINE
  5
730
330
5B4
100
AcDbEntity
  8
instalacja gazowa
  6
Continuous
 62
     0
370
    -2
100
AcDbLine
 10
8417703.216738452
 20
5761344.810370851
 30
0.0
 11
8417703.339288264
 21
5761345.00585189
 31
0.0
  0
SOLID
  5
731
330
5B4
100
AcDbEntity
  8
instalacja gazowa
 62
     0
100
AcDbTrace
 10
8417703.715331409
 20
5761345.549204265
 30
0.0
 11
8417703.66449529
 21
5761345.581074143
 31
0.0
 12
8417703.785522983
 22
5761345.717647559
 32
0.0
 13
8417703.785522983
 23
5761345.717647559
 33
0.0
  0
SOLID
  5
732
330
5B4
100
AcDbEntity
  8
instalacja gazowa
 62
     0
100
AcDbTrace
 10
8417703.191320391
 20
5761344.82630579
 30
0.0
 11
8417703.242156511
 21
5761344.794435912
 31
0.0
 12
8417703.121128818
 22
5761344.657862497
 32
0.0
 13
8417703.121128818
 23
5761344.657862497
 33
0.0
  0
MTEXT
  5
733
330
5B4
100
AcDbEntity
  8
instalacja gazowa
 62
     0
100
AcDbMText
 10
8417703.453325902
 20
5761345.187755027
 30
0.0
 40
0.18
 41
0.0
 46
0.0
 71
     5
 72
     1
  1
\A1;1.2508
 73
     1
 44
1.0
  0
POINT
  5
734
330
5B4
100
AcDbEntity
  8
Defpoints
 62
     0
100
AcDbPoint
 10
8417703.813882669
 20
5761345.699868472
 30
0.0
  0
POINT
  5
735
330
5B4
100
AcDbEntity
  8
Defpoints
 62
     0
100
AcDbPoint
 10
8417703.149488506
 20
5761344.640083409
 30
0.0
  0
POINT
  5
736
330
5B4
100
AcDbEntity
  8
Defpoints
 62
     0
100
AcDbPoint
 10
8417703.121128818
 20
5761344.657862497
 30
0.0
  0
ENDBLK
  5
5C0
330
5B4
100
AcDbEntity
  8
0
100
AcDbBlockEnd
  0
BLOCK
  5
5CC
330
5C1
100
AcDbEntity
  8
0
100
AcDbBlockBegin
  2
*D33
 70
     1
 10
0.0
 20
0.0
 30
0.0
  3
*D33
  1

  0
LINE
  5
737
330
5C1
100
AcDbEntity
  8
instalacja gazowa
  6
Continuous
 62
     0
370
    -2
100
AcDbLine
 10
8417700.46624082
 20
5761347.135352187
 30
0.0
 11
8417701.097286235
 21
5761348.141303447
 31
0.0
  0
LINE
  5
738
330
5C1
100
AcDbEntity
  8
instalacja gazowa
  6
Continuous
 62
     0
370
    -2
100
AcDbLine
 10
8417705.158562378
 20
5761344.191802009
 30
0.0
 11
8417705.789607794
 21
5761345.197753268
 31
0.0
  0
LINE
  5
739
330
5C1
100
AcDbEntity
  8
instalacja gazowa
  6
Continuous
 62
     0
370
    -2
100
AcDbLine
 10
8417700.585508935
 20
5761346.986754185
 30
0.0
 11
8417702.48911852
 21
5761345.792596825
 31
0.0
  0
LINE
  5
73A
330
5C1
100
AcDbEntity
  8
instalacja gazowa
  6
Continuous
 62
     0
370
    -2
100
AcDbLine
 10
8417704.972868429
 20
5761344.234510406
 30
0.0
 11
8417703.069258847
 21
5761345.428667766
 31
0.0
  0
SOLID
  5
73B
330
5C1
100
AcDbEntity
  8
instalacja gazowa
 62
     0
100
AcDbTrace
 10
8417700.601451134
 20
5761347.012167691
 30
0.0
 11
8417700.569566736
 21
5761346.96134068
 31
0.0
 12
8417700.433027903
 22
5761347.082407385
 32
0.0
 13
8417700.433027903
 23
5761347.082407385
 33
0.0
  0
SOLID
  5
73C
330
5C1
100
AcDbEntity
  8
instalacja gazowa
 62
     0
100
AcDbTrace
 10
8417704.956926231
 20
5761344.2090969
 30
0.0
 11
8417704.988810628
 21
5761344.259923912
 31
0.0
 12
8417705.125349462
 22
5761344.138857205
 32
0.0
 13
8417705.125349462
 23
5761344.138857205
 33
0.0
  0
MTEXT
  5
73D
330
5C1
100
AcDbEntity
  8
instalacja gazowa
 62
     0
100
AcDbMText
 10
8417702.779188681
 20
5761345.610632296
 30
0.0
 40
0.18
 41
0.0
 46
0.0
 71
     5
 72
     1
  1
\A1;5.5392
 73
     1
 44
1.0
  0
POINT
  5
73E
330
5C1
100
AcDbEntity
  8
Defpoints
 62
     0
100
AcDbPoint
 10
8417700.433027903
 20
5761347.082407385
 30
0.0
  0
POINT
  5
73F
330
5C1
100
AcDbEntity
  8
Defpoints
 62
     0
100
AcDbPoint
 10
8417705.125349462
 20
5761344.138857205
 30
0.0
  0
POINT
  5
740
330
5C1
100
AcDbEntity
  8
Defpoints
 62
     0
100
AcDbPoint
 10
8417705.125349462
 20
5761344.138857205
 30
0.0
  0
ENDBLK
  5
5CD
330
5C1
100
AcDbEntity
  8
0
100
AcDbBlockEnd
  0
BLOCK
  5
5D9
330
5CE
100
AcDbEntity
  8
0
100
AcDbBlockBegin
  2
*D34
 70
     1
 10
0.0
 20
0.0
 30
0.0
  3
*D34
  1

  0
LINE
  5
741
330
5CE
100
AcDbEntity
  8
instalacja gazowa
  6
Continuous
 62
     0
370
    -2
100
AcDbLine
 10
8417617.648355411
 20
5761186.168370882
 30
0.0
 11
8417620.904516304
 21
5761185.244530663
 31
0.0
  0
LINE
  5
742
330
5CE
100
AcDbEntity
  8
instalacja gazowa
  6
Continuous
 62
     0
370
    -2
100
AcDbLine
 10
8417619.818479233
 20
5761193.817174419
 30
0.0
 11
8417623.074640125
 21
5761192.8933342
 31
0.0
  0
LINE
  5
743
330
5CE
100
AcDbEntity
  8
instalacja gazowa
  6
Continuous
 62
     0
370
    -2
100
AcDbLine
 10
8417619.751110697
 20
5761185.75888026
 30
0.0
 11
8417620.616647061
 21
5761188.809543794
 31
0.0
  0
LINE
  5
744
330
5CE
100
AcDbEntity
  8
instalacja gazowa
  6
Continuous
 62
     0
370
    -2
100
AcDbLine
 10
8417621.822973416
 20
5761193.061353384
 30
0.0
 11
8417620.957437049
 21
5761190.010689849
 31
0.0
  0
SOLID
  5
745
330
5CE
100
AcDbEntity
  8
instalacja gazowa
 62
     0
100
AcDbTrace
 10
8417619.722249831
 20
5761185.767068687
 30
0.0
 11
8417619.779971564
 21
5761185.750691835
 31
0.0
 12
8417619.701980147
 22
5761185.585715053
 32
0.0
 13
8417619.701980147
 23
5761185.585715053
 33
0.0
  0
SOLID
  5
746
330
5CE
100
AcDbEntity
  8
instalacja gazowa
 62
     0
100
AcDbTrace
 10
8417621.851834283
 20
5761193.053164958
 30
0.0
 11
8417621.794112548
 21
5761193.06954181
 31
0.0
 12
8417621.872103968
 22
5761193.23451859
 32
0.0
 13
8417621.872103968
 23
5761193.23451859
 33
0.0
  0
MTEXT
  5
747
330
5CE
100
AcDbEntity
  8
instalacja gazowa
 62
     0
100
AcDbMText
 10
8417620.787042055
 20
5761189.410116822
 30
0.0
 40
0.18
 41
0.0
 46
0.0
 71
     5
 72
     1
  1
\A1;\A1;{\H5.555556x;750}
 73
     1
 44
1.0
  0
POINT
  5
748
330
5CE
100
AcDbEntity
  8
Defpoints
 62
     0
100
AcDbPoint
 10
8417617.588228605
 20
5761186.185430101
 30
0.0
  0
POINT
  5
749
330
5CE
100
AcDbEntity
  8
Defpoints
 62
     0
100
AcDbPoint
 10
8417619.758352426
 20
5761193.834233638
 30
0.0
  0
POINT
  5
74A
330
5CE
100
AcDbEntity
  8
Defpoints
 62
     0
100
AcDbPoint
 10
8417621.872103968
 20
5761193.23451859
 30
0.0
  0
ENDBLK
  5
5DA
330
5CE
100
AcDbEntity
  8
0
100
AcDbBlockEnd
  0
BLOCK
  5
5E6
330
5DB
100
AcDbEntity
  8
0
100
AcDbBlockBegin
  2
*D35
 70
     1
 10
0.0
 20
0.0
 30
0.0
  3
*D35
  1

  0
LINE
  5
74B
330
5DB
100
AcDbEntity
  8
instalacja gazowa
  6
Continuous
 62
     0
370
    -2
100
AcDbLine
 10
8417659.637236305
 20
5761168.178438646
 30
0.0
 11
8417661.040173827
 21
5761168.006266577
 31
0.0
  0
LINE
  5
74C
330
5DB
100
AcDbEntity
  8
instalacja gazowa
  6
Continuous
 62
     0
370
    -2
100
AcDbLine
 10
8417658.661355584
 20
5761160.22651182
 30
0.0
 11
8417660.064293107
 21
5761160.05433975
 31
0.0
  0
LINE
  5
74D
330
5DB
100
AcDbEntity
  8
instalacja gazowa
  6
Continuous
 62
     0
370
    -2
100
AcDbLine
 10
8417659.777556266
 20
5761167.979867813
 30
0.0
 11
8417659.385245325
 21
5761164.783137076
 31
0.0
  0
LINE
  5
74E
330
5DB
100
AcDbEntity
  8
instalacja gazowa
  6
Continuous
 62
     0
370
    -2
100
AcDbLine
 10
8417658.84552668
 20
5761160.38526028
 30
0.0
 11
8417659.237837622
 21
5761163.58199102
 31
0.0
  0
SOLID
  5
74F
330
5DB
100
AcDbEntity
  8
instalacja gazowa
 62
     0
100
AcDbTrace
 10
8417659.807332874
 20
5761167.976213553
 30
0.0
 11
8417659.747779659
 21
5761167.983522075
 31
0.0
 12
8417659.799481834
 22
5761168.158527461
 32
0.0
 13
8417659.799481834
 23
5761168.158527461
 33
0.0
  0
SOLID
  5
750
330
5DB
100
AcDbEntity
  8
instalacja gazowa
 62
     0
100
AcDbTrace
 10
8417658.815750073
 20
5761160.388914543
 30
0.0
 11
8417658.875303288
 21
5761160.381606019
 31
0.0
 12
8417658.823601113
 22
5761160.206600634
 32
0.0
 13
8417658.823601113
 23
5761160.206600634
 33
0.0
  0
MTEXT
  5
751
330
5DB
100
AcDbEntity
  8
instalacja gazowa
 62
     0
100
AcDbMText
 10
8417659.311541473
 20
5761164.182564048
 30
0.0
 40
0.18
 41
0.0
 46
0.0
 71
     5
 72
     1
  1
\A1;\A1;{\H5.555556x;800}
 73
     1
 44
1.0
  0
POINT
  5
752
330
5DB
100
AcDbEntity
  8
Defpoints
 62
     0
100
AcDbPoint
 10
8417659.575201705
 20
5761168.18605169
 30
0.0
  0
POINT
  5
753
330
5DB
100
AcDbEntity
  8
Defpoints
 62
     0
100
AcDbPoint
 10
8417658.599320985
 20
5761160.234124863
 30
0.0
  0
POINT
  5
754
330
5DB
100
AcDbEntity
  8
Defpoints
 62
     0
100
AcDbPoint
 10
8417658.823601113
 20
5761160.206600634
 30
0.0
  0
ENDBLK
  5
5E7
330
5DB
100
AcDbEntity
  8
0
100
AcDbBlockEnd
  0
BLOCK
  5
5F3
330
5E8
100
AcDbEntity
  8
0
100
AcDbBlockBegin
  2
*D36
 70
     1
 10
0.0
 20
0.0
 30
0.0
  3
*D36
  1

  0
LINE
  5
874
330
5E8
100
AcDbEntity
  8
instalacja gazowa
  6
Continuous
 62
     0
370
    -2
100
AcDbLine
 10
8417655.719083814
 20
5761206.697459244
 30
0.0
 11
8417656.312243218
 21
5761207.959620353
 31
0.0
  0
LINE
  5
875
330
5E8
100
AcDbEntity
  8
instalacja gazowa
  6
Continuous
 62
     0
370
    -2
100
AcDbLine
 10
8417657.079114743
 20
5761206.058305385
 30
0.0
 11
8417657.672274147
 21
5761207.320466494
 31
0.0
  0
LINE
  5
876
330
5E8
100
AcDbEntity
  8
instalacja gazowa
  6
Continuous
 62
     0
370
    -2
100
AcDbLine
 10
8417655.943490201
 20
5761206.751762243
 30
0.0
 11
8417656.073533908
 21
5761206.690647502
 31
0.0
  0
LINE
  5
877
330
5E8
100
AcDbEntity
  8
instalacja gazowa
  6
Continuous
 62
     0
370
    -2
100
AcDbLine
 10
8417656.977707002
 20
5761206.265726486
 30
0.0
 11
8417656.847663296
 21
5761206.326841227
 31
0.0
  0
SOLID
  5
878
330
5E8
100
AcDbEntity
  8
instalacja gazowa
 62
     0
100
AcDbTrace
 10
8417655.956250044
 20
5761206.778913419
 30
0.0
 11
8417655.93073036
 21
5761206.724611064
 31
0.0
 12
8417655.780583139
 22
5761206.828321294
 32
0.0
 13
8417655.780583139
 23
5761206.828321294
 33
0.0
  0
SOLID
  5
879
330
5E8
100
AcDbEntity
  8
instalacja gazowa
 62
     0
100
AcDbTrace
 10
8417656.964947161
 20
5761206.23857531
 30
0.0
 11
8417656.990466845
 21
5761206.292877665
 31
0.0
 12
8417657.140614066
 22
5761206.189167435
 32
0.0
 13
8417657.140614066
 23
5761206.189167435
 33
0.0
  0
MTEXT
  5
87A
330
5E8
100
AcDbEntity
  8
instalacja gazowa
 62
     0
100
AcDbMText
 10
8417656.460598603
 20
5761206.508744364
 30
0.0
 40
0.18
 41
0.0
 46
0.0
 71
     5
 72
     1
  1
\A1;1.5027
 73
     1
 44
1.0
  0
POINT
  5
87B
330
5E8
100
AcDbEntity
  8
Defpoints
 62
     0
100
AcDbPoint
 10
8417655.69250081
 20
5761206.640894291
 30
0.0
  0
POINT
  5
87C
330
5E8
100
AcDbEntity
  8
Defpoints
 62
     0
100
AcDbPoint
 10
8417657.052531737
 20
5761206.001740432
 30
0.0
  0
POINT
  5
87D
330
5E8
100
AcDbEntity
  8
Defpoints
 62
     0
100
AcDbPoint
 10
8417657.140614066
 20
5761206.189167435
 30
0.0
  0
ENDBLK
  5
5F4
330
5E8
100
AcDbEntity
  8
0
100
AcDbBlockEnd
  0
BLOCK
  5
600
330
5F5
100
AcDbEntity
  8
0
100
AcDbBlockBegin
  2
*D37
 70
     1
 10
0.0
 20
0.0
 30
0.0
  3
*D37
  1

  0
LINE
  5
75F
330
5F5
100
AcDbEntity
  8
instalacja gazowa
  6
Continuous
 62
     0
370
    -2
100
AcDbLine
 10
8417640.32719185
 20
5761174.085352942
 30
0.0
 11
8417641.010417904
 21
5761175.573046641
 31
0.0
  0
LINE
  5
760
330
5F5
100
AcDbEntity
  8
instalacja gazowa
  6
Continuous
 62
     0
370
    -2
100
AcDbLine
 10
8417641.690463595
 20
5761173.459267902
 30
0.0
 11
8417642.373689648
 21
5761174.946961601
 31
0.0
  0
LINE
  5
761
330
5F5
100
AcDbEntity
  8
instalacja gazowa
  6
Continuous
 62
     0
370
    -2
100
AcDbLine
 10
8417640.652312154
 20
5761174.36198914
 30
0.0
 11
8417640.774287489
 21
5761174.305971743
 31
0.0
  0
LINE
  5
762
330
5F5
100
AcDbEntity
  8
instalacja gazowa
  6
Continuous
 62
     0
370
    -2
100
AcDbLine
 10
8417641.688434471
 20
5761173.886148071
 30
0.0
 11
8417641.566459135
 21
5761173.942165468
 31
0.0
  0
SOLID
  5
763
330
5F5
100
AcDbEntity
  8
instalacja gazowa
 62
     0
100
AcDbTrace
 10
8417640.664832486
 20
5761174.389251591
 30
0.0
 11
8417640.639791821
 21
5761174.334726688
 31
0.0
 12
8417640.48873744
 22
5761174.437111126
 32
0.0
 13
8417640.48873744
 23
5761174.437111126
 33
0.0
  0
SOLID
  5
764
330
5F5
100
AcDbEntity
  8
instalacja gazowa
 62
     0
100
AcDbTrace
 10
8417641.675914138
 20
5761173.858885619
 30
0.0
 11
8417641.700954803
 21
5761173.913410524
 31
0.0
 12
8417641.852009184
 22
5761173.811026085
 32
0.0
 13
8417641.852009184
 23
5761173.811026085
 33
0.0
  0
MTEXT
  5
765
330
5F5
100
AcDbEntity
  8
instalacja gazowa
 62
     0
100
AcDbMText
 10
8417641.170373313
 20
5761174.124068605
 30
0.0
 40
0.18
 41
0.0
 46
0.0
 71
     5
 72
     1
  1
\A1;1.5002
 73
     1
 44
1.0
  0
POINT
  5
766
330
5F5
100
AcDbEntity
  8
Defpoints
 62
     0
100
AcDbPoint
 10
8417640.301107827
 20
5761174.028556167
 30
0.0
  0
POINT
  5
767
330
5F5
100
AcDbEntity
  8
Defpoints
 62
     0
100
AcDbPoint
 10
8417641.664379573
 20
5761173.402471126
 30
0.0
  0
POINT
  5
768
330
5F5
100
AcDbEntity
  8
Defpoints
 62
     0
100
AcDbPoint
 10
8417641.852009184
 20
5761173.811026085
 30
0.0
  0
ENDBLK
  5
601
330
5F5
100
AcDbEntity
  8
0
100
AcDbBlockEnd
  0
BLOCK
  5
60D
330
602
100
AcDbEntity
  8
0
100
AcDbBlockBegin
  2
*D38
 70
     1
 10
0.0
 20
0.0
 30
0.0
  3
*D38
  1

  0
LINE
  5
769
330
602
100
AcDbEntity
  8
instalacja gazowa
  6
Continuous
 62
     0
370
    -2
100
AcDbLine
 10
8417629.626609294
 20
5761214.886167298
 30
0.0
 11
8417627.888284155
 21
5761215.706727568
 31
0.0
  0
LINE
  5
76A
330
602
100
AcDbEntity
  8
instalacja gazowa
  6
Continuous
 62
     0
370
    -2
100
AcDbLine
 10
8417629.093019181
 20
5761213.755777317
 30
0.0
 11
8417627.35469404
 21
5761214.576337589
 31
0.0
  0
LINE
  5
76B
330
602
100
AcDbEntity
  8
instalacja gazowa
  6
Continuous
 62
     0
370
    -2
100
AcDbLine
 10
8417628.941837186
 20
5761215.010361279
 30
0.0
 11
8417628.837744798
 21
5761214.789845588
 31
0.0
  0
LINE
  5
76C
330
602
100
AcDbEntity
  8
instalacja gazowa
  6
Continuous
 62
     0
370
    -2
100
AcDbLine
 10
8417628.561921031
 20
5761214.205523623
 30
0.0
 11
8417628.666013417
 21
5761214.426039312
 31
0.0
  0
SOLID
  5
76D
330
602
100
AcDbEntity
  8
instalacja gazowa
 62
     0
100
AcDbTrace
 10
8417628.968966546
 20
5761214.997555116
 30
0.0
 11
8417628.914707828
 21
5761215.023167442
 31
0.0
 12
8417629.018674166
 22
5761215.173137441
 32
0.0
 13
8417629.018674166
 23
5761215.173137441
 33
0.0
  0
SOLID
  5
76E
330
602
100
AcDbEntity
  8
instalacja gazowa
 62
     0
100
AcDbTrace
 10
8417628.534791671
 20
5761214.218329786
 30
0.0
 11
8417628.589050391
 21
5761214.19271746
 31
0.0
 12
8417628.485084051
 22
5761214.042747461
 32
0.0
 13
8417628.485084051
 23
5761214.042747461
 33
0.0
  0
MTEXT
  5
76F
330
602
100
AcDbEntity
  8
instalacja gazowa
 62
     0
100
AcDbMText
 10
8417628.751879107
 20
5761214.60794245
 30
0.0
 40
0.18
 41
0.0
 46
0.0
 71
     5
 72
     1
  1
\A1;1.2500
 73
     1
 44
1.0
  0
POINT
  5
770
330
602
100
AcDbEntity
  8
Defpoints
 62
     0
100
AcDbPoint
 10
8417629.683128794
 20
5761214.859487791
 30
0.0
  0
POINT
  5
771
330
602
100
AcDbEntity
  8
Defpoints
 62
     0
100
AcDbPoint
 10
8417629.149538681
 20
5761213.729097811
 30
0.0
  0
POINT
  5
772
330
602
100
AcDbEntity
  8
Defpoints
 62
     0
100
AcDbPoint
 10
8417628.485084051
 20
5761214.042747461
 30
0.0
  0
ENDBLK
  5
60E
330
602
100
AcDbEntity
  8
0
100
AcDbBlockEnd
  0
BLOCK
  5
61A
330
60F
100
AcDbEntity
  8
0
100
AcDbBlockBegin
  2
*D39
 70
     1
 10
0.0
 20
0.0
 30
0.0
  3
*D39
  1

  0
LINE
  5
773
330
60F
100
AcDbEntity
  8
instalacja gazowa
  6
Continuous
 62
     0
370
    -2
100
AcDbLine
 10
8417639.403420688
 20
5761213.269136957
 30
0.0
 11
8417637.865077004
 21
5761213.995297834
 31
0.0
  0
LINE
  5
774
330
60F
100
AcDbEntity
  8
instalacja gazowa
  6
Continuous
 62
     0
370
    -2
100
AcDbLine
 10
8417638.869830575
 20
5761212.138746977
 30
0.0
 11
8417637.33148689
 21
5761212.864907854
 31
0.0
  0
LINE
  5
775
330
60F
100
AcDbEntity
  8
instalacja gazowa
  6
Continuous
 62
     0
370
    -2
100
AcDbLine
 10
8417638.918630036
 20
5761213.298931545
 30
0.0
 11
8417638.814537648
 21
5761213.078415854
 31
0.0
  0
LINE
  5
776
330
60F
100
AcDbEntity
  8
instalacja gazowa
  6
Continuous
 62
     0
370
    -2
100
AcDbLine
 10
8417638.53871388
 20
5761212.494093889
 30
0.0
 11
8417638.642806267
 21
5761212.714609579
 31
0.0
  0
SOLID
  5
777
330
60F
100
AcDbEntity
  8
instalacja gazowa
 62
     0
100
AcDbTrace
 10
8417638.945759394
 20
5761213.286125382
 30
0.0
 11
8417638.891500676
 21
5761213.31173771
 31
0.0
 12
8417638.995467015
 22
5761213.461707707
 32
0.0
 13
8417638.995467015
 23
5761213.461707707
 33
0.0
  0
SOLID
  5
778
330
60F
100
AcDbEntity
  8
instalacja gazowa
 62
     0
100
AcDbTrace
 10
8417638.51158452
 20
5761212.506900052
 30
0.0
 11
8417638.56584324
 21
5761212.481287726
 31
0.0
 12
8417638.461876901
 22
5761212.331317728
 32
0.0
 13
8417638.461876901
 23
5761212.331317728
 33
0.0
  0
MTEXT
  5
779
330
60F
100
AcDbEntity
  8
instalacja gazowa
 62
     0
100
AcDbMText
 10
8417638.728671956
 20
5761212.896512716
 30
0.0
 40
0.18
 41
0.0
 46
0.0
 71
     5
 72
     1
  1
\A1;1.2500
 73
     1
 44
1.0
  0
POINT
  5
77A
330
60F
100
AcDbEntity
  8
Defpoints
 62
     0
100
AcDbPoint
 10
8417639.45994019
 20
5761213.242457451
 30
0.0
  0
POINT
  5
77B
330
60F
100
AcDbEntity
  8
Defpoints
 62
     0
100
AcDbPoint
 10
8417638.926350075
 20
5761212.11206747
 30
0.0
  0
POINT
  5
77C
330
60F
100
AcDbEntity
  8
Defpoints
 62
     0
100
AcDbPoint
 10
8417638.461876901
 20
5761212.331317728
 30
0.0
  0
ENDBLK
  5
61B
330
60F
100
AcDbEntity
  8
0
100
AcDbBlockEnd
  0
BLOCK
  5
627
330
61C
100
AcDbEntity
  8
0
100
AcDbBlockBegin
  2
*D40
 70
     1
 10
0.0
 20
0.0
 30
0.0
  3
*D40
  1

  0
LINE
  5
77D
330
61C
100
AcDbEntity
  8
instalacja gazowa
  6
Continuous
 62
     0
370
    -2
100
AcDbLine
 10
8417638.229522406
 20
5761210.782278936
 30
0.0
 11
8417636.628045599
 21
5761211.538241221
 31
0.0
  0
LINE
  5
77E
330
61C
100
AcDbEntity
  8
instalacja gazowa
  6
Continuous
 62
     0
370
    -2
100
AcDbLine
 10
8417637.695932292
 20
5761209.651888956
 30
0.0
 11
8417636.094455485
 21
5761210.407851241
 31
0.0
  0
LINE
  5
77F
330
61C
100
AcDbEntity
  8
instalacja gazowa
  6
Continuous
 62
     0
370
    -2
100
AcDbLine
 10
8417637.68159863
 20
5761210.841874931
 30
0.0
 11
8417637.577506242
 21
5761210.621359241
 31
0.0
  0
LINE
  5
780
330
61C
100
AcDbEntity
  8
instalacja gazowa
  6
Continuous
 62
     0
370
    -2
100
AcDbLine
 10
8417637.301682473
 20
5761210.037037275
 30
0.0
 11
8417637.405774861
 21
5761210.257552966
 31
0.0
  0
SOLID
  5
781
330
61C
100
AcDbEntity
  8
instalacja gazowa
 62
     0
100
AcDbTrace
 10
8417637.70872799
 20
5761210.829068768
 30
0.0
 11
8417637.65446927
 21
5761210.854681094
 31
0.0
 12
8417637.758435608
 22
5761211.004651093
 32
0.0
 13
8417637.758435608
 23
5761211.004651093
 33
0.0
  0
SOLID
  5
782
330
61C
100
AcDbEntity
  8
instalacja gazowa
 62
     0
100
AcDbTrace
 10
8417637.274553115
 20
5761210.049843437
 30
0.0
 11
8417637.328811833
 21
5761210.024231112
 31
0.0
 12
8417637.224845496
 22
5761209.874261113
 32
0.0
 13
8417637.224845496
 23
5761209.874261113
 33
0.0
  0
MTEXT
  5
783
330
61C
100
AcDbEntity
  8
instalacja gazowa
 62
     0
100
AcDbMText
 10
8417637.491640553
 20
5761210.439456103
 30
0.0
 40
0.18
 41
0.0
 46
0.0
 71
     5
 72
     1
  1
\A1;1.2500
 73
     1
 44
1.0
  0
POINT
  5
784
330
61C
100
AcDbEntity
  8
Defpoints
 62
     0
100
AcDbPoint
 10
8417638.286041906
 20
5761210.75559943
 30
0.0
  0
POINT
  5
785
330
61C
100
AcDbEntity
  8
Defpoints
 62
     0
100
AcDbPoint
 10
8417637.752451792
 20
5761209.62520945
 30
0.0
  0
POINT
  5
786
330
61C
100
AcDbEntity
  8
Defpoints
 62
     0
100
AcDbPoint
 10
8417637.224845496
 20
5761209.874261113
 30
0.0
  0
ENDBLK
  5
628
330
61C
100
AcDbEntity
  8
0
100
AcDbBlockEnd
  0
BLOCK
  5
634
330
629
100
AcDbEntity
  8
0
100
AcDbBlockBegin
  2
*D41
 70
     1
 10
0.0
 20
0.0
 30
0.0
  3
*D41
  1

  0
LINE
  5
791
330
629
100
AcDbEntity
  8
instalacja gazowa
  6
Continuous
 62
     0
370
    -2
100
AcDbLine
 10
8417637.055624139
 20
5761208.295420946
 30
0.0
 11
8417635.427979226
 21
5761209.063735641
 31
0.0
  0
LINE
  5
792
330
629
100
AcDbEntity
  8
instalacja gazowa
  6
Continuous
 62
     0
370
    -2
100
AcDbLine
 10
8417636.52203401
 20
5761207.165030936
 30
0.0
 11
8417634.894389097
 21
5761207.933345632
 31
0.0
  0
LINE
  5
793
330
629
100
AcDbEntity
  8
instalacja gazowa
  6
Continuous
 62
     0
370
    -2
100
AcDbLine
 10
8417636.481532257
 20
5761208.367369353
 30
0.0
 11
8417636.377439862
 21
5761208.146853647
 31
0.0
  0
LINE
  5
794
330
629
100
AcDbEntity
  8
instalacja gazowa
  6
Continuous
 62
     0
370
    -2
100
AcDbLine
 10
8417636.101616086
 20
5761207.562531665
 30
0.0
 11
8417636.205708481
 21
5761207.783047372
 31
0.0
  0
SOLID
  5
795
330
629
100
AcDbEntity
  8
instalacja gazowa
 62
     0
100
AcDbTrace
 10
8417636.508661617
 20
5761208.35456319
 30
0.0
 11
8417636.454402897
 21
5761208.380175515
 31
0.0
 12
8417636.558369236
 22
5761208.530145514
 32
0.0
 13
8417636.558369236
 23
5761208.530145514
 33
0.0
  0
SOLID
  5
796
330
629
100
AcDbEntity
  8
instalacja gazowa
 62
     0
100
AcDbTrace
 10
8417636.074486727
 20
5761207.575337827
 30
0.0
 11
8417636.128745446
 21
5761207.549725502
 31
0.0
 12
8417636.024779108
 22
5761207.399755504
 32
0.0
 13
8417636.024779108
 23
5761207.399755504
 33
0.0
  0
MTEXT
  5
797
330
629
100
AcDbEntity
  8
instalacja gazowa
 62
     0
100
AcDbMText
 10
8417636.291574172
 20
5761207.964950509
 30
0.0
 40
0.18
 41
0.0
 46
0.0
 71
     5
 72
     1
  1
\A1;1.2500
 73
     1
 44
1.0
  0
POINT
  5
798
330
629
100
AcDbEntity
  8
Defpoints
 62
     0
100
AcDbPoint
 10
8417637.112143639
 20
5761208.268741439
 30
0.0
  0
POINT
  5
799
330
629
100
AcDbEntity
  8
Defpoints
 62
     0
100
AcDbPoint
 10
8417636.57855351
 20
5761207.138351429
 30
0.0
  0
POINT
  5
79A
330
629
100
AcDbEntity
  8
Defpoints
 62
     0
100
AcDbPoint
 10
8417636.024779108
 20
5761207.399755504
 30
0.0
  0
ENDBLK
  5
635
330
629
100
AcDbEntity
  8
0
100
AcDbBlockEnd
  0
BLOCK
  5
641
330
636
100
AcDbEntity
  8
0
100
AcDbBlockBegin
  2
*D42
 70
     1
 10
0.0
 20
0.0
 30
0.0
  3
*D42
  1

  0
LINE
  5
787
330
636
100
AcDbEntity
  8
instalacja gazowa
  6
Continuous
 62
     0
370
    -2
100
AcDbLine
 10
8417638.869830579
 20
5761212.138746976
 30
0.0
 11
8417637.449968189
 21
5761212.808979862
 31
0.0
  0
LINE
  5
788
330
636
100
AcDbEntity
  8
instalacja gazowa
  6
Continuous
 62
     0
370
    -2
100
AcDbLine
 10
8417638.22952242
 20
5761210.782278966
 30
0.0
 11
8417636.809660031
 21
5761211.452511853
 31
0.0
  0
LINE
  5
789
330
636
100
AcDbEntity
  8
instalacja gazowa
  6
Continuous
 62
     0
370
    -2
100
AcDbLine
 10
8417638.503521219
 20
5761212.11261357
 30
0.0
 11
8417638.346069809
 21
5761211.779058864
 31
0.0
  0
LINE
  5
78A
330
636
100
AcDbEntity
  8
instalacja gazowa
  6
Continuous
 62
     0
370
    -2
100
AcDbLine
 10
8417638.016887018
 20
5761211.081697884
 30
0.0
 11
8417638.174338428
 21
5761211.415252588
 31
0.0
  0
SOLID
  5
78B
330
636
100
AcDbEntity
  8
instalacja gazowa
 62
     0
100
AcDbTrace
 10
8417638.530650579
 20
5761212.099807407
 30
0.0
 11
8417638.476391859
 21
5761212.125419733
 31
0.0
 12
8417638.580358197
 22
5761212.275389731
 32
0.0
 13
8417638.580358197
 23
5761212.275389731
 33
0.0
  0
SOLID
  5
78C
330
636
100
AcDbEntity
  8
instalacja gazowa
 62
     0
100
AcDbTrace
 10
8417637.989757659
 20
5761211.094504046
 30
0.0
 11
8417638.044016378
 21
5761211.06889172
 31
0.0
 12
8417637.94005004
 22
5761210.918921721
 32
0.0
 13
8417637.94005004
 23
5761210.918921721
 33
0.0
  0
MTEXT
  5
78D
330
636
100
AcDbEntity
  8
instalacja gazowa
 62
     0
100
AcDbMText
 10
8417638.260204117
 20
5761211.597155727
 30
0.0
 40
0.18
 41
0.0
 46
0.0
 71
     5
 72
     1
  1
\A1;1.5000
 73
     1
 44
1.0
  0
POINT
  5
78E
330
636
100
AcDbEntity
  8
Defpoints
 62
     0
100
AcDbPoint
 10
8417638.926350079
 20
5761212.112067469
 30
0.0
  0
POINT
  5
78F
330
636
100
AcDbEntity
  8
Defpoints
 62
     0
100
AcDbPoint
 10
8417638.28604192
 20
5761210.75559946
 30
0.0
  0
POINT
  5
790
330
636
100
AcDbEntity
  8
Defpoints
 62
     0
100
AcDbPoint
 10
8417637.94005004
 20
5761210.918921721
 30
0.0
  0
ENDBLK
  5
642
330
636
100
AcDbEntity
  8
0
100
AcDbBlockEnd
  0
BLOCK
  5
64E
330
643
100
AcDbEntity
  8
0
100
AcDbBlockBegin
  2
*D43
 70
     1
 10
0.0
 20
0.0
 30
0.0
  3
*D43
  1

  0
LINE
  5
79B
330
643
100
AcDbEntity
  8
instalacja gazowa
  6
Continuous
 62
     0
370
    -2
100
AcDbLine
 10
8417637.638351106
 20
5761209.676192396
 30
0.0
 11
8417636.006223027
 21
5761210.365068921
 31
0.0
  0
LINE
  5
79C
330
643
100
AcDbEntity
  8
instalacja gazowa
  6
Continuous
 62
     0
370
    -2
100
AcDbLine
 10
8417637.05456244
 20
5761208.293044849
 30
0.0
 11
8417635.42243436
 21
5761208.981921373
 31
0.0
  0
LINE
  5
79D
330
643
100
AcDbEntity
  8
instalacja gazowa
  6
Continuous
 62
     0
370
    -2
100
AcDbLine
 10
8417637.087852813
 20
5761209.713166316
 30
0.0
 11
8417636.942754626
 21
5761209.369390883
 31
0.0
  0
LINE
  5
79E
330
643
100
AcDbEntity
  8
instalacja gazowa
  6
Continuous
 62
     0
370
    -2
100
AcDbLine
 10
8417636.644051958
 20
5761208.661686391
 30
0.0
 11
8417636.789150146
 21
5761209.005461823
 31
0.0
  0
SOLID
  5
79F
330
643
100
AcDbEntity
  8
instalacja gazowa
 62
     0
100
AcDbTrace
 10
8417637.115491782
 20
5761209.701500665
 30
0.0
 11
8417637.060213845
 21
5761209.724831967
 31
0.0
 12
8417637.157846719
 22
5761209.879000127
 32
0.0
 13
8417637.157846719
 23
5761209.879000127
 33
0.0
  0
SOLID
  5
7A0
330
643
100
AcDbEntity
  8
instalacja gazowa
 62
     0
100
AcDbTrace
 10
8417636.616412989
 20
5761208.673352042
 30
0.0
 11
8417636.671690926
 21
5761208.650020741
 31
0.0
 12
8417636.574058052
 22
5761208.49585258
 32
0.0
 13
8417636.574058052
 23
5761208.49585258
 33
0.0
  0
MTEXT
  5
7A1
330
643
100
AcDbEntity
  8
instalacja gazowa
 62
     0
100
AcDbMText
 10
8417636.865952385
 20
5761209.187426353
 30
0.0
 40
0.18
 41
0.0
 46
0.0
 71
     5
 72
     1
  1
\A1;1.5013
 73
     1
 44
1.0
  0
POINT
  5
7A2
330
643
100
AcDbEntity
  8
Defpoints
 62
     0
100
AcDbPoint
 10
8417637.695932292
 20
5761209.651888956
 30
0.0
  0
POINT
  5
7A3
330
643
100
AcDbEntity
  8
Defpoints
 62
     0
100
AcDbPoint
 10
8417637.112143625
 20
5761208.268741409
 30
0.0
  0
POINT
  5
7A4
330
643
100
AcDbEntity
  8
Defpoints
 62
     0
100
AcDbPoint
 10
8417636.574058052
 20
5761208.49585258
 30
0.0
  0
ENDBLK
  5
64F
330
643
100
AcDbEntity
  8
0
100
AcDbBlockEnd
  0
BLOCK
  5
65B
330
650
100
AcDbEntity
  8
0
100
AcDbBlockBegin
  2
*D44
 70
     1
 10
0.0
 20
0.0
 30
0.0
  3
*D44
  1

  0
LINE
  5
7A5
330
650
100
AcDbEntity
  8
instalacja gazowa
  6
Continuous
 62
     0
370
    -2
100
AcDbLine
 10
8417636.52203401
 20
5761207.165030936
 30
0.0
 11
8417634.860496885
 21
5761207.949344136
 31
0.0
  0
LINE
  5
7A6
330
650
100
AcDbEntity
  8
instalacja gazowa
  6
Continuous
 62
     0
370
    -2
100
AcDbLine
 10
8417635.881725857
 20
5761205.808562924
 30
0.0
 11
8417634.220188734
 21
5761206.592876125
 31
0.0
  0
LINE
  5
7A7
330
650
100
AcDbEntity
  8
instalacja gazowa
  6
Continuous
 62
     0
370
    -2
100
AcDbLine
 10
8417635.914049919
 20
5761207.252977847
 30
0.0
 11
8417635.75659851
 21
5761206.919423139
 31
0.0
  0
LINE
  5
7A8
330
650
100
AcDbEntity
  8
instalacja gazowa
  6
Continuous
 62
     0
370
    -2
100
AcDbLine
 10
8417635.427415723
 20
5761206.222062159
 30
0.0
 11
8417635.584867129
 21
5761206.555616865
 31
0.0
  0
SOLID
  5
7A9
330
650
100
AcDbEntity
  8
instalacja gazowa
 62
     0
100
AcDbTrace
 10
8417635.941179279
 20
5761207.240171683
 30
0.0
 11
8417635.886920558
 21
5761207.265784009
 31
0.0
 12
8417635.990886896
 22
5761207.415754008
 32
0.0
 13
8417635.990886896
 23
5761207.415754008
 33
0.0
  0
SOLID
  5
7AA
330
650
100
AcDbEntity
  8
instalacja gazowa
 62
     0
100
AcDbTrace
 10
8417635.400286364
 20
5761206.234868321
 30
0.0
 11
8417635.454545083
 21
5761206.209255995
 31
0.0
 12
8417635.350578745
 22
5761206.059285997
 32
0.0
 13
8417635.350578745
 23
5761206.059285997
 33
0.0
  0
MTEXT
  5
7AB
330
650
100
AcDbEntity
  8
instalacja gazowa
 62
     0
100
AcDbMText
 10
8417635.670732821
 20
5761206.737520002
 30
0.0
 40
0.18
 41
0.0
 46
0.0
 71
     5
 72
     1
  1
\A1;1.5000
 73
     1
 44
1.0
  0
POINT
  5
7AC
330
650
100
AcDbEntity
  8
Defpoints
 62
     0
100
AcDbPoint
 10
8417636.57855351
 20
5761207.138351429
 30
0.0
  0
POINT
  5
7AD
330
650
100
AcDbEntity
  8
Defpoints
 62
     0
100
AcDbPoint
 10
8417635.938245359
 20
5761205.781883417
 30
0.0
  0
POINT
  5
7AE
330
650
100
AcDbEntity
  8
Defpoints
 62
     0
100
AcDbPoint
 10
8417635.350578745
 20
5761206.059285997
 30
0.0
  0
ENDBLK
  5
65C
330
650
100
AcDbEntity
  8
0
100
AcDbBlockEnd
  0
BLOCK
  5
668
330
65D
100
AcDbEntity
  8
0
100
AcDbBlockBegin
  2
*D45
 70
     1
 10
0.0
 20
0.0
 30
0.0
  3
*D45
  1

  0
LINE
  5
7AF
330
65D
100
AcDbEntity
  8
instalacja gazowa
  6
Continuous
 62
     0
370
    -2
100
AcDbLine
 10
8417635.348135728
 20
5761204.678172914
 30
0.0
 11
8417633.709977735
 21
5761205.45145021
 31
0.0
  0
LINE
  5
7B0
330
65D
100
AcDbEntity
  8
instalacja gazowa
  6
Continuous
 62
     0
370
    -2
100
AcDbLine
 10
8417634.707827575
 20
5761203.321704901
 30
0.0
 11
8417633.069669582
 21
5761204.094982198
 31
0.0
  0
LINE
  5
7B1
330
65D
100
AcDbEntity
  8
instalacja gazowa
  6
Continuous
 62
     0
370
    -2
100
AcDbLine
 10
8417634.763530767
 20
5761204.755083922
 30
0.0
 11
8417634.606079358
 21
5761204.421529215
 31
0.0
  0
LINE
  5
7B2
330
65D
100
AcDbEntity
  8
instalacja gazowa
  6
Continuous
 62
     0
370
    -2
100
AcDbLine
 10
8417634.276896572
 20
5761203.724168233
 30
0.0
 11
8417634.434347979
 21
5761204.05772294
 31
0.0
  0
SOLID
  5
7B3
330
65D
100
AcDbEntity
  8
instalacja gazowa
 62
     0
100
AcDbTrace
 10
8417634.790660127
 20
5761204.742277759
 30
0.0
 11
8417634.736401407
 21
5761204.767890085
 31
0.0
 12
8417634.840367746
 22
5761204.917860084
 32
0.0
 13
8417634.840367746
 23
5761204.917860084
 33
0.0
  0
SOLID
  5
7B4
330
65D
100
AcDbEntity
  8
instalacja gazowa
 62
     0
100
AcDbTrace
 10
8417634.249767212
 20
5761203.736974397
 30
0.0
 11
8417634.304025931
 21
5761203.71136207
 31
0.0
 12
8417634.200059593
 22
5761203.561392071
 32
0.0
 13
8417634.200059593
 23
5761203.561392071
 33
0.0
  0
MTEXT
  5
7B5
330
65D
100
AcDbEntity
  8
instalacja gazowa
 62
     0
100
AcDbMText
 10
8417634.520213669
 20
5761204.239626078
 30
0.0
 40
0.18
 41
0.0
 46
0.0
 71
     5
 72
     1
  1
\A1;1.5000
 73
     1
 44
1.0
  0
POINT
  5
7B6
330
65D
100
AcDbEntity
  8
Defpoints
 62
     0
100
AcDbPoint
 10
8417635.404655229
 20
5761204.651493407
 30
0.0
  0
POINT
  5
7B7
330
65D
100
AcDbEntity
  8
Defpoints
 62
     0
100
AcDbPoint
 10
8417634.764347075
 20
5761203.295025395
 30
0.0
  0
POINT
  5
7B8
330
65D
100
AcDbEntity
  8
Defpoints
 62
     0
100
AcDbPoint
 10
8417634.200059593
 20
5761203.561392071
 30
0.0
  0
ENDBLK
  5
669
330
65D
100
AcDbEntity
  8
0
100
AcDbBlockEnd
  0
BLOCK
  5
675
330
66A
100
AcDbEntity
  8
0
100
AcDbBlockBegin
  2
*D46
 70
     1
 10
0.0
 20
0.0
 30
0.0
  3
*D46
  1

  0
LINE
  5
7B9
330
66A
100
AcDbEntity
  8
instalacja gazowa
  6
Continuous
 62
     0
370
    -2
100
AcDbLine
 10
8417639.723574781
 20
5761213.947370992
 30
0.0
 11
8417638.185231094
 21
5761214.673531871
 31
0.0
  0
LINE
  5
7BA
330
66A
100
AcDbEntity
  8
instalacja gazowa
  6
Continuous
 62
     0
370
    -2
100
AcDbLine
 10
8417639.403420706
 20
5761213.269136987
 30
0.0
 11
8417637.865077018
 21
5761213.995297866
 31
0.0
  0
LINE
  5
7BB
330
66A
100
AcDbEntity
  8
instalacja gazowa
  6
Continuous
 62
     0
370
    -2
100
AcDbLine
 10
8417639.392458085
 20
5761214.302717905
 30
0.0
 11
8417639.469295064
 21
5761214.465494068
 31
0.0
  0
LINE
  5
7BC
330
66A
100
AcDbEntity
  8
instalacja gazowa
  6
Continuous
 62
     0
370
    -2
100
AcDbLine
 10
8417638.918630052
 20
5761213.298931576
 30
0.0
 11
8417638.841793072
 21
5761213.136155414
 31
0.0
  0
SOLID
  5
7BD
330
66A
100
AcDbEntity
  8
instalacja gazowa
 62
     0
100
AcDbTrace
 10
8417639.365328724
 20
5761214.315524068
 30
0.0
 11
8417639.419587445
 21
5761214.289911743
 31
0.0
 12
8417639.315621107
 22
5761214.139941744
 32
0.0
 13
8417639.315621107
 23
5761214.139941744
 33
0.0
  0
SOLID
  5
7BE
330
66A
100
AcDbEntity
  8
instalacja gazowa
 62
     0
100
AcDbTrace
 10
8417638.94575941
 20
5761213.286125413
 30
0.0
 11
8417638.891500692
 21
5761213.31173774
 31
0.0
 12
8417638.995467029
 22
5761213.461707739
 32
0.0
 13
8417638.995467029
 23
5761213.461707739
 33
0.0
  0
MTEXT
  5
7BF
330
66A
100
AcDbEntity
  8
instalacja gazowa
 62
     0
100
AcDbMText
 10
8417639.155544069
 20
5761213.800824741
 30
0.0
 40
0.18
 41
0.0
 46
0.0
 71
     5
 72
     1
  1
\A1;0.7500
 73
     1
 44
1.0
  0
POINT
  5
7C0
330
66A
100
AcDbEntity
  8
Defpoints
 62
     0
100
AcDbPoint
 10
8417639.780094283
 20
5761213.920691485
 30
0.0
  0
POINT
  5
7C1
330
66A
100
AcDbEntity
  8
Defpoints
 62
     0
100
AcDbPoint
 10
8417639.459940206
 20
5761213.24245748
 30
0.0
  0
POINT
  5
7C2
330
66A
100
AcDbEntity
  8
Defpoints
 62
     0
100
AcDbPoint
 10
8417638.995467029
 20
5761213.461707739
 30
0.0
  0
ENDBLK
  5
676
330
66A
100
AcDbEntity
  8
0
100
AcDbBlockEnd
  0
BLOCK
  5
682
330
677
100
AcDbEntity
  8
0
100
AcDbBlockBegin
  2
*D47
 70
     1
 10
0.0
 20
0.0
 30
0.0
  3
*D47
  1

  0
LINE
  5
7C3
330
677
100
AcDbEntity
  8
instalacja gazowa
  6
Continuous
 62
     0
370
    -2
100
AcDbLine
 10
8417638.640072121
 20
5761170.625588206
 30
0.0
 11
8417635.973159487
 21
5761170.896682052
 31
0.0
  0
LINE
  5
7C4
330
677
100
AcDbEntity
  8
instalacja gazowa
  6
Continuous
 62
     0
370
    -2
100
AcDbLine
 10
8417637.782569117
 20
5761162.189817241
 30
0.0
 11
8417635.115656484
 21
5761162.460911086
 31
0.0
  0
LINE
  5
7C5
330
677
100
AcDbEntity
  8
instalacja gazowa
  6
Continuous
 62
     0
370
    -2
100
AcDbLine
 10
8417637.19854771
 20
5761170.591192768
 30
0.0
 11
8417636.806490152
 21
5761166.734287609
 31
0.0
  0
LINE
  5
7C6
330
677
100
AcDbEntity
  8
instalacja gazowa
  6
Continuous
 62
     0
370
    -2
100
AcDbLine
 10
8417636.377451392
 20
5761162.513576175
 30
0.0
 11
8417636.769508948
 21
5761166.370481333
 31
0.0
  0
SOLID
  5
7C7
330
677
100
AcDbEntity
  8
instalacja gazowa
 62
     0
100
AcDbTrace
 10
8417637.228393907
 20
5761170.588158878
 30
0.0
 11
8417637.168701514
 21
5761170.594226659
 31
0.0
 12
8417637.216751051
 22
5761170.770269955
 32
0.0
 13
8417637.216751051
 23
5761170.770269955
 33
0.0
  0
SOLID
  5
7C8
330
677
100
AcDbEntity
  8
instalacja gazowa
 62
     0
100
AcDbTrace
 10
8417636.347605194
 20
5761162.516610065
 30
0.0
 11
8417636.407297589
 21
5761162.510542285
 31
0.0
 12
8417636.359248049
 22
5761162.334498989
 32
0.0
 13
8417636.359248049
 23
5761162.334498989
 33
0.0
  0
MTEXT
  5
7C9
330
677
100
AcDbEntity
  8
instalacja gazowa
 62
     0
100
AcDbMText
 10
8417636.787999551
 20
5761166.552384471
 30
0.0
 40
0.18
 41
0.0
 46
0.0
 71
     5
 72
     1
  1
\A1;8.4792
 73
     1
 44
1.0
  0
POINT
  5
7CA
330
677
100
AcDbEntity
  8
Defpoints
 62
     0
100
AcDbPoint
 10
8417638.7022517
 20
5761170.619267601
 30
0.0
  0
POINT
  5
7CB
330
677
100
AcDbEntity
  8
Defpoints
 62
     0
100
AcDbPoint
 10
8417637.844748696
 20
5761162.183496636
 30
0.0
  0
POINT
  5
7CC
330
677
100
AcDbEntity
  8
Defpoints
 62
     0
100
AcDbPoint
 10
8417636.359248049
 20
5761162.334498989
 30
0.0
  0
ENDBLK
  5
683
330
677
100
AcDbEntity
  8
0
100
AcDbBlockEnd
  0
BLOCK
  5
68F
330
684
100
AcDbEntity
  8
0
100
AcDbBlockBegin
  2
*D48
 70
     1
 10
0.0
 20
0.0
 30
0.0
  3
*D48
  1

  0
LINE
  5
7CD
330
684
100
AcDbEntity
  8
instalacja gazowa
  6
Continuous
 62
     0
370
    -2
100
AcDbLine
 10
8417648.430638688
 20
5761169.134088821
 30
0.0
 11
8417646.033622409
 21
5761169.399154483
 31
0.0
  0
LINE
  5
7CE
330
684
100
AcDbEntity
  8
instalacja gazowa
  6
Continuous
 62
     0
370
    -2
100
AcDbLine
 10
8417647.563563594
 20
5761161.29303879
 30
0.0
 11
8417645.166547314
 21
5761161.558104453
 31
0.0
  0
LINE
  5
7CF
330
684
100
AcDbEntity
  8
instalacja gazowa
  6
Continuous
 62
     0
370
    -2
100
AcDbLine
 10
8417647.25626505
 20
5761169.082855623
 30
0.0
 11
8417646.862626702
 21
5761165.523143192
 31
0.0
  0
LINE
  5
7D0
330
684
100
AcDbEntity
  8
instalacja gazowa
  6
Continuous
 62
     0
370
    -2
100
AcDbLine
 10
8417646.428758109
 20
5761161.599624487
 30
0.0
 11
8417646.822396458
 21
5761165.159336917
 31
0.0
  0
SOLID
  5
7D1
330
684
100
AcDbEntity
  8
instalacja gazowa
 62
     0
100
AcDbTrace
 10
8417647.28608329
 20
5761169.079558277
 30
0.0
 11
8417647.22644681
 21
5761169.086152968
 31
0.0
 12
8417647.276049127
 22
5761169.26176507
 32
0.0
 13
8417647.276049127
 23
5761169.26176507
 33
0.0
  0
SOLID
  5
7D2
330
684
100
AcDbEntity
  8
instalacja gazowa
 62
     0
100
AcDbTrace
 10
8417646.398939869
 20
5761161.602921832
 30
0.0
 11
8417646.458576349
 21
5761161.59632714
 31
0.0
 12
8417646.408974032
 22
5761161.42071504
 32
0.0
 13
8417646.408974032
 23
5761161.42071504
 33
0.0
  0
MTEXT
  5
7D3
330
684
100
AcDbEntity
  8
instalacja gazowa
 62
     0
100
AcDbMText
 10
8417646.84251158
 20
5761165.341240054
 30
0.0
 40
0.18
 41
0.0
 46
0.0
 71
     5
 72
     1
  1
\A1;7.8888
 73
     1
 44
1.0
  0
POINT
  5
7D4
330
684
100
AcDbEntity
  8
Defpoints
 62
     0
100
AcDbPoint
 10
8417648.492760022
 20
5761169.127219351
 30
0.0
  0
POINT
  5
7D5
330
684
100
AcDbEntity
  8
Defpoints
 62
     0
100
AcDbPoint
 10
8417647.625684931
 20
5761161.28616932
 30
0.0
  0
POINT
  5
7D6
330
684
100
AcDbEntity
  8
Defpoints
 62
     0
100
AcDbPoint
 10
8417646.408974032
 20
5761161.42071504
 30
0.0
  0
ENDBLK
  5
690
330
684
100
AcDbEntity
  8
0
100
AcDbBlockEnd
  0
BLOCK
  5
69C
330
691
100
AcDbEntity
  8
0
100
AcDbBlockBegin
  2
*D49
 70
     1
 10
0.0
 20
0.0
 30
0.0
  3
*D49
  1

  0
LINE
  5
7D7
330
691
100
AcDbEntity
  8
instalacja gazowa
  6
Continuous
 62
     0
370
    -2
100
AcDbLine
 10
8417629.946763387
 20
5761215.564401332
 30
0.0
 11
8417624.61221629
 21
5761218.082524853
 31
0.0
  0
LINE
  5
7D8
330
691
100
AcDbEntity
  8
instalacja gazowa
  6
Continuous
 62
     0
370
    -2
100
AcDbLine
 10
8417619.381678846
 20
5761193.182679138
 30
0.0
 11
8417614.047131751
 21
5761195.700802657
 31
0.0
  0
LINE
  5
7D9
330
691
100
AcDbEntity
  8
instalacja gazowa
  6
Continuous
 62
     0
370
    -2
100
AcDbLine
 10
8417625.665769323
 20
5761217.386158562
 30
0.0
 11
8417620.545929722
 21
5761206.539976764
 31
0.0
  0
LINE
  5
7DA
330
691
100
AcDbEntity
  8
instalacja gazowa
  6
Continuous
 62
     0
370
    -2
100
AcDbLine
 10
8417615.254358741
 20
5761195.329988691
 30
0.0
 11
8417620.374198339
 21
5761206.176170487
 31
0.0
  0
SOLID
  5
7DB
330
691
100
AcDbEntity
  8
instalacja gazowa
 62
     0
100
AcDbTrace
 10
8417625.692898681
 20
5761217.373352398
 30
0.0
 11
8417625.638639963
 21
5761217.398964724
 31
0.0
 12
8417625.742606301
 22
5761217.548934723
 32
0.0
 13
8417625.742606301
 23
5761217.548934723
 33
0.0
  0
SOLID
  5
7DC
330
691
100
AcDbEntity
  8
instalacja gazowa
 62
     0
100
AcDbTrace
 10
8417615.227229381
 20
5761195.342794853
 30
0.0
 11
8417615.2814881
 21
5761195.317182527
 31
0.0
 12
8417615.177521762
 22
5761195.167212528
 32
0.0
 13
8417615.177521762
 23
5761195.167212528
 33
0.0
  0
MTEXT
  5
7DD
330
691
100
AcDbEntity
  8
instalacja gazowa
 62
     0
100
AcDbMText
 10
8417620.46006403
 20
5761206.358073626
 30
0.0
 40
0.18
 41
0.0
 46
0.0
 71
     5
 72
     1
  1
\A1;24.7500
 73
     1
 44
1.0
  0
POINT
  5
7DE
330
691
100
AcDbEntity
  8
Defpoints
 62
     0
100
AcDbPoint
 10
8417630.003282889
 20
5761215.537721827
 30
0.0
  0
POINT
  5
7DF
330
691
100
AcDbEntity
  8
Defpoints
 62
     0
100
AcDbPoint
 10
8417619.438198348
 20
5761193.155999632
 30
0.0
  0
POINT
  5
7E0
330
691
100
AcDbEntity
  8
Defpoints
 62
     0
100
AcDbPoint
 10
8417615.177521762
 20
5761195.167212528
 30
0.0
  0
ENDBLK
  5
69D
330
691
100
AcDbEntity
  8
0
100
AcDbBlockEnd
  0
BLOCK
  5
6A9
330
69E
100
AcDbEntity
  8
0
100
AcDbBlockBegin
  2
*D50
 70
     1
 10
0.0
 20
0.0
 30
0.0
  3
*D50
  1

  0
LINE
  5
7E1
330
69E
100
AcDbEntity
  8
instalacja gazowa
  6
Continuous
 62
     0
370
    -2
100
AcDbLine
 10
8417619.411518842
 20
5761193.099480131
 30
0.0
 11
8417618.406531513
 21
5761190.970453419
 31
0.0
  0
LINE
  5
7E2
330
69E
100
AcDbEntity
  8
instalacja gazowa
  6
Continuous
 62
     0
370
    -2
100
AcDbLine
 10
8417626.646014909
 20
5761189.68450331
 30
0.0
 11
8417625.641027578
 21
5761187.555476599
 31
0.0
  0
LINE
  5
7E3
330
69E
100
AcDbEntity
  8
instalacja gazowa
  6
Continuous
 62
     0
370
    -2
100
AcDbLine
 10
8417619.102897802
 20
5761192.024006451
 30
0.0
 11
8417622.172014926
 21
5761190.575258157
 31
0.0
  0
LINE
  5
7E4
330
69E
100
AcDbEntity
  8
instalacja gazowa
  6
Continuous
 62
     0
370
    -2
100
AcDbLine
 10
8417626.011841546
 20
5761188.762703588
 30
0.0
 11
8417622.942724424
 21
5761190.211451881
 31
0.0
  0
SOLID
  5
7E5
330
69E
100
AcDbEntity
  8
instalacja gazowa
 62
     0
100
AcDbTrace
 10
8417619.115703965
 20
5761192.051135812
 30
0.0
 11
8417619.09009164
 21
5761191.996877092
 31
0.0
 12
8417618.940121641
 22
5761192.100843429
 32
0.0
 13
8417618.940121641
 23
5761192.100843429
 33
0.0
  0
SOLID
  5
7E6
330
69E
100
AcDbEntity
  8
instalacja gazowa
 62
     0
100
AcDbTrace
 10
8417625.999035385
 20
5761188.735574227
 30
0.0
 11
8417626.024647709
 21
5761188.789832949
 31
0.0
 12
8417626.174617707
 22
5761188.685866609
 32
0.0
 13
8417626.174617707
 23
5761188.685866609
 33
0.0
  0
MTEXT
  5
7E7
330
69E
100
AcDbEntity
  8
instalacja gazowa
 62
     0
100
AcDbMText
 10
8417622.557369677
 20
5761190.393355019
 30
0.0
 40
0.18
 41
0.0
 46
0.0
 71
     5
 72
     1
  1
\A1;8.0000
 73
     1
 44
1.0
  0
POINT
  5
7E8
330
69E
100
AcDbEntity
  8
Defpoints
 62
     0
100
AcDbPoint
 10
8417619.438198348
 20
5761193.155999632
 30
0.0
  0
POINT
  5
7E9
330
69E
100
AcDbEntity
  8
Defpoints
 62
     0
100
AcDbPoint
 10
8417626.672694416
 20
5761189.741022811
 30
0.0
  0
POINT
  5
7EA
330
69E
100
AcDbEntity
  8
Defpoints
 62
     0
100
AcDbPoint
 10
8417626.174617707
 20
5761188.685866609
 30
0.0
  0
ENDBLK
  5
6AA
330
69E
100
AcDbEntity
  8
0
100
AcDbBlockEnd
  0
BLOCK
  5
6B6
330
6AB
100
AcDbEntity
  8
0
100
AcDbBlockBegin
  2
*D51
 70
     1
 10
0.0
 20
0.0
 30
0.0
  3
*D51
  1

  0
LINE
  5
7EB
330
6AB
100
AcDbEntity
  8
instalacja gazowa
  6
Continuous
 62
     0
370
    -2
100
AcDbLine
 10
8417617.735482791
 20
5761186.144389417
 30
0.0
 11
8417619.171784521
 21
5761185.754463544
 31
0.0
  0
LINE
  5
7EC
330
6AB
100
AcDbEntity
  8
instalacja gazowa
  6
Continuous
 62
     0
370
    -2
100
AcDbLine
 10
8417619.818669232
 20
5761193.817858886
 30
0.0
 11
8417621.254970962
 21
5761193.427933014
 31
0.0
  0
LINE
  5
7ED
330
6AB
100
AcDbEntity
  8
instalacja gazowa
  6
Continuous
 62
     0
370
    -2
100
AcDbLine
 10
8417618.012607617
 20
5761186.255670993
 30
0.0
 11
8417618.957658657
 21
5761189.73679018
 31
0.0
  0
LINE
  5
7EE
330
6AB
100
AcDbEntity
  8
instalacja gazowa
  6
Continuous
 62
     0
370
    -2
100
AcDbLine
 10
8417620.001475487
 20
5761193.581715643
 30
0.0
 11
8417619.056424449
 21
5761190.100596455
 31
0.0
  0
SOLID
  5
7EF
330
6AB
100
AcDbEntity
  8
instalacja gazowa
 62
     0
100
AcDbTrace
 10
8417617.983655549
 20
5761186.263530874
 30
0.0
 11
8417618.041559686
 21
5761186.247811113
 31
0.0
 12
8417617.96544833
 22
5761186.081958583
 32
0.0
 13
8417617.96544833
 23
5761186.081958583
 33
0.0
  0
SOLID
  5
7F0
330
6AB
100
AcDbEntity
  8
instalacja gazowa
 62
     0
100
AcDbTrace
 10
8417620.030427555
 20
5761193.573855762
 30
0.0
 11
8417619.97252342
 21
5761193.589575523
 31
0.0
 12
8417620.048634773
 22
5761193.755428053
 32
0.0
 13
8417620.048634773
 23
5761193.755428053
 33
0.0
  0
MTEXT
  5
7F1
330
6AB
100
AcDbEntity
  8
instalacja gazowa
 62
     0
100
AcDbMText
 10
8417619.007041551
 20
5761189.918693317
 30
0.0
 40
0.18
 41
0.0
 46
0.0
 71
     5
 72
     1
  1
\A1;7.9512
 73
     1
 44
1.0
  0
POINT
  5
7F2
330
6AB
100
AcDbEntity
  8
Defpoints
 62
     0
100
AcDbPoint
 10
8417617.675165981
 20
5761186.160764168
 30
0.0
  0
POINT
  5
7F3
330
6AB
100
AcDbEntity
  8
Defpoints
 62
     0
100
AcDbPoint
 10
8417619.758352422
 20
5761193.834233639
 30
0.0
  0
POINT
  5
7F4
330
6AB
100
AcDbEntity
  8
Defpoints
 62
     0
100
AcDbPoint
 10
8417620.048634773
 20
5761193.755428053
 30
0.0
  0
ENDBLK
  5
6B7
330
6AB
100
AcDbEntity
  8
0
100
AcDbBlockEnd
  0
BLOCK
  5
6C3
330
6B8
100
AcDbEntity
  8
0
100
AcDbBlockBegin
  2
*D52
 70
     1
 10
0.0
 20
0.0
 30
0.0
  3
*D52
  1

  0
LINE
  5
8A4
330
6B8
100
AcDbEntity
  8
instalacja gazowa
  6
Continuous
 62
     0
370
    -2
100
AcDbLine
 10
8417617.7011459
 20
5761186.103919641
 30
0.0
 11
8417618.204785398
 21
5761185.001944609
 31
0.0
  0
LINE
  5
8A5
330
6B8
100
AcDbEntity
  8
instalacja gazowa
  6
Continuous
 62
     0
370
    -2
100
AcDbLine
 10
8417627.018828333
 20
5761190.362412312
 30
0.0
 11
8417627.522467833
 21
5761189.26043728
 31
0.0
  0
LINE
  5
8A6
330
6B8
100
AcDbEntity
  8
instalacja gazowa
  6
Continuous
 62
     0
370
    -2
100
AcDbLine
 10
8417617.848900722
 20
5761186.213656657
 30
0.0
 11
8417621.946021403
 21
5761188.08617791
 31
0.0
  0
LINE
  5
8A7
330
6B8
100
AcDbEntity
  8
instalacja gazowa
  6
Continuous
 62
     0
370
    -2
100
AcDbLine
 10
8417626.839158799
 20
5761190.322505441
 30
0.0
 11
8417622.742038117
 21
5761188.449984187
 31
0.0
  0
SOLID
  5
8A8
330
6B8
100
AcDbEntity
  8
instalacja gazowa
 62
     0
100
AcDbTrace
 10
8417617.836430396
 20
5761186.240942018
 30
0.0
 11
8417617.861371043
 21
5761186.186371294
 31
0.0
 12
8417617.685188542
 22
5761186.138834712
 32
0.0
 13
8417617.685188542
 23
5761186.138834712
 33
0.0
  0
SOLID
  5
8A9
330
6B8
100
AcDbEntity
  8
instalacja gazowa
 62
     0
100
AcDbTrace
 10
8417626.851629123
 20
5761190.295220078
 30
0.0
 11
8417626.826688476
 21
5761190.349790803
 31
0.0
 12
8417627.002870977
 22
5761190.397327384
 32
0.0
 13
8417627.002870977
 23
5761190.397327384
 33
0.0
  0
MTEXT
  5
8AA
330
6B8
100
AcDbEntity
  8
instalacja gazowa
 62
     0
100
AcDbMText
 10
8417622.34402976
 20
5761188.268081049
 30
0.0
 40
0.18
 41
0.0
 46
0.0
 71
     5
 72
     1
  1
\A1;10.2447
 73
     1
 44
1.0
  0
POINT
  5
8AB
330
6B8
100
AcDbEntity
  8
Defpoints
 62
     0
100
AcDbPoint
 10
8417617.675166058
 20
5761186.160764147
 30
0.0
  0
POINT
  5
8AC
330
6B8
100
AcDbEntity
  8
Defpoints
 62
     0
100
AcDbPoint
 10
8417626.992848491
 20
5761190.419256818
 30
0.0
  0
POINT
  5
8AD
330
6B8
100
AcDbEntity
  8
Defpoints
 62
     0
100
AcDbPoint
 10
8417627.002870977
 20
5761190.397327384
 30
0.0
  0
ENDBLK
  5
6C4
330
6B8
100
AcDbEntity
  8
0
100
AcDbBlockEnd
  0
BLOCK
  5
6D0
330
6C5
100
AcDbEntity
  8
0
100
AcDbBlockBegin
  2
*D53
 70
     1
 10
0.0
 20
0.0
 30
0.0
  3
*D53
  1

  0
LINE
  5
7FF
330
6C5
100
AcDbEntity
  8
instalacja gazowa
  6
Continuous
 62
     0
370
    -2
100
AcDbLine
 10
8417625.666635396
 20
5761184.021875725
 30
0.0
 11
8417624.635749078
 21
5761181.837983008
 31
0.0
  0
LINE
  5
800
330
6C5
100
AcDbEntity
  8
instalacja gazowa
  6
Continuous
 62
     0
370
    -2
100
AcDbLine
 10
8417632.901131456
 20
5761180.606898907
 30
0.0
 11
8417631.870245138
 21
5761178.423006189
 31
0.0
  0
LINE
  5
801
330
6C5
100
AcDbEntity
  8
instalacja gazowa
  6
Continuous
 62
     0
370
    -2
100
AcDbLine
 10
8417625.332115367
 20
5761182.89153604
 30
0.0
 11
8417628.401232489
 21
5761181.442787745
 31
0.0
  0
LINE
  5
802
330
6C5
100
AcDbEntity
  8
instalacja gazowa
  6
Continuous
 62
     0
370
    -2
100
AcDbLine
 10
8417632.241059106
 20
5761179.630233177
 30
0.0
 11
8417629.171941985
 21
5761181.07898147
 31
0.0
  0
SOLID
  5
803
330
6C5
100
AcDbEntity
  8
instalacja gazowa
 62
     0
100
AcDbTrace
 10
8417625.34492153
 20
5761182.918665399
 30
0.0
 11
8417625.319309205
 21
5761182.864406679
 31
0.0
 12
8417625.169339206
 22
5761182.968373017
 32
0.0
 13
8417625.169339206
 23
5761182.968373017
 33
0.0
  0
SOLID
  5
804
330
6C5
100
AcDbEntity
  8
instalacja gazowa
 62
     0
100
AcDbTrace
 10
8417632.228252944
 20
5761179.603103816
 30
0.0
 11
8417632.253865269
 21
5761179.657362537
 31
0.0
 12
8417632.403835266
 22
5761179.553396199
 32
0.0
 13
8417632.403835266
 23
5761179.553396199
 33
0.0
  0
MTEXT
  5
805
330
6C5
100
AcDbEntity
  8
instalacja gazowa
 62
     0
100
AcDbMText
 10
8417628.786587236
 20
5761181.260884608
 30
0.0
 40
0.18
 41
0.0
 46
0.0
 71
     5
 72
     1
  1
\A1;8.0000
 73
     1
 44
1.0
  0
POINT
  5
806
330
6C5
100
AcDbEntity
  8
Defpoints
 62
     0
100
AcDbPoint
 10
8417625.693314903
 20
5761184.078395226
 30
0.0
  0
POINT
  5
807
330
6C5
100
AcDbEntity
  8
Defpoints
 62
     0
100
AcDbPoint
 10
8417632.927810963
 20
5761180.663418407
 30
0.0
  0
POINT
  5
808
330
6C5
100
AcDbEntity
  8
Defpoints
 62
     0
100
AcDbPoint
 10
8417632.403835266
 20
5761179.553396199
 30
0.0
  0
ENDBLK
  5
6D1
330
6C5
100
AcDbEntity
  8
0
100
AcDbBlockEnd
  0
BLOCK
  5
6DD
330
6D2
100
AcDbEntity
  8
0
100
AcDbBlockBegin
  2
*D54
 70
     1
 10
0.0
 20
0.0
 30
0.0
  3
*D54
  1

  0
LINE
  5
809
330
6D2
100
AcDbEntity
  8
instalacja gazowa
  6
Continuous
 62
     0
370
    -2
100
AcDbLine
 10
8417639.723574781
 20
5761213.947370992
 30
0.0
 11
8417637.950801914
 21
5761214.784191995
 31
0.0
  0
LINE
  5
80A
330
6D2
100
AcDbEntity
  8
instalacja gazowa
  6
Continuous
 62
     0
370
    -2
100
AcDbLine
 10
8417625.636795403
 20
5761184.105074732
 30
0.0
 11
8417623.864022534
 21
5761184.941895735
 31
0.0
  0
LINE
  5
80B
330
6D2
100
AcDbEntity
  8
instalacja gazowa
  6
Continuous
 62
     0
370
    -2
100
AcDbLine
 10
8417639.004354946
 20
5761214.087825704
 30
0.0
 11
8417632.123696904
 21
5761199.511418266
 31
0.0
  0
LINE
  5
80C
330
6D2
100
AcDbEntity
  8
instalacja gazowa
  6
Continuous
 62
     0
370
    -2
100
AcDbLine
 10
8417625.071249524
 20
5761184.571081769
 30
0.0
 11
8417631.951907566
 21
5761199.147489207
 31
0.0
  0
SOLID
  5
80D
330
6D2
100
AcDbEntity
  8
instalacja gazowa
 62
     0
100
AcDbTrace
 10
8417639.031484306
 20
5761214.075019542
 30
0.0
 11
8417638.977225587
 21
5761214.100631868
 31
0.0
 12
8417639.081191925
 22
5761214.250601866
 32
0.0
 13
8417639.081191925
 23
5761214.250601866
 33
0.0
  0
SOLID
  5
80E
330
6D2
100
AcDbEntity
  8
instalacja gazowa
 62
     0
100
AcDbTrace
 10
8417625.044120164
 20
5761184.583887931
 30
0.0
 11
8417625.098378884
 21
5761184.558275606
 31
0.0
 12
8417624.994412545
 22
5761184.408305608
 32
0.0
 13
8417624.994412545
 23
5761184.408305608
 33
0.0
  0
MTEXT
  5
80F
330
6D2
100
AcDbEntity
  8
instalacja gazowa
 62
     0
100
AcDbMText
 10
8417632.037802233
 20
5761199.329453736
 30
0.0
 40
0.18
 41
0.0
 46
0.0
 71
     5
 72
     1
  1
\A1;33.0000
 73
     1
 44
1.0
  0
POINT
  5
810
330
6D2
100
AcDbEntity
  8
Defpoints
 62
     0
100
AcDbPoint
 10
8417639.780094283
 20
5761213.920691485
 30
0.0
  0
POINT
  5
811
330
6D2
100
AcDbEntity
  8
Defpoints
 62
     0
100
AcDbPoint
 10
8417625.693314903
 20
5761184.078395226
 30
0.0
  0
POINT
  5
812
330
6D2
100
AcDbEntity
  8
Defpoints
 62
     0
100
AcDbPoint
 10
8417624.994412545
 20
5761184.408305608
 30
0.0
  0
ENDBLK
  5
6DE
330
6D2
100
AcDbEntity
  8
0
100
AcDbBlockEnd
  0
BLOCK
  5
6EA
330
6DF
100
AcDbEntity
  8
0
100
AcDbBlockBegin
  2
*D55
 70
     1
 10
0.0
 20
0.0
 30
0.0
  3
*D55
  1

  0
LINE
  5
8AE
330
6DF
100
AcDbEntity
  8
instalacja gazowa
  6
Continuous
 62
     0
370
    -2
100
AcDbLine
 10
8417626.727907761
 20
5761189.784073178
 30
0.0
 11
8417627.234818381
 21
5761190.857943686
 31
0.0
  0
LINE
  5
8AF
330
6DF
100
AcDbEntity
  8
instalacja gazowa
  6
Continuous
 62
     0
370
    -2
100
AcDbLine
 10
8417628.084375769
 20
5761189.143765027
 30
0.0
 11
8417628.591286389
 21
5761190.217635535
 31
0.0
  0
LINE
  5
8B0
330
6DF
100
AcDbEntity
  8
instalacja gazowa
  6
Continuous
 62
     0
370
    -2
100
AcDbLine
 10
8417626.864004414
 20
5761189.650716696
 30
0.0
 11
8417626.994107509
 21
5761189.589302737
 31
0.0
  0
LINE
  5
8B1
330
6DF
100
AcDbEntity
  8
instalacja gazowa
  6
Continuous
 62
     0
370
    -2
100
AcDbLine
 10
8417627.894920101
 20
5761189.164082502
 30
0.0
 11
8417627.764817007
 21
5761189.225496462
 31
0.0
  0
SOLID
  5
8B2
330
6DF
100
AcDbEntity
  8
instalacja gazowa
 62
     0
100
AcDbTrace
 10
8417626.876810578
 20
5761189.677846057
 30
0.0
 11
8417626.851198253
 21
5761189.623587337
 31
0.0
 12
8417626.701228254
 22
5761189.727553674
 32
0.0
 13
8417626.701228254
 23
5761189.727553674
 33
0.0
  0
SOLID
  5
8B3
330
6DF
100
AcDbEntity
  8
instalacja gazowa
 62
     0
100
AcDbTrace
 10
8417627.88211394
 20
5761189.136953142
 30
0.0
 11
8417627.907726265
 21
5761189.191211863
 31
0.0
 12
8417628.057696262
 22
5761189.087245524
 32
0.0
 13
8417628.057696262
 23
5761189.087245524
 33
0.0
  0
MTEXT
  5
8B4
330
6DF
100
AcDbEntity
  8
instalacja gazowa
 62
     0
100
AcDbMText
 10
8417627.379462258
 20
5761189.407399599
 30
0.0
 40
0.18
 41
0.0
 46
0.0
 71
     5
 72
     1
  1
\A1;1.5000
 73
     1
 44
1.0
  0
POINT
  5
8B5
330
6DF
100
AcDbEntity
  8
Defpoints
 62
     0
100
AcDbPoint
 10
8417626.701228254
 20
5761189.727553677
 30
0.0
  0
POINT
  5
8B6
330
6DF
100
AcDbEntity
  8
Defpoints
 62
     0
100
AcDbPoint
 10
8417628.057696262
 20
5761189.087245526
 30
0.0
  0
POINT
  5
8B7
330
6DF
100
AcDbEntity
  8
Defpoints
 62
     0
100
AcDbPoint
 10
8417628.057696262
 20
5761189.087245524
 30
0.0
  0
ENDBLK
  5
6EB
330
6DF
100
AcDbEntity
  8
0
100
AcDbBlockEnd
  0
BLOCK
  5
6F7
330
6EC
100
AcDbEntity
  8
0
100
AcDbBlockBegin
  2
*D56
 70
     1
 10
0.0
 20
0.0
 30
0.0
  3
*D56
  1

  0
LINE
  5
81D
330
6EC
100
AcDbEntity
  8
instalacja gazowa
  6
Continuous
 62
     0
370
    -2
100
AcDbLine
 10
8417639.678451905
 20
5761194.96250387
 30
0.0
 11
8417640.258409265
 21
5761196.15185762
 31
0.0
  0
LINE
  5
81E
330
6EC
100
AcDbEntity
  8
instalacja gazowa
  6
Continuous
 62
     0
370
    -2
100
AcDbLine
 10
8417641.026643138
 20
5761194.305093551
 30
0.0
 11
8417641.606600499
 21
5761195.494447301
 31
0.0
  0
LINE
  5
81F
330
6EC
100
AcDbEntity
  8
instalacja gazowa
  6
Continuous
 62
     0
370
    -2
100
AcDbLine
 10
8417639.872333801
 20
5761194.949424365
 30
0.0
 11
8417640.011599761
 21
5761194.881514949
 31
0.0
  0
LINE
  5
820
330
6EC
100
AcDbEntity
  8
instalacja gazowa
  6
Continuous
 62
     0
370
    -2
100
AcDbLine
 10
8417640.896945327
 20
5761194.449799257
 30
0.0
 11
8417640.757679365
 21
5761194.517708673
 31
0.0
  0
SOLID
  5
821
330
6EC
100
AcDbEntity
  8
instalacja gazowa
 62
     0
100
AcDbTrace
 10
8417639.885482568
 20
5761194.97638934
 30
0.0
 11
8417639.859185033
 21
5761194.922459388
 31
0.0
 12
8417639.710543948
 22
5761195.028316969
 32
0.0
 13
8417639.710543948
 23
5761195.028316969
 33
0.0
  0
SOLID
  5
822
330
6EC
100
AcDbEntity
  8
instalacja gazowa
 62
     0
100
AcDbTrace
 10
8417640.883796559
 20
5761194.422834281
 30
0.0
 11
8417640.910094094
 21
5761194.476764232
 31
0.0
 12
8417641.058735181
 22
5761194.37090665
 32
0.0
 13
8417641.058735181
 23
5761194.37090665
 33
0.0
  0
MTEXT
  5
823
330
6EC
100
AcDbEntity
  8
instalacja gazowa
 62
     0
100
AcDbMText
 10
8417640.384639565
 20
5761194.699611811
 30
0.0
 40
0.18
 41
0.0
 46
0.0
 71
     5
 72
     1
  1
\A1;1.4999
 73
     1
 44
1.0
  0
POINT
  5
824
330
6EC
100
AcDbEntity
  8
Defpoints
 62
     0
100
AcDbPoint
 10
8417639.651058639
 20
5761194.906326838
 30
0.0
  0
POINT
  5
825
330
6EC
100
AcDbEntity
  8
Defpoints
 62
     0
100
AcDbPoint
 10
8417640.999249872
 20
5761194.248916519
 30
0.0
  0
POINT
  5
826
330
6EC
100
AcDbEntity
  8
Defpoints
 62
     0
100
AcDbPoint
 10
8417641.058735181
 20
5761194.37090665
 30
0.0
  0
ENDBLK
  5
6F8
330
6EC
100
AcDbEntity
  8
0
100
AcDbBlockEnd
  0
BLOCK
  5
704
330
6F9
100
AcDbEntity
  8
0
100
AcDbBlockBegin
  2
*D57
 70
     1
 10
0.0
 20
0.0
 30
0.0
  3
*D57
  1

  0
LINE
  5
827
330
6F9
100
AcDbEntity
  8
_OBRYS_POD_ZB
  6
Continuous
 62
     0
370
    -2
100
AcDbLine
 10
8417631.074410033
 20
5761199.066928846
 30
0.0
 11
8417631.681461386
 21
5761200.377018221
 31
0.0
  0
LINE
  5
828
330
6F9
100
AcDbEntity
  8
_OBRYS_POD_ZB
  6
Continuous
 62
     0
370
    -2
100
AcDbLine
 10
8417632.464065171
 20
5761198.423009396
 30
0.0
 11
8417633.071116524
 21
5761199.733098772
 31
0.0
  0
LINE
  5
829
330
6F9
100
AcDbEntity
  8
_OBRYS_POD_ZB
  6
Continuous
 62
     0
370
    -2
100
AcDbLine
 10
8417631.319249103
 20
5761199.167182589
 30
0.0
 11
8417631.45805655
 21
5761199.102863884
 31
0.0
  0
LINE
  5
82A
330
6F9
100
AcDbEntity
  8
_OBRYS_POD_ZB
  6
Continuous
 62
     0
370
    -2
100
AcDbLine
 10
8417632.382266406
 20
5761198.674616123
 30
0.0
 11
8417632.24345896
 21
5761198.738934827
 31
0.0
  0
SOLID
  5
82B
330
6F9
100
AcDbEntity
  8
_OBRYS_POD_ZB
 62
     0
100
AcDbTrace
 10
8417631.331861851
 20
5761199.194402409
 30
0.0
 11
8417631.306636355
 21
5761199.139962769
 31
0.0
 12
8417631.155930186
 22
5761199.242859081
 32
0.0
 13
8417631.155930186
 23
5761199.242859081
 33
0.0
  0
SOLID
  5
82C
330
6F9
100
AcDbEntity
  8
_OBRYS_POD_ZB
 62
     0
100
AcDbTrace
 10
8417632.369653658
 20
5761198.647396304
 30
0.0
 11
8417632.394879154
 21
5761198.701835943
 31
0.0
 12
8417632.545585323
 22
5761198.598939631
 32
0.0
 13
8417632.545585323
 23
5761198.598939631
 33
0.0
  0
MTEXT
  5
82D
330
6F9
100
AcDbEntity
  8
_OBRYS_POD_ZB
 62
     0
100
AcDbMText
 10
8417631.850757755
 20
5761198.920899357
 30
0.0
 40
0.18
 41
0.0
 46
0.0
 71
     5
 72
     1
  1
\A1;1.5316
 73
     1
 44
1.0
  0
POINT
  5
82E
330
6F9
100
AcDbEntity
  8
Defpoints
 62
     0
100
AcDbPoint
 10
8417631.048133472
 20
5761199.01022089
 30
0.0
  0
POINT
  5
82F
330
6F9
100
AcDbEntity
  8
Defpoints
 62
     0
100
AcDbPoint
 10
8417632.43778861
 20
5761198.36630144
 30
0.0
  0
POINT
  5
830
330
6F9
100
AcDbEntity
  8
Defpoints
 62
     0
100
AcDbPoint
 10
8417632.545585323
 20
5761198.598939631
 30
0.0
  0
ENDBLK
  5
705
330
6F9
100
AcDbEntity
  8
0
100
AcDbBlockEnd
  0
BLOCK
  5
711
330
706
100
AcDbEntity
  8
0
100
AcDbBlockBegin
  2
*D58
 70
     1
 10
0.0
 20
0.0
 30
0.0
  3
*D58
  1

  0
LINE
  5
831
330
706
100
AcDbEntity
  8
instalacja gazowa
  6
Continuous
 62
     0
370
    -2
100
AcDbLine
 10
8417648.273595677
 20
5761191.209392869
 30
0.0
 11
8417648.777954921
 21
5761192.286008884
 31
0.0
  0
LINE
  5
832
330
706
100
AcDbEntity
  8
instalacja gazowa
  6
Continuous
 62
     0
370
    -2
100
AcDbLine
 10
8417649.621855703
 20
5761190.577777056
 30
0.0
 11
8417650.126214947
 21
5761191.65439307
 31
0.0
  0
LINE
  5
833
330
706
100
AcDbEntity
  8
instalacja gazowa
  6
Continuous
 62
     0
370
    -2
100
AcDbLine
 10
8417648.410675388
 20
5761191.077701879
 30
0.0
 11
8417648.533510934
 21
5761191.020157435
 31
0.0
  0
LINE
  5
834
330
706
100
AcDbEntity
  8
instalacja gazowa
  6
Continuous
 62
     0
370
    -2
100
AcDbLine
 10
8417649.432934794
 20
5761190.598806714
 30
0.0
 11
8417649.310099248
 21
5761190.656351158
 31
0.0
  0
SOLID
  5
835
330
706
100
AcDbEntity
  8
instalacja gazowa
 62
     0
100
AcDbTrace
 10
8417648.423402109
 20
5761191.104868597
 30
0.0
 11
8417648.397948667
 21
5761191.05053516
 31
0.0
 12
8417648.247675078
 22
5761191.154062203
 32
0.0
 13
8417648.247675078
 23
5761191.154062203
 33
0.0
  0
SOLID
  5
836
330
706
100
AcDbEntity
  8
instalacja gazowa
 62
     0
100
AcDbTrace
 10
8417649.420208075
 20
5761190.571639994
 30
0.0
 11
8417649.445661515
 21
5761190.625973433
 31
0.0
 12
8417649.595935104
 22
5761190.52244639
 32
0.0
 13
8417649.595935104
 23
5761190.52244639
 33
0.0
  0
MTEXT
  5
837
330
706
100
AcDbEntity
  8
instalacja gazowa
 62
     0
100
AcDbMText
 10
8417648.921805092
 20
5761190.838254297
 30
0.0
 40
0.18
 41
0.0
 46
0.0
 71
     5
 72
     1
  1
\A1;1.4889
 73
     1
 44
1.0
  0
POINT
  5
838
330
706
100
AcDbEntity
  8
Defpoints
 62
     0
100
AcDbPoint
 10
8417648.247081686
 20
5761191.152795536
 30
0.0
  0
POINT
  5
839
330
706
100
AcDbEntity
  8
Defpoints
 62
     0
100
AcDbPoint
 10
8417649.595341712
 20
5761190.521179721
 30
0.0
  0
POINT
  5
83A
330
706
100
AcDbEntity
  8
Defpoints
 62
     0
100
AcDbPoint
 10
8417649.595935104
 20
5761190.52244639
 30
0.0
  0
ENDBLK
  5
712
330
706
100
AcDbEntity
  8
0
100
AcDbBlockEnd
  0
BLOCK
  5
71E
330
713
100
AcDbEntity
  8
0
100
AcDbBlockBegin
  2
*D59
 70
     1
 10
0.0
 20
0.0
 30
0.0
  3
*D59
  1

  0
LINE
  5
83B
330
713
100
AcDbEntity
  8
_OBRYS_POD_ZB
  6
Continuous
 62
     0
370
    -2
100
AcDbLine
 10
8417654.201199818
 20
5761203.474569153
 30
0.0
 11
8417653.69959544
 21
5761202.398209758
 31
0.0
  0
LINE
  5
83C
330
713
100
AcDbEntity
  8
_OBRYS_POD_ZB
  6
Continuous
 62
     0
370
    -2
100
AcDbLine
 10
8417655.289666168
 20
5761202.960768806
 30
0.0
 11
8417654.78806179
 21
5761201.884409409
 31
0.0
  0
LINE
  5
83D
330
713
100
AcDbEntity
  8
_OBRYS_POD_ZB
  6
Continuous
 62
     0
370
    -2
100
AcDbLine
 10
8417654.064823834
 20
5761203.608056513
 30
0.0
 11
8417653.902047666
 21
5761203.68489348
 31
0.0
  0
LINE
  5
83E
330
713
100
AcDbEntity
  8
_OBRYS_POD_ZB
  6
Continuous
 62
     0
370
    -2
100
AcDbLine
 10
8417655.478842521
 20
5761202.940582234
 30
0.0
 11
8417655.64161869
 21
5761202.863745268
 31
0.0
  0
SOLID
  5
83F
330
713
100
AcDbEntity
  8
_OBRYS_POD_ZB
 62
     0
100
AcDbTrace
 10
8417654.052017674
 20
5761203.580927152
 30
0.0
 11
8417654.077629995
 21
5761203.635185875
 31
0.0
 12
8417654.227600003
 22
5761203.531219547
 32
0.0
 13
8417654.227600003
 23
5761203.531219547
 33
0.0
  0
SOLID
  5
840
330
713
100
AcDbEntity
  8
_OBRYS_POD_ZB
 62
     0
100
AcDbTrace
 10
8417655.491648682
 20
5761202.967711595
 30
0.0
 11
8417655.466036361
 21
5761202.913452872
 31
0.0
 12
8417655.316066353
 22
5761203.0174192
 32
0.0
 13
8417655.316066353
 23
5761203.0174192
 33
0.0
  0
MTEXT
  5
841
330
713
100
AcDbEntity
  8
_OBRYS_POD_ZB
 62
     0
100
AcDbMText
 10
8417654.771833177
 20
5761203.274319373
 30
0.0
 40
0.18
 41
0.0
 46
0.0
 71
     5
 72
     1
  1
\A1;1.2036
 73
     1
 44
1.0
  0
POINT
  5
842
330
713
100
AcDbEntity
  8
Defpoints
 62
     0
100
AcDbPoint
 10
8417654.227600047
 20
5761203.531219644
 30
0.0
  0
POINT
  5
843
330
713
100
AcDbEntity
  8
Defpoints
 62
     0
100
AcDbPoint
 10
8417655.316066397
 20
5761203.017419295
 30
0.0
  0
POINT
  5
844
330
713
100
AcDbEntity
  8
Defpoints
 62
     0
100
AcDbPoint
 10
8417655.316066353
 20
5761203.0174192
 30
0.0
  0
ENDBLK
  5
71F
330
713
100
AcDbEntity
  8
0
100
AcDbBlockEnd
  0
BLOCK
  5
72B
330
720
100
AcDbEntity
  8
0
100
AcDbBlockBegin
  2
*D60
 70
     1
 10
0.0
 20
0.0
 30
0.0
  3
*D60
  1

  0
LINE
  5
845
330
720
100
AcDbEntity
  8
instalacja gazowa
  6
Continuous
 62
     0
370
    -2
100
AcDbLine
 10
8417648.697431905
 20
5761210.703163003
 30
0.0
 11
8417647.091093867
 21
5761211.461419988
 31
0.0
  0
LINE
  5
846
330
720
100
AcDbEntity
  8
instalacja gazowa
  6
Continuous
 62
     0
370
    -2
100
AcDbLine
 10
8417631.088957678
 20
5761173.400292672
 30
0.0
 11
8417629.48261964
 21
5761174.158549659
 31
0.0
  0
LINE
  5
847
330
720
100
AcDbEntity
  8
instalacja gazowa
  6
Continuous
 62
     0
370
    -2
100
AcDbLine
 10
8417648.144646896
 20
5761210.765053699
 30
0.0
 11
8417639.503112452
 21
5761192.458297832
 31
0.0
  0
LINE
  5
848
330
720
100
AcDbEntity
  8
instalacja gazowa
  6
Continuous
 62
     0
370
    -2
100
AcDbLine
 10
8417630.689846628
 20
5761173.787735692
 30
0.0
 11
8417639.331381071
 21
5761192.094491557
 31
0.0
  0
SOLID
  5
849
330
720
100
AcDbEntity
  8
instalacja gazowa
 62
     0
100
AcDbTrace
 10
8417648.171776255
 20
5761210.752247535
 30
0.0
 11
8417648.117517536
 21
5761210.777859862
 31
0.0
 12
8417648.221483876
 22
5761210.927829861
 32
0.0
 13
8417648.221483876
 23
5761210.927829861
 33
0.0
  0
SOLID
  5
84A
330
720
100
AcDbEntity
  8
instalacja gazowa
 62
     0
100
AcDbTrace
 10
8417630.662717268
 20
5761173.800541854
 30
0.0
 11
8417630.716975988
 21
5761173.774929528
 31
0.0
 12
8417630.613009649
 22
5761173.624959529
 32
0.0
 13
8417630.613009649
 23
5761173.624959529
 33
0.0
  0
MTEXT
  5
84B
330
720
100
AcDbEntity
  8
instalacja gazowa
 62
     0
100
AcDbMText
 10
8417639.417246762
 20
5761192.276394694
 30
0.0
 40
0.18
 41
0.0
 46
0.0
 71
     5
 72
     1
  1
\A1;41.2500
 73
     1
 44
1.0
  0
POINT
  5
84C
330
720
100
AcDbEntity
  8
Defpoints
 62
     0
100
AcDbPoint
 10
8417648.753951405
 20
5761210.676483496
 30
0.0
  0
POINT
  5
84D
330
720
100
AcDbEntity
  8
Defpoints
 62
     0
100
AcDbPoint
 10
8417631.14547718
 20
5761173.373613165
 30
0.0
  0
POINT
  5
84E
330
720
100
AcDbEntity
  8
Defpoints
 62
     0
100
AcDbPoint
 10
8417630.613009649
 20
5761173.624959529
 30
0.0
  0
ENDBLK
  5
72C
330
720
100
AcDbEntity
  8
0
100
AcDbBlockEnd
  0
BLOCK
  5
85E
330
852
100
AcDbEntity
  8
instalacja gazowa
100
AcDbBlockBegin
  2
*D61
 70
     1
 10
0.0
 20
0.0
 30
0.0
  3
*D61
  1

  0
LINE
  5
853
330
852
100
AcDbEntity
  8
instalacja gazowa
 62
     0
370
    -2
100
AcDbLine
 10
8417630.781338399
 20
5761198.445025887
 30
0.0
 11
8417630.454880084
 21
5761197.753436603
 31
0.0
  0
LINE
  5
854
330
852
100
AcDbEntity
  8
instalacja gazowa
 62
     0
370
    -2
100
AcDbLine
 10
8417632.166340249
 20
5761197.7912486
 30
0.0
 11
8417631.839881934
 21
5761197.099659316
 31
0.0
  0
LINE
  5
855
330
852
100
AcDbEntity
  8
instalacja gazowa
 62
     0
370
    -2
100
AcDbLine
 10
8417634.634252086
 20
5761197.162869068
 30
0.0
 11
8417643.685082877
 21
5761192.890508273
 31
0.0
  0
LINE
  5
856
330
852
100
AcDbEntity
  8
instalacja gazowa
 62
     0
370
    -2
100
AcDbLine
 10
8417630.988470218
 20
5761198.883826612
 30
0.0
 11
8417632.373472066
 21
5761198.230049323
 31
0.0
  0
LINE
  5
857
330
852
100
AcDbEntity
  8
instalacja gazowa
 62
     0
370
    -2
100
AcDbLine
 10
8417628.727690196
 20
5761199.951006867
 30
0.0
 11
8417626.466910178
 21
5761201.018187124
 31
0.0
  0
SOLID
  5
858
330
852
100
AcDbEntity
  8
instalacja gazowa
 62
     0
100
AcDbTrace
 10
8417628.549826821
 20
5761199.574210198
 30
0.0
 11
8417628.905553574
 21
5761200.327803538
 31
0.0
 12
8417630.988470218
 22
5761198.883826612
 32
0.0
 13
8417630.988470218
 23
5761198.883826612
 33
0.0
  0
SOLID
  5
859
330
852
100
AcDbEntity
  8
instalacja gazowa
 62
     0
100
AcDbTrace
 10
8417634.812115462
 20
5761197.539665738
 30
0.0
 11
8417634.456388711
 21
5761196.786072397
 31
0.0
 12
8417632.373472066
 22
5761198.230049323
 32
0.0
 13
8417632.373472066
 23
5761198.230049323
 33
0.0
  0
MTEXT
  5
85A
330
852
100
AcDbEntity
  8
instalacja gazowa
 62
     0
100
AcDbMText
 10
8417641.198179845
 20
5761196.416920557
 30
0.0
 40
2.5
 41
0.0
 46
0.0
 71
     5
 72
     1
  1
1,53
 11
0.9043120081084678
 21
-0.4268721026148585
 31
0.0
 73
     1
 44
1.0
  0
POINT
  5
85B
330
852
100
AcDbEntity
  8
Defpoints
 62
     0
100
AcDbPoint
 10
8417631.048133467
 20
5761199.010220891
 30
0.0
  0
POINT
  5
85C
330
852
100
AcDbEntity
  8
Defpoints
 62
     0
100
AcDbPoint
 10
8417632.433135315
 20
5761198.356443604
 30
0.0
  0
POINT
  5
85D
330
852
100
AcDbEntity
  8
Defpoints
 62
     0
100
AcDbPoint
 10
8417632.373472066
 20
5761198.230049323
 30
0.0
  0
ENDBLK
  5
85F
330
852
100
AcDbEntity
  8
instalacja gazowa
100
AcDbBlockEnd
  0
BLOCK
  5
88D
330
881
100
AcDbEntity
  8
instalacja gazowa
100
AcDbBlockBegin
  2
*D62
 70
     1
 10
0.0
 20
0.0
 30
0.0
  3
*D62
  1

  0
LINE
  5
899
330
881
100
AcDbEntity
  8
instalacja gazowa
 62
     0
370
    -2
100
AcDbLine
 10
8417632.954490558
 20
5761180.719937867
 30
0.0
 11
8417633.014357447
 21
5761180.846763334
 31
0.0
  0
LINE
  5
89A
330
881
100
AcDbEntity
  8
instalacja gazowa
 62
     0
370
    -2
100
AcDbLine
 10
8417634.31096121
 20
5761180.079627349
 30
0.0
 11
8417634.3708281
 21
5761180.206452815
 31
0.0
  0
LINE
  5
89B
330
881
100
AcDbEntity
  8
instalacja gazowa
 62
     0
370
    -2
100
AcDbLine
 10
8417633.100296468
 20
5761180.607150136
 30
0.0
 11
8417633.230401609
 21
5761180.545735103
 31
0.0
  0
LINE
  5
89C
330
881
100
AcDbEntity
  8
instalacja gazowa
 62
     0
370
    -2
100
AcDbLine
 10
8417634.131214901
 20
5761180.120513794
 30
0.0
 11
8417634.00110976
 21
5761180.181928827
 31
0.0
  0
SOLID
  5
89D
330
881
100
AcDbEntity
  8
instalacja gazowa
 62
     0
100
AcDbTrace
 10
8417633.113102649
 20
5761180.634279488
 30
0.0
 11
8417633.087490287
 21
5761180.580020785
 31
0.0
 12
8417632.937520359
 22
5761180.683987224
 32
0.0
 13
8417632.937520359
 23
5761180.683987224
 33
0.0
  0
SOLID
  5
89E
330
881
100
AcDbEntity
  8
instalacja gazowa
 62
     0
100
AcDbTrace
 10
8417634.11840872
 20
5761180.093384442
 30
0.0
 11
8417634.144021082
 21
5761180.147643146
 31
0.0
 12
8417634.29399101
 22
5761180.043676707
 32
0.0
 13
8417634.29399101
 23
5761180.043676707
 33
0.0
  0
MTEXT
  5
89F
330
881
100
AcDbEntity
  8
instalacja gazowa
 62
     0
100
AcDbMText
 10
8417633.615755685
 20
5761180.363831965
 30
0.0
 40
0.18
 41
0.0
 46
0.0
 71
     5
 72
     1
  1
\A1;1.5000
 73
     1
 44
1.0
  0
POINT
  5
8A0
330
881
100
AcDbEntity
  8
Defpoints
 62
     0
100
AcDbPoint
 10
8417632.927811011
 20
5761180.663418385
 30
0.0
  0
POINT
  5
8A1
330
881
100
AcDbEntity
  8
Defpoints
 62
     0
100
AcDbPoint
 10
8417634.284281664
 20
5761180.023107867
 30
0.0
  0
POINT
  5
8A2
330
881
100
AcDbEntity
  8
Defpoints
 62
     0
100
AcDbPoint
 10
8417634.29399101
 20
5761180.043676707
 30
0.0
  0
ENDBLK
  5
88E
330
881
100
AcDbEntity
  8
instalacja gazowa
100
AcDbBlockEnd
  0
ENDSEC
  0
SECTION
  2
ENTITIES
  0
LINE
  5
4D6
330
1F
100
AcDbEntity
  8
instalacja gazowa
 48
0.1
370
    50
100
AcDbLine
 10
8417618.203597548
 20
5761303.595207379
 30
0.0
 11
8417663.997348359
 21
5761275.445035018
 31
0.0
  0
LINE
  5
4D7
330
1F
100
AcDbEntity
  8
instalacja gazowa
 48
0.1
370
    50
100
AcDbLine
 10
8417663.997348359
 20
5761275.445035018
 30
0.0
 11
8417690.544029452
 21
5761259.126353207
 31
0.0
  0
LINE
  5
4D8
330
1F
100
AcDbEntity
  8
instalacja gazowa
 48
0.1
370
    50
100
AcDbLine
 10
8417724.499708326
 20
5761313.780231289
 30
0.0
 11
8417690.544029452
 21
5761259.126353207
 31
0.0
  0
LINE
  5
4D9
330
1F
100
AcDbEntity
  8
instalacja gazowa
 48
0.1
370
    50
100
AcDbLine
 10
8417664.419399846
 20
5761275.185593022
 30
0.0
 11
8417640.647698533
 21
5761236.393243826
 31
0.0
  0
LINE
  5
4DA
330
1F
100
AcDbEntity
  8
instalacja gazowa
 48
0.1
370
    50
100
AcDbLine
 10
8417618.203597548
 20
5761303.595207379
 30
0.0
 11
8417605.101293197
 21
5761311.647376308
 31
0.0
  0
LINE
  5
4DB
330
1F
100
AcDbEntity
  8
instalacja gazowa
 48
0.1
370
    50
100
AcDbLine
 10
8417605.101293197
 20
5761311.647376308
 30
0.0
 11
8417606.049551341
 21
5761313.190360181
 31
0.0
  0
LINE
  5
4DC
330
1F
100
AcDbEntity
  8
instalacja gazowa
 48
0.1
370
    50
100
AcDbLine
 10
8417606.049551341
 20
5761313.190360181
 30
0.0
 11
8417579.425284245
 21
5761329.560541418
 31
0.0
  0
LINE
  5
4DD
330
1F
100
AcDbEntity
  8
instalacja gazowa
370
    50
100
AcDbLine
 10
8417579.425000001
 20
5761329.56
 30
0.0
 11
8417579.411851914
 21
5761329.568094729
 31
0.0
  0
LINE
  5
4DE
330
1F
100
AcDbEntity
  8
instalacja gazowa
 48
0.1
370
    50
100
AcDbLine
 10
8417579.246866058
 20
5761329.818258571
 30
0.0
 11
8417564.668674975
 21
5761338.78131675
 31
0.0
  0
LINE
  5
4DF
330
1F
100
AcDbEntity
  8
instalacja gazowa
370
    50
100
AcDbLine
 10
8417579.246866058
 20
5761329.818258571
 30
0.0
 11
8417579.411851914
 21
5761329.568094729
 31
0.0
  0
LINE
  5
4E0
330
1F
100
AcDbEntity
  8
instalacja gazowa
370
    50
100
AcDbLine
 10
8417618.863046817
 20
5761303.189935391
 30
0.0
 11
8417618.036439829
 21
5761301.858826486
 31
0.0
  0
MTEXT
  5
4E1
102
{ACAD_XDICTIONARY
360
4E2
102
}
330
1F
100
AcDbEntity
  8
Przyłącze gazowe
100
AcDbMText
 10
8417653.154511571
 20
5761258.701310254
 30
0.0
 40
1.0
 41
94.56335628902861
 46
0.0
 71
     5
 72
     5
  1
GAZ PE 125 mm, L = 44,0 m
  7
ARIAL
 11
0.5221937118385247
 21
0.8528269034899778
 31
0.0
 73
     1
 44
1.0
1001
AcadAnnotative
1000
AnnotativeData
1002
{
1070
     1
1070
     1
1002
}
  0
LINE
  5
4E6
330
1F
100
AcDbEntity
  8
instalacja gazowa
 48
0.1
370
    50
100
AcDbLine
 10
8417640.647698533
 20
5761236.393243827
 30
0.0
 11
8417637.529789018
 21
5761208.976928045
 31
0.0
  0
MTEXT
  5
4E7
102
{ACAD_XDICTIONARY
360
4E8
102
}
330
1F
100
AcDbEntity
  8
Przyłącze gazowe
100
AcDbMText
 10
8417638.081623662
 20
5761224.347821943
 30
0.0
 40
1.0
 41
94.56335628902861
 46
0.0
 71
     5
 72
     5
  1
GAZ PE 125 mm, L = 29,0 m
  7
ARIAL
 11
0.1128480038621897
 21
0.9936122624164413
 31
0.0
 73
     1
 44
1.0
1001
AcadAnnotative
1000
AnnotativeData
1002
{
1070
     1
1070
     1
1002
}
  0
LINE
  5
4EC
330
1F
100
AcDbEntity
  8
instalacja gazowa
 48
0.1
370
    50
100
AcDbLine
 10
8417696.570401147
 20
5761330.957919065
 30
0.0
 11
8417699.755528762
 21
5761328.99088574
 31
0.0
  0
LINE
  5
4ED
330
1F
100
AcDbEntity
  8
instalacja gazowa
 48
0.1
370
    50
100
AcDbLine
 10
8417699.755528762
 20
5761328.99088574
 30
0.0
 11
8417724.499708326
 21
5761313.780231289
 31
0.0
  0
LINE
  5
4EE
330
1F
100
AcDbEntity
  8
instalacja gazowa
100
AcDbLine
 10
8417699.026348861
 20
5761334.386444708
 30
0.0
 11
8417704.885405996
 21
5761330.678498779
 31
0.0
  0
LINE
  5
4EF
330
1F
100
AcDbEntity
  8
instalacja gazowa
 48
0.1
370
    50
100
AcDbLine
 10
8417701.955877429
 20
5761332.532471743
 30
0.0
 11
8417699.755537112
 21
5761328.990880607
 31
0.0
  0
LINE
  5
4F0
330
1F
100
AcDbEntity
  8
instalacja gazowa
 62
    49
 48
0.1
370
    50
100
AcDbLine
 10
8417683.605329257
 20
5761307.005358148
 30
0.0
 11
8417663.997348359
 21
5761275.445035018
 31
0.0
  0
MTEXT
  5
4F1
102
{ACAD_XDICTIONARY
360
4F2
102
}
330
1F
100
AcDbEntity
  8
Przyłącze gazowe
100
AcDbMText
 10
8417705.061054823
 20
5761284.38847934
 30
0.0
 40
1.0
 41
94.56335628902861
 46
0.0
 71
     5
 72
     5
  1
GAZ PE 110 mm, L =64,0 m
  7
ARIAL
 11
0.5221937118385247
 21
0.8528269034899778
 31
0.0
 73
     1
 44
1.0
1001
AcadAnnotative
1000
AnnotativeData
1002
{
1070
     1
1070
     1
1002
}
  0
MTEXT
  5
4F6
102
{ACAD_XDICTIONARY
360
4F7
102
}
330
1F
100
AcDbEntity
  8
Przyłącze gazowe
100
AcDbMText
 10
8417712.499650209
 20
5761322.148441215
 30
0.0
 40
1.0
 41
94.56335628902861
 46
0.0
 71
     5
 72
     5
  1
GAZ PE 110 mm, L =29,0 m
  7
ARIAL
 11
0.8528269034899777
 21
-0.5221937118385248
 31
0.0
 73
     1
 44
1.0
1001
AcadAnnotative
1000
AnnotativeData
1002
{
1070
     1
1070
     1
1002
}
  0
MTEXT
  5
4FB
102
{ACAD_XDICTIONARY
360
4FC
102
}
330
1F
100
AcDbEntity
  8
Przyłącze gazowe
 62
    49
100
AcDbMText
 10
8417673.55018025
 20
5761268.423106289
 30
0.0
 40
1.0
 41
94.56335628902861
 46
0.0
 71
     5
 72
     5
  1
GAZ PE 110 mm, L =30,0 m
  7
ARIAL
 11
0.8528269034899777
 21
-0.5221937118385248
 31
0.0
 73
     1
 44
1.0
1001
AcadAnnotative
1000
AnnotativeData
1002
{
1070
     1
1070
     1
1002
}
  0
MTEXT
  5
500
102
{ACAD_XDICTIONARY
360
501
102
}
330
1F
100
AcDbEntity
  8
Przyłącze gazowe
100
AcDbMText
 10
8417640.693700695
 20
5761288.444644418
 30
0.0
 40
1.0
 41
94.56335628902861
 46
0.0
 71
     5
 72
     5
  1
GAZ PE 125 mm, L =53,0 m
  7
ARIAL
 11
0.8528269034899777
 21
-0.5221937118385248
 31
0.0
 73
     1
 44
1.0
1001
AcadAnnotative
1000
AnnotativeData
1002
{
1070
     1
1070
     1
1002
}
  0
LINE
  5
505
330
1F
100
AcDbEntity
  8
instalacja gazowa
  6
Continuous
100
AcDbLine
 10
8417722.134069048
 20
5761385.182679775
 30
0.0
 11
8417691.05385585
 21
5761336.957448783
 31
0.0
  0
LINE
  5
506
330
1F
100
AcDbEntity
  8
instalacja gazowa
  6
Continuous
100
AcDbLine
 10
8417691.05385585
 20
5761336.957448783
 30
0.0
 11
8417721.333642063
 21
5761318.789577054
 31
0.0
  0
LINE
  5
507
330
1F
100
AcDbEntity
  8
instalacja gazowa
  6
Continuous
100
AcDbLine
 10
8417721.333642063
 20
5761318.789577054
 30
0.0
 11
8417752.778035437
 21
5761367.547796904
 31
0.0
  0
LINE
  5
508
330
1F
100
AcDbEntity
  8
instalacja gazowa
  6
Continuous
100
AcDbLine
 10
8417752.778035437
 20
5761367.547796904
 30
0.0
 11
8417722.134069048
 21
5761385.182679775
 31
0.0
  0
LINE
  5
509
330
1F
100
AcDbEntity
  8
instalacja gazowa
  6
Continuous
100
AcDbLine
 10
8417744.467025277
 20
5761354.660600903
 30
0.0
 11
8417772.400537392
 21
5761363.339445076
 31
0.0
  0
LINE
  5
50A
330
1F
100
AcDbEntity
  8
instalacja gazowa
  6
Continuous
100
AcDbLine
 10
8417772.400537392
 20
5761363.339445076
 30
0.0
 11
8417818.44712475
 21
5761363.339445076
 31
0.0
  0
MTEXT
  5
50B
102
{ACAD_XDICTIONARY
360
50C
102
}
330
1F
100
AcDbEntity
  8
instalacja gazowa
  6
Continuous
100
AcDbMText
 10
8417773.230319992
 20
5761365.924872973
 30
0.0
 40
2.0
 41
70.45776279829443
 46
0.0
 71
     1
 72
     5
  1
ZBIORNIKI NADZIEMNE 42x6400 l
  7
ARIAL
 73
     1
 44
1.0
1001
AcadAnnotative
1000
AnnotativeData
1002
{
1070
     1
1070
     1
1002
}
  0
LINE
  5
510
330
1F
100
AcDbEntity
  8
instalacja gazowa
  6
Continuous
100
AcDbLine
 10
8417611.284148916
 20
5761182.22945682
 30
0.0
 11
8417584.387249723
 21
5761170.28686554
 31
0.0
  0
MTEXT
  5
511
102
{ACAD_XDICTIONARY
360
512
102
}
330
1F
100
AcDbEntity
  8
instalacja gazowa
  6
Continuous
100
AcDbMText
 10
8417539.170444968
 20
5761172.872293436
 30
0.0
 40
2.0
 41
70.45776279829443
 46
0.0
 71
     1
 72
     5
  1
ZBIORNIKI PODZIEMNE 72x9200 l
  7
ARIAL
 73
     1
 44
1.0
1001
AcadAnnotative
1000
AnnotativeData
1002
{
1070
     1
1070
     1
1002
}
  0
LINE
  5
516
330
1F
100
AcDbEntity
  8
instalacja gazowa
  6
Continuous
100
AcDbLine
 10
8417575.259999999
 20
5761331.87
 30
0.0
 11
8417554.844660154
 21
5761318.803796018
 31
0.0
  0
LINE
  5
517
330
1F
100
AcDbEntity
  8
instalacja gazowa
  6
Continuous
100
AcDbLine
 10
8417502.742115553
 20
5761318.803796018
 30
0.0
 11
8417554.844660154
 21
5761318.803796018
 31
0.0
  0
MTEXT
  5
518
102
{ACAD_XDICTIONARY
360
519
102
}
330
1F
100
AcDbEntity
  8
instalacja gazowa
  6
Continuous
100
AcDbMText
 10
8417503.571898155
 20
5761321.389223915
 30
0.0
 40
2.0
 41
70.45776279829443
 46
0.0
 71
     1
 72
     5
  1
DRUGIE ZASILANIE Z SIECI GAZOWEJ
  7
ARIAL
 73
     1
 44
1.0
1001
AcadAnnotative
1000
AnnotativeData
1002
{
1070
     1
1070
     1
1002
}
  0
LINE
  5
51D
330
1F
100
AcDbEntity
  8
instalacja gazowa
  6
Continuous
100
AcDbLine
 10
8417628.201363093
 20
5761309.51799491
 30
0.0
 11
8417618.511706049
 21
5761300.441278388
 31
0.0
  0
LINE
  5
51E
330
1F
100
AcDbEntity
  8
instalacja gazowa
  6
Continuous
100
AcDbLine
 10
8417628.201363093
 20
5761309.51799491
 30
0.0
 11
8417658.48199436
 21
5761309.51799491
 31
0.0
  0
MTEXT
  5
51F
102
{ACAD_XDICTIONARY
360
520
102
}
330
1F
100
AcDbEntity
  8
instalacja gazowa
  6
Continuous
100
AcDbMText
 10
8417629.031145693
 20
5761312.103422807
 30
0.0
 40
2.0
 41
70.45776279829443
 46
0.0
 71
     1
 72
     5
  1
BUDYNEK SUSZARNI
  7
ARIAL
 73
     1
 44
1.0
1001
AcadAnnotative
1000
AnnotativeData
1002
{
1070
     1
1070
     1
1002
}
  0
LINE
  5
524
330
1F
100
AcDbEntity
  8
instalacja gazowa
  6
Continuous
100
AcDbLine
 10
8417684.378643297
 20
5761308.267221973
 30
0.0
 11
8417666.893223309
 21
5761330.728752233
 31
0.0
  0
LINE
  5
525
330
1F
100
AcDbEntity
  8
instalacja gazowa
  6
Continuous
100
AcDbLine
 10
8417610.365171492
 20
5761330.728752233
 30
0.0
 11
8417666.893223309
 21
5761330.728752233
 31
0.0
  0
MTEXT
  5
526
102
{ACAD_XDICTIONARY
360
527
102
}
330
1F
100
AcDbEntity
  8
instalacja gazowa
  6
Continuous
100
AcDbMText
 10
8417611.194954094
 20
5761333.314180131
 30
0.0
 40
2.0
 41
70.45776279829443
 46
0.0
 71
     1
 72
     5
  1
PROPONOWANY PRZEBIEG \PINSTALACJI GAZOWEJ
  7
ARIAL
 73
     1
 44
1.0
1001
AcadAnnotative
1000
AnnotativeData
1002
{
1070
     1
1070
     1
1002
}
  0
MTEXT
  5
52B
102
{ACAD_XDICTIONARY
360
52C
102
}
330
1F
100
AcDbEntity
  8
Przyłącze gazowe
 62
    49
100
AcDbMText
 10
8417674.664064463
 20
5761295.644060513
 30
0.0
 40
1.0
 41
94.56335628902861
 46
0.0
 71
     5
 72
     5
  1
GAZ PE 110 mm, L =64,0 m
  7
ARIAL
 11
0.5221937118385247
 21
0.8528269034899778
 31
0.0
 73
     1
 44
1.0
1001
AcadAnnotative
1000
AnnotativeData
1002
{
1070
     1
1070
     1
1002
}
  0
LINE
  5
530
330
1F
100
AcDbEntity
  8
instalacja gazowa
  6
Continuous
 62
     7
100
AcDbLine
 10
8417732.478114448
 20
5761276.374977342
 30
0.0
 11
8417780.772366818
 21
5761276.374977342
 31
0.0
  0
MTEXT
  5
531
102
{ACAD_XDICTIONARY
360
532
102
}
330
1F
100
AcDbEntity
  8
instalacja gazowa
  6
Continuous
 62
     7
100
AcDbMText
 10
8417733.30789705
 20
5761278.960405238
 30
0.0
 40
2.0
 41
70.45776279829443
 46
0.0
 71
     1
 72
     5
  1
DRUGI PROPONOWANY PRZEBIEG \PINSTALACJI GAZOWEJ
  7
ARIAL
 73
     1
 44
1.0
1001
AcadAnnotative
1000
AnnotativeData
1002
{
1070
     1
1070
     1
1002
}
  0
LINE
  5
536
330
1F
100
AcDbEntity
  8
instalacja gazowa
  6
Continuous
 62
     7
100
AcDbLine
 10
8417732.478114448
 20
5761276.374977342
 30
0.0
 11
8417713.1811487
 21
5761295.562271929
 31
0.0
  0
DIMENSION
  5
537
330
1F
100
AcDbEntity
  8
instalacja gazowa
  6
Continuous
100
AcDbDimension
280
     0
  2
*D32
 10
8417703.121128818
 20
5761344.657862497
 30
0.0
 11
8417703.453325902
 21
5761345.187755027
 31
0.0
 70
    33
 71
     5
 42
1.250825321278686
 73
     0
 74
     0
 75
     0
  3
Standard
100
AcDbAlignedDimension
 13
8417703.813882669
 23
5761345.699868472
 33
0.0
 14
8417703.149488506
 24
5761344.640083409
 34
0.0
1001
ACAD
1000
DSTYLE
1002
{
1070
   171
1070
     2
1070
   143
1040
25.4
1070
   274
1070
     2
1070
    41
1040
0.18
1070
   141
1040
0.09
1070
   271
1070
     4
1070
    43
1040
0.38
1070
   278
1070
    46
1070
    44
1040
1.25
1070
    42
1040
0.0625
1070
   147
1040
0.09
1070
    77
1070
     0
1070
   272
1070
     4
1070
    73
1070
     1
1070
   172
1070
     0
1070
    74
1070
     1
1070
   283
1070
     1
1070
   140
1040
0.18
1070
   284
1070
     0
1070
    78
1070
     0
1002
}
  0
DIMENSION
  5
538
330
1F
100
AcDbEntity
  8
instalacja gazowa
  6
Continuous
100
AcDbDimension
280
     0
  2
*D33
 10
8417705.125349462
 20
5761344.138857205
 30
0.0
 11
8417702.779188681
 21
5761345.610632296
 31
0.0
 70
    33
 71
     5
 42
5.539166839150675
 73
     0
 74
     0
 75
     0
  3
Standard
100
AcDbAlignedDimension
 13
8417700.433027903
 23
5761347.082407385
 33
0.0
 14
8417705.125349462
 24
5761344.138857205
 34
0.0
1001
ACAD
1000
DSTYLE
1002
{
1070
   171
1070
     2
1070
   143
1040
25.4
1070
   274
1070
     2
1070
    41
1040
0.18
1070
   141
1040
0.09
1070
   271
1070
     4
1070
    43
1040
0.38
1070
   278
1070
    46
1070
    44
1040
1.25
1070
    42
1040
0.0625
1070
   147
1040
0.09
1070
    77
1070
     0
1070
   272
1070
     4
1070
    73
1070
     1
1070
   172
1070
     0
1070
    74
1070
     1
1070
   283
1070
     1
1070
   140
1040
0.18
1070
   284
1070
     0
1070
    78
1070
     0
1002
}
  0
LINE
  5
539
330
1F
100
AcDbEntity
  8
instalacja gazowa
  6
Continuous
100
AcDbLine
 10
8417705.125410853
 20
5761344.138818696
 30
0.0
 11
8417700.433027476
 21
5761347.082406705
 31
0.0
  0
LINE
  5
53A
330
1F
100
AcDbEntity
  8
instalacja gazowa
 62
    49
 48
0.1
370
    50
100
AcDbLine
 10
8417696.570401147
 20
5761330.957919065
 30
0.0
 11
8417682.943089729
 21
5761309.02387323
 31
0.0
  0
LINE
  5
53B
330
1F
100
AcDbEntity
  8
instalacja gazowa
 62
    49
 48
0.1
370
    50
100
AcDbLine
 10
8417682.943089729
 20
5761309.02387323
 30
0.0
 11
8417683.605329257
 21
5761307.005358148
 31
0.0
  0
INSERT
  5
53C
330
1F
100
AcDbEntity
  8
ziemne 2
  6
Continuous
100
AcDbBlockReference
  2
A$C539eaeab
 10
8417649.187010171
 20
5761171.846289197
 30
0.0
 50
49.77412570018994
  0
INSERT
  5
53D
330
1F
100
AcDbEntity
  8
ziemne 2
  6
Continuous
100
AcDbBlockReference
  2
A$C539eaeab
 10
8417650.360908451
 20
5761174.333147218
 30
0.0
 50
49.77412570018994
  0
INSERT
  5
53E
330
1F
100
AcDbEntity
  8
ziemne 2
  6
Continuous
100
AcDbBlockReference
  2
A$C539eaeab
 10
8417651.534806735
 20
5761176.82000524
 30
0.0
 50
49.77412570018994
  0
INSERT
  5
53F
330
1F
100
AcDbEntity
  8
ziemne 2
  6
Continuous
100
AcDbBlockReference
  2
A$C539eaeab
 10
8417652.708705016
 20
5761179.306863262
 30
0.0
 50
49.77412570018994
  0
INSERT
  5
540
330
1F
100
AcDbEntity
  8
ziemne 2
  6
Continuous
100
AcDbBlockReference
  2
A$C539eaeab
 10
8417653.882603302
 20
5761181.793721281
 30
0.0
 50
49.77412570018994
  0
INSERT
  5
541
330
1F
100
AcDbEntity
  8
ziemne 2
  6
Continuous
100
AcDbBlockReference
  2
A$C539eaeab
 10
8417655.05650158
 20
5761184.280579304
 30
0.0
 50
49.77412570018994
  0
INSERT
  5
542
330
1F
100
AcDbEntity
  8
ziemne 2
  6
Continuous
100
AcDbBlockReference
  2
A$C539eaeab
 10
8417656.230399863
 20
5761186.767437327
 30
0.0
 50
49.77412570018994
  0
INSERT
  5
543
330
1F
100
AcDbEntity
  8
ziemne 2
  6
Continuous
100
AcDbBlockReference
  2
A$C539eaeab
 10
8417657.404298143
 20
5761189.254295349
 30
0.0
 50
49.77412570018994
  0
INSERT
  5
544
330
1F
100
AcDbEntity
  8
ziemne 2
  6
Continuous
100
AcDbBlockReference
  2
A$C539eaeab
 10
8417658.578196425
 20
5761191.74115337
 30
0.0
 50
49.77412570018994
  0
INSERT
  5
545
330
1F
100
AcDbEntity
  8
ziemne 2
  6
Continuous
100
AcDbBlockReference
  2
A$C539eaeab
 10
8417659.752094708
 20
5761194.22801139
 30
0.0
 50
49.77412570018994
  0
INSERT
  5
546
330
1F
100
AcDbEntity
  8
ziemne 2
  6
Continuous
100
AcDbBlockReference
  2
A$C539eaeab
 10
8417646.839213608
 20
5761166.872573152
 30
0.0
 50
49.77412570018994
  0
INSERT
  5
547
330
1F
100
AcDbEntity
  8
ziemne 2
  6
Continuous
100
AcDbBlockReference
  2
A$C539eaeab
 10
8417648.01311189
 20
5761169.359431175
 30
0.0
 50
49.77412570018994
  0
INSERT
  5
548
330
1F
100
AcDbEntity
  8
ziemne 2
  6
Continuous
100
AcDbBlockReference
  2
A$C539eaeab
 10
8417663.273789559
 20
5761201.688585455
 30
0.0
 50
49.77412570018994
  0
INSERT
  5
549
330
1F
100
AcDbEntity
  8
ziemne 2
  6
Continuous
100
AcDbBlockReference
  2
A$C539eaeab
 10
8417664.44768784
 20
5761204.175443476
 30
0.0
 50
49.77412570018994
  0
INSERT
  5
54A
330
1F
100
AcDbEntity
  8
ziemne 2
  6
Continuous
100
AcDbBlockReference
  2
A$C539eaeab
 10
8417665.62158612
 20
5761206.662301498
 30
0.0
 50
49.77412570018994
  0
INSERT
  5
54B
330
1F
100
AcDbEntity
  8
ziemne 2
  6
Continuous
100
AcDbBlockReference
  2
A$C539eaeab
 10
8417666.795484404
 20
5761209.149159519
 30
0.0
 50
49.77412570018994
  0
INSERT
  5
54C
330
1F
100
AcDbEntity
  8
ziemne 2
  6
Continuous
100
AcDbBlockReference
  2
A$C539eaeab
 10
8417667.969382687
 20
5761211.636017539
 30
0.0
 50
49.77412570018994
  0
INSERT
  5
54D
330
1F
100
AcDbEntity
  8
ziemne 2
  6
Continuous
100
AcDbBlockReference
  2
A$C539eaeab
 10
8417669.143280969
 20
5761214.122875562
 30
0.0
 50
49.77412570018994
  0
INSERT
  5
54E
330
1F
100
AcDbEntity
  8
ziemne 2
  6
Continuous
100
AcDbBlockReference
  2
A$C539eaeab
 10
8417670.317179249
 20
5761216.609733585
 30
0.0
 50
49.77412570018994
  0
INSERT
  5
54F
330
1F
100
AcDbEntity
  8
ziemne 2
  6
Continuous
100
AcDbBlockReference
  2
A$C539eaeab
 10
8417671.491077532
 20
5761219.096591607
 30
0.0
 50
49.77412570018994
  0
INSERT
  5
550
330
1F
100
AcDbEntity
  8
ziemne 2
  6
Continuous
100
AcDbBlockReference
  2
A$C539eaeab
 10
8417672.664975812
 20
5761221.583449627
 30
0.0
 50
49.77412570018994
  0
INSERT
  5
551
330
1F
100
AcDbEntity
  8
ziemne 2
  6
Continuous
100
AcDbBlockReference
  2
A$C539eaeab
 10
8417673.838874096
 20
5761224.070307648
 30
0.0
 50
49.77412570018994
  0
INSERT
  5
552
330
1F
100
AcDbEntity
  8
ziemne 2
  6
Continuous
100
AcDbBlockReference
  2
A$C539eaeab
 10
8417660.925992992
 20
5761196.714869412
 30
0.0
 50
49.77412570018994
  0
INSERT
  5
553
330
1F
100
AcDbEntity
  8
ziemne 2
  6
Continuous
100
AcDbBlockReference
  2
A$C539eaeab
 10
8417662.099891275
 20
5761199.201727434
 30
0.0
 50
49.77412570018994
  0
INSERT
  5
554
330
1F
100
AcDbEntity
  8
ziemne 2
  6
Continuous
100
AcDbBlockReference
  2
A$C539eaeab
 10
8417677.360594112
 20
5761231.530869833
 30
0.0
 50
49.77412570018994
  0
INSERT
  5
555
330
1F
100
AcDbEntity
  8
ziemne 2
  6
Continuous
100
AcDbBlockReference
  2
A$C539eaeab
 10
8417678.534492393
 20
5761234.017727854
 30
0.0
 50
49.77412570018994
  0
INSERT
  5
556
330
1F
100
AcDbEntity
  8
ziemne 2
  6
Continuous
100
AcDbBlockReference
  2
A$C539eaeab
 10
8417679.708390675
 20
5761236.504585875
 30
0.0
 50
49.77412570018994
  0
INSERT
  5
557
330
1F
100
AcDbEntity
  8
ziemne 2
  6
Continuous
100
AcDbBlockReference
  2
A$C539eaeab
 10
8417680.882288957
 20
5761238.991443897
 30
0.0
 50
49.77412570018994
  0
INSERT
  5
558
330
1F
100
AcDbEntity
  8
ziemne 2
  6
Continuous
100
AcDbBlockReference
  2
A$C539eaeab
 10
8417682.056187242
 20
5761241.478301919
 30
0.0
 50
49.77412570018994
  0
INSERT
  5
559
330
1F
100
AcDbEntity
  8
ziemne 2
  6
Continuous
100
AcDbBlockReference
  2
A$C539eaeab
 10
8417683.230085522
 20
5761243.96515994
 30
0.0
 50
49.77412570018994
  0
INSERT
  5
55A
330
1F
100
AcDbEntity
  8
ziemne 2
  6
Continuous
100
AcDbBlockReference
  2
A$C539eaeab
 10
8417684.403983804
 20
5761246.452017963
 30
0.0
 50
49.77412570018994
  0
INSERT
  5
55B
330
1F
100
AcDbEntity
  8
ziemne 2
  6
Continuous
100
AcDbBlockReference
  2
A$C539eaeab
 10
8417685.577882085
 20
5761248.938875984
 30
0.0
 50
49.77412570018994
  0
INSERT
  5
55C
330
1F
100
AcDbEntity
  8
ziemne 2
  6
Continuous
100
AcDbBlockReference
  2
A$C539eaeab
 10
8417686.751780367
 20
5761251.425734005
 30
0.0
 50
49.77412570018994
  0
INSERT
  5
55D
330
1F
100
AcDbEntity
  8
ziemne 2
  6
Continuous
100
AcDbBlockReference
  2
A$C539eaeab
 10
8417687.92567865
 20
5761253.912592027
 30
0.0
 50
49.77412570018994
  0
INSERT
  5
55E
330
1F
100
AcDbEntity
  8
ziemne 2
  6
Continuous
100
AcDbBlockReference
  2
A$C539eaeab
 10
8417675.012776573
 20
5761226.55716369
 30
0.0
 50
49.77412570018994
  0
LWPOLYLINE
  5
55F
330
1F
100
AcDbEntity
  8
instalacja gazowa
  6
Continuous
100
AcDbPolyline
 90
        2
 70
     0
 43
0.0
 10
8417690.782938924
 20
5761270.267001599
 10
8417691.629356591
 20
5761254.796367594
  0
INSERT
  5
560
330
1F
100
AcDbEntity
  8
ziemne 2
  6
Continuous
100
AcDbBlockReference
  2
A$C539eaeab
 10
8417639.394356493
 20
5761173.355950099
 30
0.0
 50
49.77412570018994
  0
INSERT
  5
561
330
1F
100
AcDbEntity
  8
ziemne 2
  6
Continuous
100
AcDbBlockReference
  2
A$C539eaeab
 10
8417640.568254775
 20
5761175.842808122
 30
0.0
 50
49.77412570018994
  0
INSERT
  5
562
330
1F
100
AcDbEntity
  8
ziemne 2
  6
Continuous
100
AcDbBlockReference
  2
A$C539eaeab
 10
8417641.742153056
 20
5761178.329666144
 30
0.0
 50
49.77412570018994
  0
INSERT
  5
563
330
1F
100
AcDbEntity
  8
ziemne 2
  6
Continuous
100
AcDbBlockReference
  2
A$C539eaeab
 10
8417642.916053434
 20
5761180.816523176
 30
0.0
 50
49.77412570018994
  0
INSERT
  5
564
330
1F
100
AcDbEntity
  8
ziemne 2
  6
Continuous
100
AcDbBlockReference
  2
A$C539eaeab
 10
8417644.089790039
 20
5761183.303457516
 30
0.0
 50
49.77412570018994
  0
INSERT
  5
565
330
1F
100
AcDbEntity
  8
ziemne 2
  6
Continuous
100
AcDbBlockReference
  2
A$C539eaeab
 10
8417645.263688322
 20
5761185.790315538
 30
0.0
 50
49.77412570018994
  0
INSERT
  5
566
330
1F
100
AcDbEntity
  8
ziemne 2
  6
Continuous
100
AcDbBlockReference
  2
A$C539eaeab
 10
8417646.437586606
 20
5761188.27717356
 30
0.0
 50
49.77412570018994
  0
INSERT
  5
567
330
1F
100
AcDbEntity
  8
ziemne 2
  6
Continuous
100
AcDbBlockReference
  2
A$C539eaeab
 10
8417647.611654954
 20
5761190.763951303
 30
0.0
 50
49.77412570018994
  0
INSERT
  5
568
330
1F
100
AcDbEntity
  8
ziemne 2
  6
Continuous
100
AcDbBlockReference
  2
A$C539eaeab
 10
8417648.785383169
 20
5761193.250889602
 30
0.0
 50
49.77412570018994
  0
INSERT
  5
569
330
1F
100
AcDbEntity
  8
ziemne 2
  6
Continuous
100
AcDbBlockReference
  2
A$C539eaeab
 10
8417649.959281453
 20
5761195.737747624
 30
0.0
 50
49.77412570018994
  0
INSERT
  5
56A
330
1F
100
AcDbEntity
  8
ziemne 2
  6
Continuous
100
AcDbBlockReference
  2
A$C539eaeab
 10
8417637.046553632
 20
5761168.382237027
 30
0.0
 50
49.77412570018994
  0
INSERT
  5
56B
330
1F
100
AcDbEntity
  8
ziemne 2
  6
Continuous
100
AcDbBlockReference
  2
A$C539eaeab
 10
8417638.220451916
 20
5761170.869095049
 30
0.0
 50
49.77412570018994
  0
INSERT
  5
56C
330
1F
100
AcDbEntity
  8
ziemne 2
  6
Continuous
100
AcDbBlockReference
  2
A$C539eaeab
 10
8417633.942215189
 20
5761184.060722258
 30
0.0
 50
49.77412570018994
  0
INSERT
  5
56D
330
1F
100
AcDbEntity
  8
ziemne 2
  6
Continuous
100
AcDbBlockReference
  2
A$C539eaeab
 10
8417635.116113471
 20
5761186.54758028
 30
0.0
 50
49.77412570018994
  0
INSERT
  5
56E
330
1F
100
AcDbEntity
  8
ziemne 2
  6
Continuous
100
AcDbBlockReference
  2
A$C539eaeab
 10
8417636.290011753
 20
5761189.034438301
 30
0.0
 50
49.77412570018994
  0
INSERT
  5
56F
330
1F
100
AcDbEntity
  8
ziemne 2
  6
Continuous
100
AcDbBlockReference
  2
A$C539eaeab
 10
8417637.463910034
 20
5761191.521296323
 30
0.0
 50
49.77412570018994
  0
INSERT
  5
570
330
1F
100
AcDbEntity
  8
ziemne 2
  6
Continuous
100
AcDbBlockReference
  2
A$C539eaeab
 10
8417638.63780832
 20
5761194.008154342
 30
0.0
 50
49.77412570018994
  0
INSERT
  5
571
330
1F
100
AcDbEntity
  8
ziemne 2
  6
Continuous
100
AcDbBlockReference
  2
A$C539eaeab
 10
8417639.8117066
 20
5761196.495012366
 30
0.0
 50
49.77412570018994
  0
INSERT
  5
572
330
1F
100
AcDbEntity
  8
ziemne 2
  6
Continuous
100
AcDbBlockReference
  2
A$C539eaeab
 10
8417640.985604879
 20
5761198.981870388
 30
0.0
 50
49.77412570018994
  0
INSERT
  5
573
330
1F
100
AcDbEntity
  8
ziemne 2
  6
Continuous
100
AcDbBlockReference
  2
A$C539eaeab
 10
8417642.159503163
 20
5761201.46872841
 30
0.0
 50
49.77412570018994
  0
INSERT
  5
574
330
1F
100
AcDbEntity
  8
ziemne 2
  6
Continuous
100
AcDbBlockReference
  2
A$C539eaeab
 10
8417643.333401443
 20
5761203.95558643
 30
0.0
 50
49.77412570018994
  0
INSERT
  5
575
330
1F
100
AcDbEntity
  8
ziemne 2
  6
Continuous
100
AcDbBlockReference
  2
A$C539eaeab
 10
8417644.507299726
 20
5761206.442444451
 30
0.0
 50
49.77412570018994
  0
INSERT
  5
576
330
1F
100
AcDbEntity
  8
ziemne 2
  6
Continuous
100
AcDbBlockReference
  2
A$C539eaeab
 10
8417631.594418624
 20
5761179.087006215
 30
0.0
 50
49.77412570018994
  0
INSERT
  5
577
330
1F
100
AcDbEntity
  8
ziemne 2
  6
Continuous
100
AcDbBlockReference
  2
A$C539eaeab
 10
8417632.768316906
 20
5761181.573864237
 30
0.0
 50
49.77412570018994
  0
INSERT
  5
578
330
1F
100
AcDbEntity
  8
ziemne 2
  6
Continuous
100
AcDbBlockReference
  2
A$C539eaeab
 10
8417627.71563247
 20
5761193.124857531
 30
0.0
 50
49.77412570018994
  0
INSERT
  5
579
330
1F
100
AcDbEntity
  8
ziemne 2
  6
Continuous
100
AcDbBlockReference
  2
A$C539eaeab
 10
8417628.889530753
 20
5761195.611715553
 30
0.0
 50
49.77412570018994
  0
INSERT
  5
57A
330
1F
100
AcDbEntity
  8
ziemne 2
  6
Continuous
100
AcDbBlockReference
  2
A$C539eaeab
 10
8417630.063429033
 20
5761198.098573575
 30
0.0
 50
49.77412570018994
  0
INSERT
  5
57B
330
1F
100
AcDbEntity
  8
ziemne 2
  6
Continuous
100
AcDbBlockReference
  2
A$C539eaeab
 10
8417631.237327315
 20
5761200.585431596
 30
0.0
 50
49.77412570018994
  0
INSERT
  5
57C
330
1F
100
AcDbEntity
  8
ziemne 2
  6
Continuous
100
AcDbBlockReference
  2
A$C539eaeab
 10
8417632.4112256
 20
5761203.072289616
 30
0.0
 50
49.77412570018994
  0
INSERT
  5
57D
330
1F
100
AcDbEntity
  8
ziemne 2
  6
Continuous
100
AcDbBlockReference
  2
A$C539eaeab
 10
8417633.58512388
 20
5761205.559147639
 30
0.0
 50
49.77412570018994
  0
INSERT
  5
57E
330
1F
100
AcDbEntity
  8
ziemne 2
  6
Continuous
100
AcDbBlockReference
  2
A$C539eaeab
 10
8417634.759022162
 20
5761208.046005663
 30
0.0
 50
49.77412570018994
  0
INSERT
  5
57F
330
1F
100
AcDbEntity
  8
ziemne 2
  6
Continuous
100
AcDbBlockReference
  2
A$C539eaeab
 10
8417625.367835906
 20
5761188.151141489
 30
0.0
 50
49.77412570018994
  0
INSERT
  5
580
330
1F
100
AcDbEntity
  8
ziemne 2
  6
Continuous
100
AcDbBlockReference
  2
A$C539eaeab
 10
8417626.541734186
 20
5761190.637999511
 30
0.0
 50
49.77412570018994
  0
DIMENSION
  5
581
330
1F
100
AcDbEntity
  8
instalacja gazowa
  6
Continuous
100
AcDbDimension
280
     0
  2
*D34
 10
8417621.872103968
 20
5761193.23451859
 30
0.0
 11
8417620.787042055
 21
5761189.410116822
 31
0.0
 70
    33
  1
\A1;{\H5.555556x;750}
 71
     5
 42
7.950700154280294
 73
     0
 74
     0
 75
     0
  3
Standard
100
AcDbAlignedDimension
 13
8417617.588228605
 23
5761186.185430101
 33
0.0
 14
8417619.758352426
 24
5761193.834233638
 34
0.0
1001
ACAD
1000
DSTYLE
1002
{
1070
   340
1005
11
1070
   171
1070
     2
1070
   143
1040
25.4
1070
   274
1070
     2
1070
    41
1040
0.18
1070
   141
1040
0.09
1070
   271
1070
     4
1070
    43
1040
0.38
1070
   278
1070
    46
1070
    44
1040
1.25
1070
    42
1040
0.0625
1070
   147
1040
0.09
1070
    77
1070
     0
1070
   272
1070
     4
1070
    73
1070
     1
1070
   172
1070
     0
1070
    74
1070
     1
1070
   283
1070
     1
1070
   140
1040
0.18
1070
   284
1070
     0
1070
    78
1070
     0
1002
}
  0
MULTILEADER
  5
582
330
1F
100
AcDbEntity
  8
instalacja gazowa
  6
Continuous
160
               780
310
0C0300000D0000000C0000000E000000280000000C00000014000000010000000C0000001700000019000000F00000002600000005A732E82E0E60416B6B616F25FA5541000000000000000000000000000000000000000000000000000000000000F03F000000000000F03F00000000000000000000000000000000540065
310
006C00650066006F006E00200064006F002000700072007A0065006200750064006F00770079002000000000001600000001000000000000000000F03F000000000000F03F0000000000000000000000000000F03F000000000000000000000000000000000000000000000000000000000000000022000000410072006900
310
61006C00000061007200690061006C002E007400740066000000000000000C0000001400000001000000E800000026000000222DB3E82E0E6041C0C0B60425FA5541000000000000000000000000000000000000000000000000000000000000F03F000000000000F03F0000000000000000000000000000000057006F0064
310
006100200064006F002000700072007A0065006200750064006F0077007900200000001300000001000000000000000000F03F000000000000F03F0000000000000000000000000000F03F00000000000000000000000000000000000000000000000000000000000000002200000041007200690061006C00000061007200
310
690061006C002E007400740066000000000000000C00000010000000030000000C00000014000000010000003C0000000600000002000000E679D8DA2E0E6041C964108725FA554100000000000000009E985DE62E0E6041C964108725FA554100000000000000000C00000014000000010000005400000007000000030000
310
004D264CD22E0E6041D60B5EA923FA5541000000000000000019ED1BD12E0E604130D0EE9D23FA55410000000000000000C80461D02E0E6041CC2685A923FA554100000000000000000C00000014000000010000003C00000006000000020000008B9556D12E0E6041519971A923FA55410000000000000000E679D8DA2E0E
310
6041C964108725FA55410000000000000000
100
AcDbMLeader
270
     2
300
CONTEXT_DATA{
 40
1.0
 10
8417655.198925313
 20
5761174.110375592
 30
0.0
 41
1.0
140
0.18
145
0.09
174
     1
175
     6
176
     0
177
     0
290
     1
304
Telefon do przebudowy \PWoda do przebudowy 
 11
0.0
 21
0.0
 31
1.0
340
11
 12
8417655.288925313
 22
5761174.757374227
 32
0.0
 13
1.0
 23
0.0
 33
0.0
 42
0.0
 43
0.0
 44
0.0
 45
1.0
170
     1
 90
-1073741824
171
     1
172
     5
 91
-939524096
141
1.5
 92
        0
291
     1
292
     0
173
     0
293
     0
142
0.0
143
0.0
294
     0
295
     0
296
     0
110
8417654.534658955
120
5761166.467701003
130
0.0
111
1.0
121
0.0
131
0.0
112
0.0
122
1.0
132
0.0
297
     0
302
LEADER{
290
     1
291
     1
 10
8417654.838925313
 20
5761174.110375592
 30
0.0
 11
1.0
 21
0.0
 31
0.0
 90
        0
 40
0.36
304
LEADER_LINE{
 10
8417654.534658955
 20
5761166.467701003
 30
0.0
 91
        0
170
     1
 92
-1073741824
340
0
171
    -2
 40
0.0
341
0
 93
        0
305
}
271
     0
303
}
272
     9
273
     9
301
}
340
E1
 90
   344064
170
     1
 91
-1056964608
341
14
171
    -2
290
     1
291
     1
 41
0.36
 42
0.18
172
     2
343
11
173
     1
 95
        6
174
     1
175
     0
 92
-1056964608
292
     0
 93
-1056964608
 10
1.0
 20
1.0
 30
1.0
 43
0.0
176
     0
293
     0
294
     0
178
     0
179
     1
 45
1.0
271
     0
272
     9
273
     9
295
     0
1001
ACAD_MLEADERVER
1070
     2
  0
INSERT
  5
590
330
1F
100
AcDbEntity
  8
ziemne 2
  6
Continuous
100
AcDbBlockReference
  2
A$C539eaeab
 10
8417651.133360285
 20
5761198.224520419
 30
0.0
 50
49.77412570018994
  0
INSERT
  5
591
330
1F
100
AcDbEntity
  8
ziemne 2
  6
Continuous
100
AcDbBlockReference
  2
A$C539eaeab
 10
8417652.307258569
 20
5761200.711378441
 30
0.0
 50
49.77412570018994
  0
INSERT
  5
592
330
1F
100
AcDbEntity
  8
ziemne 2
  6
Continuous
100
AcDbBlockReference
  2
A$C539eaeab
 10
8417653.481154754
 20
5761203.198237452
 30
0.0
 50
49.77412570018994
  0
LWPOLYLINE
  5
593
102
{ACAD_REACTORS
330
851
102
}
330
1F
100
AcDbEntity
  8
instalacja gazowa
  6
Continuous
100
AcDbPolyline
 90
        2
 70
     0
 43
0.0
 10
8417631.048133467
 20
5761199.010220891
 10
8417632.424942734
 20
5761198.372253786
  0
LWPOLYLINE
  5
594
330
1F
100
AcDbEntity
  8
instalacja gazowa
  6
Continuous
100
AcDbPolyline
 90
        2
 70
     0
 43
0.0
 10
8417639.669804124
 20
5761194.864936961
 10
8417641.046613391
 20
5761194.226969856
  0
DIMENSION
  5
595
330
1F
100
AcDbEntity
  8
instalacja gazowa
  6
Continuous
100
AcDbDimension
280
     0
  2
*D36
 10
8417657.140614066
 20
5761206.189167435
 30
0.0
 11
8417656.460598603
 21
5761206.508744364
 31
0.0
 70
    33
 71
     5
 42
1.502731440359226
 73
     0
 74
     0
 75
     0
  3
Standard
100
AcDbAlignedDimension
 13
8417655.69250081
 23
5761206.640894291
 33
0.0
 14
8417657.052531737
 24
5761206.001740432
 34
0.0
1001
ACAD
1000
DSTYLE
1002
{
1070
   171
1070
     2
1070
   143
1040
25.4
1070
   274
1070
     2
1070
    41
1040
0.18
1070
   141
1040
0.09
1070
   271
1070
     4
1070
    43
1040
0.38
1070
   278
1070
    46
1070
    44
1040
1.25
1070
    42
1040
0.0625
1070
   147
1040
0.09
1070
    77
1070
     0
1070
   272
1070
     4
1070
    73
1070
     1
1070
   172
1070
     0
1070
    74
1070
     1
1070
   283
1070
     1
1070
   140
1040
0.18
1070
   284
1070
     0
1070
    78
1070
     0
1002
}
  0
DIMENSION
  5
596
330
1F
100
AcDbEntity
  8
instalacja gazowa
  6
Continuous
100
AcDbDimension
280
     0
  2
*D37
 10
8417641.852009184
 20
5761173.811026085
 30
0.0
 11
8417641.170373313
 21
5761174.124068605
 31
0.0
 70
    33
 71
     5
 42
1.500164100750269
 73
     0
 74
     0
 75
     0
  3
Standard
100
AcDbAlignedDimension
 13
8417640.301107827
 23
5761174.028556167
 33
0.0
 14
8417641.664379573
 24
5761173.402471126
 34
0.0
1001
ACAD
1000
DSTYLE
1002
{
1070
   171
1070
     2
1070
   143
1040
25.4
1070
   274
1070
     2
1070
    41
1040
0.18
1070
   141
1040
0.09
1070
   271
1070
     4
1070
    43
1040
0.38
1070
   278
1070
    46
1070
    44
1040
1.25
1070
    42
1040
0.0625
1070
   147
1040
0.09
1070
    77
1070
     0
1070
   272
1070
     4
1070
    73
1070
     1
1070
   172
1070
     0
1070
    74
1070
     1
1070
   283
1070
     1
1070
   140
1040
0.18
1070
   284
1070
     0
1070
    78
1070
     0
1002
}
  0
DIMENSION
  5
597
330
1F
100
AcDbEntity
  8
instalacja gazowa
  6
Continuous
100
AcDbDimension
280
     0
  2
*D38
 10
8417628.485084051
 20
5761214.042747461
 30
0.0
 11
8417628.751879107
 21
5761214.60794245
 31
0.0
 70
    33
 71
     5
 42
1.249999966584569
 73
     0
 74
     0
 75
     0
  3
Standard
100
AcDbAlignedDimension
 13
8417629.683128794
 23
5761214.859487791
 33
0.0
 14
8417629.149538681
 24
5761213.729097811
 34
0.0
1001
ACAD
1000
DSTYLE
1002
{
1070
   171
1070
     2
1070
   143
1040
25.4
1070
   274
1070
     2
1070
    41
1040
0.18
1070
   141
1040
0.09
1070
   271
1070
     4
1070
    43
1040
0.38
1070
   278
1070
    46
1070
    44
1040
1.25
1070
    42
1040
0.0625
1070
   147
1040
0.09
1070
    77
1070
     0
1070
   272
1070
     4
1070
    73
1070
     1
1070
   172
1070
     0
1070
    74
1070
     1
1070
   283
1070
     1
1070
   140
1040
0.18
1070
   284
1070
     0
1070
    78
1070
     0
1002
}
  0
DIMENSION
  5
59B
330
1F
100
AcDbEntity
  8
instalacja gazowa
  6
Continuous
100
AcDbDimension
280
     0
  2
*D41
 10
8417636.024779108
 20
5761207.399755504
 30
0.0
 11
8417636.291574172
 21
5761207.964950509
 31
0.0
 70
    33
 71
     5
 42
1.249999999896057
 73
     0
 74
     0
 75
     0
  3
Standard
100
AcDbAlignedDimension
 13
8417637.112143639
 23
5761208.268741439
 33
0.0
 14
8417636.57855351
 24
5761207.138351429
 34
0.0
1001
ACAD
1000
DSTYLE
1002
{
1070
   171
1070
     2
1070
   143
1040
25.4
1070
   274
1070
     2
1070
    41
1040
0.18
1070
   141
1040
0.09
1070
   271
1070
     4
1070
    43
1040
0.38
1070
   278
1070
    46
1070
    44
1040
1.25
1070
    42
1040
0.0625
1070
   147
1040
0.09
1070
    77
1070
     0
1070
   272
1070
     4
1070
    73
1070
     1
1070
   172
1070
     0
1070
    74
1070
     1
1070
   283
1070
     1
1070
   140
1040
0.18
1070
   284
1070
     0
1070
    78
1070
     0
1002
}
  0
DIMENSION
  5
59D
330
1F
100
AcDbEntity
  8
instalacja gazowa
  6
Continuous
100
AcDbDimension
280
     0
  2
*D44
 10
8417635.350578745
 20
5761206.059285997
 30
0.0
 11
8417635.670732821
 21
5761206.737520002
 31
0.0
 70
    33
 71
     5
 42
1.499999999070738
 73
     0
 74
     0
 75
     0
  3
Standard
100
AcDbAlignedDimension
 13
8417636.57855351
 23
5761207.138351429
 33
0.0
 14
8417635.938245359
 24
5761205.781883417
 34
0.0
1001
ACAD
1000
DSTYLE
1002
{
1070
   171
1070
     2
1070
   143
1040
25.4
1070
   274
1070
     2
1070
    41
1040
0.18
1070
   141
1040
0.09
1070
   271
1070
     4
1070
    43
1040
0.38
1070
   278
1070
    46
1070
    44
1040
1.25
1070
    42
1040
0.0625
1070
   147
1040
0.09
1070
    77
1070
     0
1070
   272
1070
     4
1070
    73
1070
     1
1070
   172
1070
     0
1070
    74
1070
     1
1070
   283
1070
     1
1070
   140
1040
0.18
1070
   284
1070
     0
1070
    78
1070
     0
1002
}
  0
DIMENSION
  5
5A0
330
1F
100
AcDbEntity
  8
instalacja gazowa
  6
Continuous
100
AcDbDimension
280
     0
  2
*D47
 10
8417636.359248049
 20
5761162.334498989
 30
0.0
 11
8417636.787999551
 21
5761166.552384471
 31
0.0
 70
    33
 71
     5
 42
8.479241898678704
 73
     0
 74
     0
 75
     0
  3
Standard
100
AcDbAlignedDimension
 13
8417638.7022517
 23
5761170.619267601
 33
0.0
 14
8417637.844748696
 24
5761162.183496636
 34
0.0
1001
ACAD
1000
DSTYLE
1002
{
1070
   171
1070
     2
1070
   143
1040
25.4
1070
   274
1070
     2
1070
    41
1040
0.18
1070
   141
1040
0.09
1070
   271
1070
     4
1070
    43
1040
0.38
1070
   278
1070
    46
1070
    44
1040
1.25
1070
    42
1040
0.0625
1070
   147
1040
0.09
1070
    77
1070
     0
1070
   272
1070
     4
1070
    73
1070
     1
1070
   172
1070
     0
1070
    74
1070
     1
1070
   283
1070
     1
1070
   140
1040
0.18
1070
   284
1070
     0
1070
    78
1070
     0
1002
}
  0
DIMENSION
  5
5A1
330
1F
100
AcDbEntity
  8
instalacja gazowa
  6
Continuous
100
AcDbDimension
280
     0
  2
*D48
 10
8417646.408974032
 20
5761161.42071504
 30
0.0
 11
8417646.84251158
 21
5761165.341240054
 31
0.0
 70
    33
 71
     5
 42
7.888845593648524
 73
     0
 74
     0
 75
     0
  3
Standard
100
AcDbAlignedDimension
 13
8417648.492760022
 23
5761169.127219351
 33
0.0
 14
8417647.625684931
 24
5761161.28616932
 34
0.0
1001
ACAD
1000
DSTYLE
1002
{
1070
   171
1070
     2
1070
   143
1040
25.4
1070
   274
1070
     2
1070
    41
1040
0.18
1070
   141
1040
0.09
1070
   271
1070
     4
1070
    43
1040
0.38
1070
   278
1070
    46
1070
    44
1040
1.25
1070
    42
1040
0.0625
1070
   147
1040
0.09
1070
    77
1070
     0
1070
   272
1070
     4
1070
    73
1070
     1
1070
   172
1070
     0
1070
    74
1070
     1
1070
   283
1070
     1
1070
   140
1040
0.18
1070
   284
1070
     0
1070
    78
1070
     0
1002
}
  0
DIMENSION
  5
5A2
330
1F
100
AcDbEntity
  8
instalacja gazowa
  6
Continuous
100
AcDbDimension
280
     0
  2
*D49
 10
8417615.177521762
 20
5761195.167212528
 30
0.0
 11
8417620.46006403
 21
5761206.358073626
 31
0.0
 70
    33
 71
     5
 42
24.74999999477091
 73
     0
 74
     0
 75
     0
  3
Standard
100
AcDbAlignedDimension
 13
8417630.003282889
 23
5761215.537721827
 33
0.0
 14
8417619.438198348
 24
5761193.155999632
 34
0.0
1001
ACAD
1000
DSTYLE
1002
{
1070
   171
1070
     2
1070
   143
1040
25.4
1070
   274
1070
     2
1070
    41
1040
0.18
1070
   141
1040
0.09
1070
   271
1070
     4
1070
    43
1040
0.38
1070
   278
1070
    46
1070
    44
1040
1.25
1070
    42
1040
0.0625
1070
   147
1040
0.09
1070
    77
1070
     0
1070
   272
1070
     4
1070
    73
1070
     1
1070
   172
1070
     0
1070
    74
1070
     1
1070
   283
1070
     1
1070
   140
1040
0.18
1070
   284
1070
     0
1070
    78
1070
     0
1002
}
  0
DIMENSION
  5
5A3
330
1F
100
AcDbEntity
  8
instalacja gazowa
  6
Continuous
100
AcDbDimension
280
     0
  2
*D50
 10
8417626.174617707
 20
5761188.685866609
 30
0.0
 11
8417622.557369677
 21
5761190.393355019
 31
0.0
 70
    33
 71
     5
 42
8.000000001094532
 73
     0
 74
     0
 75
     0
  3
Standard
100
AcDbAlignedDimension
 13
8417619.438198348
 23
5761193.155999632
 33
0.0
 14
8417626.672694416
 24
5761189.741022811
 34
0.0
1001
ACAD
1000
DSTYLE
1002
{
1070
   171
1070
     2
1070
   143
1040
25.4
1070
   274
1070
     2
1070
    41
1040
0.18
1070
   141
1040
0.09
1070
   271
1070
     4
1070
    43
1040
0.38
1070
   278
1070
    46
1070
    44
1040
1.25
1070
    42
1040
0.0625
1070
   147
1040
0.09
1070
    77
1070
     0
1070
   272
1070
     4
1070
    73
1070
     1
1070
   172
1070
     0
1070
    74
1070
     1
1070
   283
1070
     1
1070
   140
1040
0.18
1070
   284
1070
     0
1070
    78
1070
     0
1002
}
  0
DIMENSION
  5
5A4
330
1F
100
AcDbEntity
  8
instalacja gazowa
  6
Continuous
100
AcDbDimension
280
     0
  2
*D51
 10
8417620.048634773
 20
5761193.755428053
 30
0.0
 11
8417619.007041551
 21
5761189.918693317
 31
0.0
 70
    33
 71
     5
 42
7.951213710609238
 73
     0
 74
     0
 75
     0
  3
Standard
100
AcDbAlignedDimension
 13
8417617.675165981
 23
5761186.160764168
 33
0.0
 14
8417619.758352422
 24
5761193.834233639
 34
0.0
1001
ACAD
1000
DSTYLE
1002
{
1070
   171
1070
     2
1070
   143
1040
25.4
1070
   274
1070
     2
1070
    41
1040
0.18
1070
   141
1040
0.09
1070
   271
1070
     4
1070
    43
1040
0.38
1070
   278
1070
    46
1070
    44
1040
1.25
1070
    42
1040
0.0625
1070
   147
1040
0.09
1070
    77
1070
     0
1070
   272
1070
     4
1070
    73
1070
     1
1070
   172
1070
     0
1070
    74
1070
     1
1070
   283
1070
     1
1070
   140
1040
0.18
1070
   284
1070
     0
1070
    78
1070
     0
1002
}
  0
DIMENSION
  5
5A5
330
1F
100
AcDbEntity
  8
instalacja gazowa
  6
Continuous
100
AcDbDimension
280
     0
  2
*D52
 10
8417627.002870977
 20
5761190.397327384
 30
0.0
 11
8417622.34402976
 21
5761188.268081049
 31
0.0
 70
    33
 71
     5
 42
10.24470427914227
 73
     0
 74
     0
 75
     0
  3
Standard
100
AcDbAlignedDimension
 13
8417617.675166058
 23
5761186.160764147
 33
0.0
 14
8417626.992848491
 24
5761190.419256818
 34
0.0
1001
ACAD
1000
DSTYLE
1002
{
1070
   171
1070
     2
1070
   143
1040
25.4
1070
   274
1070
     2
1070
    41
1040
0.18
1070
   141
1040
0.09
1070
   271
1070
     4
1070
    43
1040
0.38
1070
   278
1070
    46
1070
    44
1040
1.25
1070
    42
1040
0.0625
1070
   147
1040
0.09
1070
    77
1070
     0
1070
   272
1070
     4
1070
    73
1070
     1
1070
   172
1070
     0
1070
    74
1070
     1
1070
   283
1070
     1
1070
   140
1040
0.18
1070
   284
1070
     0
1070
    78
1070
     0
1002
}
  0
DIMENSION
  5
5A6
330
1F
100
AcDbEntity
  8
instalacja gazowa
  6
Continuous
100
AcDbDimension
280
     0
  2
*D53
 10
8417632.403835266
 20
5761179.553396199
 30
0.0
 11
8417628.786587236
 21
5761181.260884608
 31
0.0
 70
    33
 71
     5
 42
7.999999995246182
 73
     0
 74
     0
 75
     0
  3
Standard
100
AcDbAlignedDimension
 13
8417625.693314903
 23
5761184.078395226
 33
0.0
 14
8417632.927810963
 24
5761180.663418407
 34
0.0
1001
ACAD
1000
DSTYLE
1002
{
1070
   171
1070
     2
1070
   143
1040
25.4
1070
   274
1070
     2
1070
    41
1040
0.18
1070
   141
1040
0.09
1070
   271
1070
     4
1070
    43
1040
0.38
1070
   278
1070
    46
1070
    44
1040
1.25
1070
    42
1040
0.0625
1070
   147
1040
0.09
1070
    77
1070
     0
1070
   272
1070
     4
1070
    73
1070
     1
1070
   172
1070
     0
1070
    74
1070
     1
1070
   283
1070
     1
1070
   140
1040
0.18
1070
   284
1070
     0
1070
    78
1070
     0
1002
}
  0
DIMENSION
  5
5A7
330
1F
100
AcDbEntity
  8
instalacja gazowa
  6
Continuous
100
AcDbDimension
280
     0
  2
*D54
 10
8417624.994412545
 20
5761184.408305608
 30
0.0
 11
8417632.037802233
 21
5761199.329453736
 31
0.0
 70
    33
 71
     5
 42
32.99999999008108
 73
     0
 74
     0
 75
     0
  3
Standard
100
AcDbAlignedDimension
 13
8417639.780094283
 23
5761213.920691485
 33
0.0
 14
8417625.693314903
 24
5761184.078395226
 34
0.0
1001
ACAD
1000
DSTYLE
1002
{
1070
   171
1070
     2
1070
   143
1040
25.4
1070
   274
1070
     2
1070
    41
1040
0.18
1070
   141
1040
0.09
1070
   271
1070
     4
1070
    43
1040
0.38
1070
   278
1070
    46
1070
    44
1040
1.25
1070
    42
1040
0.0625
1070
   147
1040
0.09
1070
    77
1070
     0
1070
   272
1070
     4
1070
    73
1070
     1
1070
   172
1070
     0
1070
    74
1070
     1
1070
   283
1070
     1
1070
   140
1040
0.18
1070
   284
1070
     0
1070
    78
1070
     0
1002
}
  0
DIMENSION
  5
5A8
330
1F
100
AcDbEntity
  8
instalacja gazowa
  6
Continuous
100
AcDbDimension
280
     0
  2
*D55
 10
8417628.057696262
 20
5761189.087245524
 30
0.0
 11
8417627.379462258
 21
5761189.407399599
 31
0.0
 70
    33
 71
     5
 42
1.499999995749008
 73
     0
 74
     0
 75
     0
  3
Standard
100
AcDbAlignedDimension
 13
8417626.701228254
 23
5761189.727553677
 33
0.0
 14
8417628.057696262
 24
5761189.087245526
 34
0.0
1001
ACAD
1000
DSTYLE
1002
{
1070
   171
1070
     2
1070
   143
1040
25.4
1070
   274
1070
     2
1070
    41
1040
0.18
1070
   141
1040
0.09
1070
   271
1070
     4
1070
    43
1040
0.38
1070
   278
1070
    46
1070
    44
1040
1.25
1070
    42
1040
0.0625
1070
   147
1040
0.09
1070
    77
1070
     0
1070
   272
1070
     4
1070
    73
1070
     1
1070
   172
1070
     0
1070
    74
1070
     1
1070
   283
1070
     1
1070
   140
1040
0.18
1070
   284
1070
     0
1070
    78
1070
     0
1002
}
  0
LWPOLYLINE
  5
5A9
330
1F
100
AcDbEntity
  8
_OBRYS_POD_ZB
  6
Continuous
100
AcDbPolyline
 90
        4
 70
     1
 43
0.0
 10
8417630.031816715
 20
5761215.524252698
 10
8417637.266312782
 20
5761212.109275877
 10
8417626.701228254
 20
5761189.727553677
 10
8417619.466732178
 20
5761193.142530502
  0
LWPOLYLINE
  5
5AA
102
{ACAD_REACTORS
330
851
330
880
102
}
330
1F
100
AcDbEntity
  8
_OBRYS_POD_ZB
  6
Continuous
100
AcDbPolyline
 90
        5
 70
     0
 43
0.0
 10
8417639.780094283
 20
5761213.920691485
 10
8417647.014590347
 20
5761210.505714666
 10
8417632.927810963
 20
5761180.663418407
 10
8417625.693314903
 20
5761184.078395225
 10
8417639.780094283
 20
5761213.920691485
  0
LWPOLYLINE
  5
5AB
102
{ACAD_REACTORS
330
880
102
}
330
1F
100
AcDbEntity
  8
_OBRYS_POD_ZB
  6
Continuous
100
AcDbPolyline
 90
        2
 70
     0
 43
0.0
 10
8417647.014615564
 20
5761210.505702763
 10
8417632.901131456
 20
5761180.606898907
  0
DIMENSION
  5
5AC
330
1F
100
AcDbEntity
  8
instalacja gazowa
  6
Continuous
100
AcDbDimension
280
     0
  2
*D56
 10
8417641.058735181
 20
5761194.37090665
 30
0.0
 11
8417640.384639565
 21
5761194.699611811
 31
0.0
 70
    33
 71
     5
 42
1.499935975022285
 73
     0
 74
     0
 75
     0
  3
Standard
100
AcDbAlignedDimension
 13
8417639.651058639
 23
5761194.906326838
 33
0.0
 14
8417640.999249872
 24
5761194.248916519
 34
0.0
1001
ACAD
1000
DSTYLE
1002
{
1070
   171
1070
     2
1070
   143
1040
25.4
1070
   274
1070
     2
1070
    41
1040
0.18
1070
   141
1040
0.09
1070
   271
1070
     4
1070
    43
1040
0.38
1070
   278
1070
    46
1070
    44
1040
1.25
1070
    42
1040
0.0625
1070
   147
1040
0.09
1070
    77
1070
     0
1070
   272
1070
     4
1070
    73
1070
     1
1070
   172
1070
     0
1070
    74
1070
     1
1070
   283
1070
     1
1070
   140
1040
0.18
1070
   284
1070
     0
1070
    78
1070
     0
1002
}
  0
DIMENSION
  5
5B0
330
1F
100
AcDbEntity
  8
instalacja gazowa
  6
Continuous
100
AcDbDimension
280
     0
  2
*D60
 10
8417630.613009649
 20
5761173.624959529
 30
0.0
 11
8417639.417246762
 21
5761192.276394694
 31
0.0
 70
    33
 71
     5
 42
41.24999999451422
 73
     0
 74
     0
 75
     0
  3
Standard
100
AcDbAlignedDimension
 13
8417648.753951405
 23
5761210.676483496
 33
0.0
 14
8417631.14547718
 24
5761173.373613165
 34
0.0
1001
ACAD
1000
DSTYLE
1002
{
1070
   171
1070
     2
1070
   143
1040
25.4
1070
   274
1070
     2
1070
    41
1040
0.18
1070
   141
1040
0.09
1070
   271
1070
     4
1070
    43
1040
0.38
1070
   278
1070
    46
1070
    44
1040
1.25
1070
    42
1040
0.0625
1070
   147
1040
0.09
1070
    77
1070
     0
1070
   272
1070
     4
1070
    73
1070
     1
1070
   172
1070
     0
1070
    74
1070
     1
1070
   283
1070
     1
1070
   140
1040
0.18
1070
   284
1070
     0
1070
    78
1070
     0
1002
}
  0
LWPOLYLINE
  5
5B1
102
{ACAD_REACTORS
330
880
102
}
330
1F
100
AcDbEntity
  8
_OBRYS_POD_ZB
  6
Continuous
100
AcDbPolyline
 90
        4
 70
     1
 43
0.0
 10
8417648.753949308
 20
5761210.676484488
 10
8417655.988447473
 20
5761207.261506676
 10
8417638.379973245
 20
5761169.958636345
 10
8417631.145449904
 20
5761173.37362604
  0
INSERT
  5
5B2
330
1F
100
AcDbEntity
  8
ziemne 2
  6
Continuous
100
AcDbBlockReference
  2
A$C539eaeab
 10
8417676.186674857
 20
5761229.04402171
 30
0.0
 50
49.77412570018994
  0
LWPOLYLINE
  5
5B3
330
1F
100
AcDbEntity
  8
_OBRYS_POD_ZB
  6
Continuous
100
AcDbPolyline
 90
        4
 70
     1
 43
0.0
 10
8417683.198473206
 20
5761261.390839061
 10
8417640.938135065
 20
5761171.863950278
 10
8417648.172605947
 20
5761168.448985346
 10
8417690.432969271
 20
5761257.975862243
  0
DIMENSION
  5
87E
102
{ACAD_XDICTIONARY
360
87F
102
}
102
{ACAD_REACTORS
330
880
102
}
330
1F
100
AcDbEntity
  8
instalacja gazowa
100
AcDbDimension
280
     0
  2
*D62
 10
8417634.29399101
 20
5761180.043676707
 30
0.0
 11
8417633.615755685
 21
5761180.363831965
 31
0.0
 70
    33
 71
     5
 42
1.50000339651691
 73
     0
 74
     0
 75
     0
  3
Standard
100
AcDbAlignedDimension
 13
8417632.927811011
 23
5761180.663418385
 33
0.0
 14
8417634.284281664
 24
5761180.023107867
 34
0.0
  0
LWPOLYLINE
  5
8A3
330
1F
100
AcDbEntity
  8
_OBRYS_POD_ZB
  6
Continuous
100
AcDbPolyline
 90
        4
 70
     1
 43
0.0
 10
8417639.063934425
 20
5761215.917467652
 10
8417649.011366512
 20
5761211.221874525
 10
8417633.643970821
 20
5761178.666642242
 10
8417623.696538736
 20
5761183.362235366
  0
ENDSEC
  0
SECTION
  2
OBJECTS
  0
DICTIONARY
  5
C
330
0
100
AcDbDictionary
281
     1
  3
ACAD_CIP_PREVIOUS_PRODUCT_INFO
350
19E
  3
ACAD_COLOR
350
6C
  3
ACAD_DETAILVIEWSTYLE
350
1EB
  3
ACAD_GROUP
350
D
  3
ACAD_LAYOUT
350
1A
  3
ACAD_MATERIAL
350
6B
  3
ACAD_MLEADERSTYLE
350
DE
  3
ACAD_MLINESTYLE
350
17
  3
ACAD_PLOTSETTINGS
350
19
  3
ACAD_PLOTSTYLENAME
350
E
  3
ACAD_SCALELIST
350
B7
  3
ACAD_SECTIONVIEWSTYLE
350
1E9
  3
ACAD_TABLESTYLE
350
92
  3
ACAD_VISUALSTYLE
350
17F
  3
AcDbVariableDictionary
350
59
  0
DICTIONARY
  5
FA
330
2
100
AcDbDictionary
280
     1
281
     1
  3
ACAD_LAYERSTATES
360
FB
  0
DICTIONARY
  5
2F1
330
2F0
100
AcDbDictionary
280
     1
281
     1
  3
ACAD_SORTENTS
360
2F2
  0
DICTIONARY
  5
4E2
330
4E1
100
AcDbDictionary
280
     1
281
     1
  3
AcDbContextDataManager
360
4E3
  0
DICTIONARY
  5
4E8
330
4E7
100
AcDbDictionary
280
     1
281
     1
  3
AcDbContextDataManager
360
4E9
  0
DICTIONARY
  5
4F2
330
4F1
100
AcDbDictionary
280
     1
281
     1
  3
AcDbContextDataManager
360
4F3
  0
DICTIONARY
  5
4F7
330
4F6
100
AcDbDictionary
280
     1
281
     1
  3
AcDbContextDataManager
360
4F8
  0
DICTIONARY
  5
4FC
330
4FB
100
AcDbDictionary
280
     1
281
     1
  3
AcDbContextDataManager
360
4FD
  0
DICTIONARY
  5
501
330
500
100
AcDbDictionary
280
     1
281
     1
  3
AcDbContextDataManager
360
502
  0
DICTIONARY
  5
50C
330
50B
100
AcDbDictionary
280
     1
281
     1
  3
AcDbContextDataManager
360
50D
  0
DICTIONARY
  5
512
330
511
100
AcDbDictionary
280
     1
281
     1
  3
AcDbContextDataManager
360
513
  0
DICTIONARY
  5
519
330
518
100
AcDbDictionary
280
     1
281
     1
  3
AcDbContextDataManager
360
51A
  0
DICTIONARY
  5
520
330
51F
100
AcDbDictionary
280
     1
281
     1
  3
AcDbContextDataManager
360
521
  0
DICTIONARY
  5
527
330
526
100
AcDbDictionary
280
     1
281
     1
  3
AcDbContextDataManager
360
528
  0
DICTIONARY
  5
52C
330
52B
100
AcDbDictionary
280
     1
281
     1
  3
AcDbContextDataManager
360
52D
  0
DICTIONARY
  5
532
330
531
100
AcDbDictionary
280
     1
281
     1
  3
AcDbContextDataManager
360
533
  0
DICTIONARY
  5
87F
330
87E
100
AcDbDictionary
280
     1
281
     1
  3
ACAD_DIMASSOC
360
880
  0
XRECORD
  5
19E
102
{ACAD_REACTORS
330
C
102
}
330
C
100
AcDbXrecord
280
     1
300
ACD
300
2013
300
ACD_F_S
  0
DICTIONARY
  5
6C
102
{ACAD_REACTORS
330
C
102
}
330
C
100
AcDbDictionary
281
     1
  0
DICTIONARY
  5
1EB
102
{ACAD_REACTORS
330
C
102
}
330
C
100
AcDbDictionary
281
     1
  3
Metric50
350
1EC
  0
DICTIONARY
  5
D
102
{ACAD_REACTORS
330
C
102
}
330
C
100
AcDbDictionary
281
     1
  0
DICTIONARY
  5
1A
102
{ACAD_REACTORS
330
C
102
}
330
C
100
AcDbDictionary
281
     1
  3
Arkusz1
350
1E0
  3
Arkusz2
350
1E4
  3
Model
350
22
  0
DICTIONARY
  5
6B
102
{ACAD_REACTORS
330
C
102
}
330
C
100
AcDbDictionary
281
     1
  3
ByBlock
350
16F
  3
ByLayer
350
167
  3
Global
350
177
  0
DICTIONARY
  5
DE
102
{ACAD_REACTORS
330
C
102
}
330
C
100
AcDbDictionary
281
     1
  3
Annotative
350
237
  3
Standard
350
E1
  0
DICTIONARY
  5
17
102
{ACAD_REACTORS
330
C
102
}
330
C
100
AcDbDictionary
281
     1
  3
Standard
350
18
  0
DICTIONARY
  5
19
102
{ACAD_REACTORS
330
C
102
}
330
C
100
AcDbDictionary
281
     1
  0
ACDBDICTIONARYWDFLT
  5
E
102
{ACAD_REACTORS
330
C
102
}
330
C
100
AcDbDictionary
281
     1
  3
Normal
350
F
100
AcDbDictionaryWithDefault
340
F
  0
DICTIONARY
  5
B7
102
{ACAD_REACTORS
330
C
102
}
330
C
100
AcDbDictionary
281
     1
  3
A0
350
B8
  3
A1
350
B9
  3
A2
350
BA
  3
A3
350
BB
  3
A4
350
BC
  3
A5
350
BD
  3
A6
350
BE
  3
A7
350
BF
  3
A8
350
C0
  3
A9
350
C1
  3
B0
350
C2
  3
B1
350
C3
  3
B2
350
C4
  3
B3
350
C5
  3
B4
350
C6
  3
B5
350
C7
  3
B6
350
C8
  3
B7
350
C9
  3
B8
350
CA
  3
B9
350
CB
  3
C0
350
CC
  3
C1
350
CD
  3
C2
350
CE
  3
C3
350
CF
  3
C4
350
D0
  3
C5
350
D1
  3
C6
350
D2
  3
C7
350
D3
  3
C8
350
D4
  3
C9
350
D5
  3
D0
350
D6
  3
D1
350
D7
  3
D2
350
D8
  0
DICTIONARY
  5
1E9
102
{ACAD_REACTORS
330
C
102
}
330
C
100
AcDbDictionary
281
     1
  3
Metric50
350
1EA
  0
DICTIONARY
  5
92
102
{ACAD_REACTORS
330
C
102
}
330
C
100
AcDbDictionary
281
     1
  3
Standard
350
93
  0
DICTIONARY
  5
17F
102
{ACAD_REACTORS
330
C
102
}
330
C
100
AcDbDictionary
281
     1
  3
2dWireframe
350
185
  3
Basic
350
184
  3
Brighten
350
18B
  3
ColorChange
350
18F
  3
Conceptual
350
188
  3
Dim
350
18A
  3
EdgeColorOff
350
197
  3
Facepattern
350
18E
  3
Flat
350
180
  3
FlatWithEdges
350
181
  3
Gouraud
350
182
  3
GouraudWithEdges
350
183
  3
Hidden
350
187
  3
JitterOff
350
195
  3
Linepattern
350
18D
  3
OverhangOff
350
196
  3
Realistic
350
189
  3
Shaded
350
194
  3
Shaded with edges
350
193
  3
Shades of Gray
350
190
  3
Sketchy
350
191
  3
Thicken
350
18C
  3
Wireframe
350
186
  3
X-Ray
350
192
  0
DICTIONARY
  5
59
102
{ACAD_REACTORS
330
C
102
}
330
C
100
AcDbDictionary
281
     1
  3
CANNOSCALE
350
DD
  3
CMLEADERSTYLE
350
E9
  3
CTABLESTYLE
350
98
  3
CVIEWDETAILSTYLE
350
209
  3
CVIEWSECTIONSTYLE
350
20A
  3
DIMASSOC
350
43
  3
HIDETEXT
350
5E
  3
PROJECTNAME
350
B6
  3
XCLIPFRAME
350
E2
  0
DICTIONARY
  5
FB
102
{ACAD_REACTORS
330
FA
102
}
330
FA
100
AcDbDictionary
281
     1
  0
SORTENTSTABLE
  5
2F2
102
{ACAD_REACTORS
330
2F1
102
}
330
2F1
100
AcDbSortentsTable
330
2F0
  0
DICTIONARY
  5
4E3
102
{ACAD_REACTORS
330
4E2
102
}
330
4E2
100
AcDbDictionary
281
     1
  3
ACDB_ANNOTATIONSCALES
350
4E4
  0
DICTIONARY
  5
4E9
102
{ACAD_REACTORS
330
4E8
102
}
330
4E8
100
AcDbDictionary
281
     1
  3
ACDB_ANNOTATIONSCALES
350
4EA
  0
DICTIONARY
  5
4F3
102
{ACAD_REACTORS
330
4F2
102
}
330
4F2
100
AcDbDictionary
281
     1
  3
ACDB_ANNOTATIONSCALES
350
4F4
  0
DICTIONARY
  5
4F8
102
{ACAD_REACTORS
330
4F7
102
}
330
4F7
100
AcDbDictionary
281
     1
  3
ACDB_ANNOTATIONSCALES
350
4F9
  0
DICTIONARY
  5
4FD
102
{ACAD_REACTORS
330
4FC
102
}
330
4FC
100
AcDbDictionary
281
     1
  3
ACDB_ANNOTATIONSCALES
350
4FE
  0
DICTIONARY
  5
502
102
{ACAD_REACTORS
330
501
102
}
330
501
100
AcDbDictionary
281
     1
  3
ACDB_ANNOTATIONSCALES
350
503
  0
DICTIONARY
  5
50D
102
{ACAD_REACTORS
330
50C
102
}
330
50C
100
AcDbDictionary
281
     1
  3
ACDB_ANNOTATIONSCALES
350
50E
  0
DICTIONARY
  5
513
102
{ACAD_REACTORS
330
512
102
}
330
512
100
AcDbDictionary
281
     1
  3
ACDB_ANNOTATIONSCALES
350
514
  0
DICTIONARY
  5
51A
102
{ACAD_REACTORS
330
519
102
}
330
519
100
AcDbDictionary
281
     1
  3
ACDB_ANNOTATIONSCALES
350
51B
  0
DICTIONARY
  5
521
102
{ACAD_REACTORS
330
520
102
}
330
520
100
AcDbDictionary
281
     1
  3
ACDB_ANNOTATIONSCALES
350
522
  0
DICTIONARY
  5
528
102
{ACAD_REACTORS
330
527
102
}
330
527
100
AcDbDictionary
281
     1
  3
ACDB_ANNOTATIONSCALES
350
529
  0
DICTIONARY
  5
52D
102
{ACAD_REACTORS
330
52C
102
}
330
52C
100
AcDbDictionary
281
     1
  3
ACDB_ANNOTATIONSCALES
350
52E
  0
DICTIONARY
  5
533
102
{ACAD_REACTORS
330
532
102
}
330
532
100
AcDbDictionary
281
     1
  3
ACDB_ANNOTATIONSCALES
350
534
  0
DIMASSOC
  5
880
102
{ACAD_REACTORS
330
87F
102
}
330
87F
100
AcDbDimAssoc
330
87E
 90
        3
 70
     0
 71
     0
  1
AcDbOsnapPointRef
 72
     6
331
5AB
 73
     2
 91
        1
 40
0.9981096408048367
 10
0.0
 20
0.0
 30
0.0
332
5AA
 74
     2
 92
        3
 75
     0
  1
AcDbOsnapPointRef
 72
     8
331
5B1
 73
     2
 91
        4
 40
0.1782566297449555
 10
0.0
 20
0.0
 30
0.0
 75
     0
  0
ACDBDETAILVIEWSTYLE
  5
1EC
102
{ACAD_REACTORS
330
1EB
102
}
330
1EB
100
AcDbModelDocViewStyle
 70
     0
  3
Metric50
290
     1
300
Metric50
 90
        0
100
AcDbDetailViewStyle
 70
     0
 71
     0
 90
        3
 71
     1
340
11
 62
   256
 40
5.0
340
0
 62
   256
 40
5.0
300

 40
0.0
280
     1
 71
     2
340
16
 90
       25
 62
   256
 71
     3
340
11
 62
   256
 40
5.0
 90
        0
 40
15.0
 90
        1
300
%<\AcVar ViewDetailId>% (%<\AcVar ViewScale \f "%sn">%)
 71
     4
340
16
 90
       25
 62
   256
340
16
 90
       25
 62
   256
280
     0
  0
LAYOUT
  5
1E0
102
{ACAD_REACTORS
330
1A
102
}
330
1A
100
AcDbPlotSettings
  1

  2
None
  4
ISO_A4_(210.00_x_297.00_MM)
  6

 40
0.0
 41
0.0
 42
0.0
 43
0.0
 44
0.0
 45
0.0
 46
0.0
 47
0.0
 48
0.0
 49
0.0
140
0.0
141
0.0
142
1.0
143
1.0
 70
   688
 72
     1
 73
     1
 74
     5
  7

 75
    16
 76
     0
 77
     2
 78
   300
147
1.0
148
0.0
149
0.0
100
AcDbLayout
  1
Arkusz1
 70
     1
 71
     1
 10
-20.0
 20
-7.5
 11
277.0
 21
202.5
 12
0.0
 22
0.0
 32
0.0
 14
25.69999999999999
 24
19.5
 34
0.0
 15
231.3
 25
175.5
 35
0.0
146
0.0
 13
0.0
 23
0.0
 33
0.0
 16
1.0
 26
0.0
 36
0.0
 17
0.0
 27
1.0
 37
0.0
 76
     0
330
1DF
  0
LAYOUT
  5
1E4
102
{ACAD_REACTORS
330
1A
102
}
330
1A
100
AcDbPlotSettings
  1

  2
None
  4
ISO_A4_(210.00_x_297.00_MM)
  6

 40
0.0
 41
0.0
 42
0.0
 43
0.0
 44
0.0
 45
0.0
 46
0.0
 47
0.0
 48
0.0
 49
0.0
140
0.0
141
0.0
142
1.0
143
1.0
 70
   688
 72
     1
 73
     1
 74
     5
  7

 75
    16
 76
     0
 77
     2
 78
   300
147
1.0
148
0.0
149
0.0
100
AcDbLayout
  1
Arkusz2
 70
     1
 71
     2
 10
-20.0
 20
-7.5
 11
277.0
 21
202.5
 12
0.0
 22
0.0
 32
0.0
 14
25.69999999999999
 24
19.5
 34
0.0
 15
231.3
 25
175.5
 35
0.0
146
0.0
 13
0.0
 23
0.0
 33
0.0
 16
1.0
 26
0.0
 36
0.0
 17
0.0
 27
1.0
 37
0.0
 76
     0
330
1E3
  0
LAYOUT
  5
22
102
{ACAD_REACTORS
330
1A
102
}
330
1A
100
AcDbPlotSettings
  1

  2
none_device
  4
none_user_media
  6

 40
6.349999904632568
 41
6.349999904632568
 42
6.350006103515625
 43
6.350006103515625
 44
215.8999938964844
 45
279.3999938964844
 46
0.0
 47
103.0606281331548
 48
0.0
 49
0.0
140
0.0
141
0.0
142
1.0
143
6.379298247045111
 70
 11445
 72
     1
 73
     0
 74
     0
  7

 75
     0
 76
     0
 77
     2
 78
   300
147
0.1567570540322675
148
69.17288808618685
149
-33.53116226043312
100
AcDbLayout
  1
Model
 70
     1
 71
     0
 10
0.0
 20
0.0
 11
420.0
 21
297.0
 12
0.0
 22
0.0
 32
0.0
 14
1.000000000000000E+20
 24
1.000000000000000E+20
 34
1.000000000000000E+20
 15
-1.000000000000000E+20
 25
-1.000000000000000E+20
 35
-1.000000000000000E+20
146
0.0
 13
0.0
 23
0.0
 33
0.0
 16
1.0
 26
0.0
 36
0.0
 17
0.0
 27
1.0
 37
0.0
 76
     0
330
1F
331
1CC
1001
ACAD_PSEXT
1000
Żaden
1000
Żaden
1000
Nie można zastosować.
1000
Wybierz nazwę konfiguracji nowego plotera, aby wydrukować arkusz.
1070
     0
  0
MATERIAL
  5
16F
102
{ACAD_REACTORS
330
6B
102
}
330
6B
100
AcDbMaterial
  1
ByBlock
 72
     0
 73
     2
 43
0.0008202099737533
 43
0.0
 43
0.0
 43
0.0
 43
0.0
 43
0.0008202099737533
 43
0.0
 43
0.0
 43
0.0
 43
0.0
 43
1.0
 43
0.0
 43
0.0
 43
0.0
 43
0.0
 43
1.0
 77
     0
 78
     2
 47
0.0008202099737533
 47
0.0
 47
0.0
 47
0.0
 47
0.0
 47
0.0008202099737533
 47
0.0
 47
0.0
 47
0.0
 47
0.0
 47
1.0
 47
0.0
 47
0.0
 47
0.0
 47
0.0
 47
1.0
171
     0
172
     2
 49
0.0008202099737533
 49
0.0
 49
0.0
 49
0.0
 49
0.0
 49
0.0008202099737533
 49
0.0
 49
0.0
 49
0.0
 49
0.0
 49
1.0
 49
0.0
 49
0.0
 49
0.0
 49
0.0
 49
1.0
175
     0
176
     2
142
0.0008202099737533
142
0.0
142
0.0
142
0.0
142
0.0
142
0.0008202099737533
142
0.0
142
0.0
142
0.0
142
0.0
142
1.0
142
0.0
142
0.0
142
0.0
142
0.0
142
1.0
179
     0
270
     2
144
0.0008202099737533
144
0.0
144
0.0
144
0.0
144
0.0
144
0.0008202099737533
144
0.0
144
0.0
144
0.0
144
0.0
144
1.0
144
0.0
144
0.0
144
0.0
144
0.0
144
1.0
274
     2
147
0.0008202099737533
147
0.0
147
0.0
147
0.0
147
0.0
147
0.0008202099737533
147
0.0
147
0.0
147
0.0
147
0.0
147
1.0
147
0.0
147
0.0
147
0.0
147
0.0
147
1.0
 94
      127
  0
MATERIAL
  5
167
102
{ACAD_REACTORS
330
6B
102
}
330
6B
100
AcDbMaterial
  1
ByLayer
 72
     0
 73
     2
 43
0.0008202099737533
 43
0.0
 43
0.0
 43
0.0
 43
0.0
 43
0.0008202099737533
 43
0.0
 43
0.0
 43
0.0
 43
0.0
 43
1.0
 43
0.0
 43
0.0
 43
0.0
 43
0.0
 43
1.0
 77
     0
 78
     2
 47
0.0008202099737533
 47
0.0
 47
0.0
 47
0.0
 47
0.0
 47
0.0008202099737533
 47
0.0
 47
0.0
 47
0.0
 47
0.0
 47
1.0
 47
0.0
 47
0.0
 47
0.0
 47
0.0
 47
1.0
171
     0
172
     2
 49
0.0008202099737533
 49
0.0
 49
0.0
 49
0.0
 49
0.0
 49
0.0008202099737533
 49
0.0
 49
0.0
 49
0.0
 49
0.0
 49
1.0
 49
0.0
 49
0.0
 49
0.0
 49
0.0
 49
1.0
175
     0
176
     2
142
0.0008202099737533
142
0.0
142
0.0
142
0.0
142
0.0
142
0.0008202099737533
142
0.0
142
0.0
142
0.0
142
0.0
142
1.0
142
0.0
142
0.0
142
0.0
142
0.0
142
1.0
179
     0
270
     2
144
0.0008202099737533
144
0.0
144
0.0
144
0.0
144
0.0
144
0.0008202099737533
144
0.0
144
0.0
144
0.0
144
0.0
144
1.0
144
0.0
144
0.0
144
0.0
144
0.0
144
1.0
274
     2
147
0.0008202099737533
147
0.0
147
0.0
147
0.0
147
0.0
147
0.0008202099737533
147
0.0
147
0.0
147
0.0
147
0.0
147
1.0
147
0.0
147
0.0
147
0.0
147
0.0
147
1.0
 94
      127
  0
MATERIAL
  5
177
102
{ACAD_REACTORS
330
6B
102
}
330
6B
100
AcDbMaterial
  1
Global
 72
     0
 73
     2
 43
0.0008202099737533
 43
0.0
 43
0.0
 43
0.0
 43
0.0
 43
0.0008202099737533
 43
0.0
 43
0.0
 43
0.0
 43
0.0
 43
1.0
 43
0.0
 43
0.0
 43
0.0
 43
0.0
 43
1.0
 77
     0
 78
     2
 47
0.0008202099737533
 47
0.0
 47
0.0
 47
0.0
 47
0.0
 47
0.0008202099737533
 47
0.0
 47
0.0
 47
0.0
 47
0.0
 47
1.0
 47
0.0
 47
0.0
 47
0.0
 47
0.0
 47
1.0
171
     0
172
     2
 49
0.0008202099737533
 49
0.0
 49
0.0
 49
0.0
 49
0.0
 49
0.0008202099737533
 49
0.0
 49
0.0
 49
0.0
 49
0.0
 49
1.0
 49
0.0
 49
0.0
 49
0.0
 49
0.0
 49
1.0
175
     0
176
     2
142
0.0008202099737533
142
0.0
142
0.0
142
0.0
142
0.0
142
0.0008202099737533
142
0.0
142
0.0
142
0.0
142
0.0
142
1.0
142
0.0
142
0.0
142
0.0
142
0.0
142
1.0
179
     0
270
     2
144
0.0008202099737533
144
0.0
144
0.0
144
0.0
144
0.0
144
0.0008202099737533
144
0.0
144
0.0
144
0.0
144
0.0
144
1.0
144
0.0
144
0.0
144
0.0
144
0.0
144
1.0
274
     2
147
0.0008202099737533
147
0.0
147
0.0
147
0.0
147
0.0
147
0.0008202099737533
147
0.0
147
0.0
147
0.0
147
0.0
147
1.0
147
0.0
147
0.0
147
0.0
147
0.0
147
1.0
 94
      127
  0
MLEADERSTYLE
  5
237
102
{ACAD_REACTORS
330
DE
102
}
330
DE
100
AcDbMLeaderStyle
179
     2
170
     2
171
     1
172
     0
 90
        2
 40
0.0
 41
0.0
173
     1
 91
-1056964608
340
14
 92
       -2
290
     1
 42
2.0
291
     1
 43
8.0
  3
Standard
 44
4.0
300

342
11
174
     1
178
     1
175
     1
176
     0
 93
-1056964608
 45
4.0
292
     0
297
     0
 46
0.18
 94
-1056964608
 47
1.0
 49
1.0
140
1.0
293
     1
141
0.0
294
     1
177
     0
142
1.0
295
     0
296
     1
143
3.75
271
     0
272
     9
273
     9
298
     0
  0
MLEADERSTYLE
  5
E1
102
{ACAD_REACTORS
330
DE
102
}
330
DE
100
AcDbMLeaderStyle
179
     2
170
     2
171
     1
172
     0
 90
        2
 40
0.0
 41
0.0
173
     1
 91
-1056964608
340
14
 92
       -2
290
     1
 42
2.0
291
     1
 43
8.0
  3
Standard
 44
4.0
300

342
11
174
     1
178
     1
175
     1
176
     0
 93
-1056964608
 45
4.0
292
     0
297
     0
 46
0.18
 94
-1056964608
 47
1.0
 49
1.0
140
1.0
293
     1
141
0.0
294
     1
177
     0
142
1.0
295
     0
296
     0
143
3.75
271
     0
272
     9
273
     9
298
     0
  0
MLINESTYLE
  5
18
102
{ACAD_REACTORS
330
17
102
}
330
17
100
AcDbMlineStyle
  2
STANDARD
 70
     0
  3

 62
   256
 51
90.0
 52
90.0
 71
     2
 49
0.5
 62
   256
  6
BYLAYER
 49
-0.5
 62
   256
  6
BYLAYER
  0
ACDBPLACEHOLDER
  5
F
102
{ACAD_REACTORS
330
E
102
}
330
E
  0
SCALE
  5
B8
102
{ACAD_REACTORS
330
B7
102
}
330
B7
100
AcDbScale
 70
     0
300
1:1
140
1.0
141
1.0
290
     1
  0
SCALE
  5
B9
102
{ACAD_REACTORS
330
B7
102
}
330
B7
100
AcDbScale
 70
     0
300
1:2
140
1.0
141
2.0
290
     0
  0
SCALE
  5
BA
102
{ACAD_REACTORS
330
B7
102
}
330
B7
100
AcDbScale
 70
     0
300
1:4
140
1.0
141
4.0
290
     0
  0
SCALE
  5
BB
102
{ACAD_REACTORS
330
B7
102
}
330
B7
100
AcDbScale
 70
     0
300
1:5
140
1.0
141
5.0
290
     0
  0
SCALE
  5
BC
102
{ACAD_REACTORS
330
B7
102
}
330
B7
100
AcDbScale
 70
     0
300
1:8
140
1.0
141
8.0
290
     0
  0
SCALE
  5
BD
102
{ACAD_REACTORS
330
B7
102
}
330
B7
100
AcDbScale
 70
     0
300
1:10
140
1.0
141
10.0
290
     0
  0
SCALE
  5
BE
102
{ACAD_REACTORS
330
B7
102
}
330
B7
100
AcDbScale
 70
     0
300
1:16
140
1.0
141
16.0
290
     0
  0
SCALE
  5
BF
102
{ACAD_REACTORS
330
B7
102
}
330
B7
100
AcDbScale
 70
     0
300
1:20
140
1.0
141
20.0
290
     0
  0
SCALE
  5
C0
102
{ACAD_REACTORS
330
B7
102
}
330
B7
100
AcDbScale
 70
     0
300
1:30
140
1.0
141
30.0
290
     0
  0
SCALE
  5
C1
102
{ACAD_REACTORS
330
B7
102
}
330
B7
100
AcDbScale
 70
     0
300
1:40
140
1.0
141
40.0
290
     0
  0
SCALE
  5
C2
102
{ACAD_REACTORS
330
B7
102
}
330
B7
100
AcDbScale
 70
     0
300
1:50
140
1.0
141
50.0
290
     0
  0
SCALE
  5
C3
102
{ACAD_REACTORS
330
B7
102
}
330
B7
100
AcDbScale
 70
     0
300
1:100
140
1.0
141
100.0
290
     0
  0
SCALE
  5
C4
102
{ACAD_REACTORS
330
B7
102
}
330
B7
100
AcDbScale
 70
     0
300
2:1
140
2.0
141
1.0
290
     0
  0
SCALE
  5
C5
102
{ACAD_REACTORS
330
B7
102
}
330
B7
100
AcDbScale
 70
     0
300
4:1
140
4.0
141
1.0
290
     0
  0
SCALE
  5
C6
102
{ACAD_REACTORS
330
B7
102
}
330
B7
100
AcDbScale
 70
     0
300
8:1
140
8.0
141
1.0
290
     0
  0
SCALE
  5
C7
102
{ACAD_REACTORS
330
B7
102
}
330
B7
100
AcDbScale
 70
     0
300
10:1
140
10.0
141
1.0
290
     0
  0
SCALE
  5
C8
102
{ACAD_REACTORS
330
B7
102
}
330
B7
100
AcDbScale
 70
     0
300
100:1
140
100.0
141
1.0
290
     0
  0
SCALE
  5
C9
102
{ACAD_REACTORS
330
B7
102
}
330
B7
100
AcDbScale
 70
     0
300
1/128" = 1'-0"
140
0.0078125
141
12.0
290
     0
  0
SCALE
  5
CA
102
{ACAD_REACTORS
330
B7
102
}
330
B7
100
AcDbScale
 70
     0
300
1/64" = 1'-0"
140
0.015625
141
12.0
290
     0
  0
SCALE
  5
CB
102
{ACAD_REACTORS
330
B7
102
}
330
B7
100
AcDbScale
 70
     0
300
1/32" = 1'-0"
140
0.03125
141
12.0
290
     0
  0
SCALE
  5
CC
102
{ACAD_REACTORS
330
B7
102
}
330
B7
100
AcDbScale
 70
     0
300
1/16" = 1'-0"
140
0.0625
141
12.0
290
     0
  0
SCALE
  5
CD
102
{ACAD_REACTORS
330
B7
102
}
330
B7
100
AcDbScale
 70
     0
300
3/32" = 1'-0"
140
0.09375
141
12.0
290
     0
  0
SCALE
  5
CE
102
{ACAD_REACTORS
330
B7
102
}
330
B7
100
AcDbScale
 70
     0
300
1/8" = 1'-0"
140
0.125
141
12.0
290
     0
  0
SCALE
  5
CF
102
{ACAD_REACTORS
330
B7
102
}
330
B7
100
AcDbScale
 70
     0
300
3/16" = 1'-0"
140
0.1875
141
12.0
290
     0
  0
SCALE
  5
D0
102
{ACAD_REACTORS
330
B7
102
}
330
B7
100
AcDbScale
 70
     0
300
1/4" = 1'-0"
140
0.25
141
12.0
290
     0
  0
SCALE
  5
D1
102
{ACAD_REACTORS
330
B7
102
}
330
B7
100
AcDbScale
 70
     0
300
3/8" = 1'-0"
140
0.375
141
12.0
290
     0
  0
SCALE
  5
D2
102
{ACAD_REACTORS
330
B7
102
}
330
B7
100
AcDbScale
 70
     0
300
1/2" = 1'-0"
140
0.5
141
12.0
290
     0
  0
SCALE
  5
D3
102
{ACAD_REACTORS
330
B7
102
}
330
B7
100
AcDbScale
 70
     0
300
3/4" = 1'-0"
140
0.75
141
12.0
290
     0
  0
SCALE
  5
D4
102
{ACAD_REACTORS
330
B7
102
}
330
B7
100
AcDbScale
 70
     0
300
1" = 1'-0"
140
1.0
141
12.0
290
     0
  0
SCALE
  5
D5
102
{ACAD_REACTORS
330
B7
102
}
330
B7
100
AcDbScale
 70
     0
300
1-1/2" = 1'-0"
140
1.5
141
12.0
290
     0
  0
SCALE
  5
D6
102
{ACAD_REACTORS
330
B7
102
}
330
B7
100
AcDbScale
 70
     0
300
3" = 1'-0"
140
3.0
141
12.0
290
     0
  0
SCALE
  5
D7
102
{ACAD_REACTORS
330
B7
102
}
330
B7
100
AcDbScale
 70
     0
300
6" = 1'-0"
140
6.0
141
12.0
290
     0
  0
SCALE
  5
D8
102
{ACAD_REACTORS
330
B7
102
}
330
B7
100
AcDbScale
 70
     0
300
1'-0" = 1'-0"
140
12.0
141
12.0
290
     0
  0
ACDBSECTIONVIEWSTYLE
  5
1EA
102
{ACAD_REACTORS
330
1E9
102
}
330
1E9
100
AcDbModelDocViewStyle
 70
     0
  3
Metric50
290
     1
300
Metric50
 90
        0
100
AcDbSectionViewStyle
 70
     0
 71
     0
 90
      102
 71
     1
340
11
 62
   256
 40
5.0
340
0
340
0
 62
   256
 40
5.0
300
I, O, Q, S, X, Z
 40
10.0
 90
        0
 40
2.5
 90
        0
 71
     2
340
16
 90
       25
 62
   256
340
16
 90
       50
 62
   256
 40
5.0
 40
2.5
 40
5.0
 71
     3
340
11
 62
   256
 40
5.0
 90
        0
 40
15.0
 90
        1
300
%<\AcVar ViewSectionStartId>%-%<\AcVar ViewSectionEndId>% (%<\AcVar ViewScale \f "%sn">%)
 71
     4
 62
   256
 62
   257
300
ANSI31
 40
1.0
 90
        0
290
     0
290
     0
 90
        6
 40
0.0
 40
1.570796326794896
 40
0.2617993877991494
 40
1.308996938995747
 40
-0.2617993877991494
 40
1.832595714594046
  0
TABLESTYLE
  5
93
102
{ACAD_REACTORS
330
92
102
}
330
92
100
AcDbTableStyle
  3
Standard
 70
     0
 71
     0
 40
0.06
 41
0.06
280
     0
281
     0
  7
Standard
140
4.5
170
     2
 62
     0
 63
   257
283
     0
 90
      512
 91
        0
  1

274
    -2
284
     1
 64
     0
275
    -2
285
     1
 65
     0
276
    -2
286
     1
 66
     0
277
    -2
287
     1
 67
     0
278
    -2
288
     1
 68
     0
279
    -2
289
     1
 69
     0
  7
Standard
140
6.0
170
     5
 62
     0
 63
   257
283
     0
 90
      512
 91
        0
  1

274
    -2
284
     1
 64
     0
275
    -2
285
     1
 65
     0
276
    -2
286
     1
 66
     0
277
    -2
287
     1
 67
     0
278
    -2
288
     1
 68
     0
279
    -2
289
     1
 69
     0
  7
Standard
140
4.5
170
     5
 62
     0
 63
   257
283
     0
 90
      512
 91
        0
  1

274
    -2
284
     1
 64
     0
275
    -2
285
     1
 65
     0
276
    -2
286
     1
 66
     0
277
    -2
287
     1
 67
     0
278
    -2
288
     1
 68
     0
279
    -2
289
     1
 69
     0
1001
ACAD
1000
AcRTDxfName
1000
TABLESTYLE
  0
VISUALSTYLE
  5
185
102
{ACAD_REACTORS
330
17F
102
}
330
17F
100
AcDbVisualStyle
  2
2dWireframe
 70
     4
177
     3
291
     0
 70
    58
 90
        0
176
     1
 90
        2
176
     1
 90
        0
176
     1
 90
        0
176
     1
 40
0.6
176
     1
 40
30.0
176
     1
 62
     7
420
 16777215
176
     1
 90
        1
176
     1
 90
        4
176
     1
 62
     7
176
     1
 62
   257
176
     1
 90
        1
176
     1
 90
        1
176
     1
 40
1.0
176
     1
 90
        0
176
     1
 62
   257
176
     1
 40
1.0
176
     1
 90
        1
176
     1
 90
        6
176
     1
 90
        2
176
     1
 62
     7
176
     1
 90
        5
176
     1
 90
        0
176
     1
 90
        0
176
     1
290
     0
176
     1
 90
        1
176
     1
 40
0.0
176
     1
 90
        0
176
     1
290
     1
176
     1
290
     1
176
     1
290
     0
176
     1
290
     0
176
     1
290
     0
176
     1
290
     0
176
     1
290
     0
176
     1
290
     0
176
     1
290
     0
176
     1
 90
       50
176
     1
 40
0.0
176
     1
 40
1.0
176
     1
 90
        0
176
     1
 62
    18
420
        0
176
     1
 90
       50
176
     1
 90
        3
176
     1
 62
     5
420
      255
176
     1
290
     0
176
     1
 90
       50
176
     1
 90
       50
176
     1
 90
       50
176
     1
290
     0
176
     1
 90
       50
176
     1
 62
   256
176
     0
 40
1.0
176
     0
 90
        0
176
     1
  1
strokes_ogs.tif
176
     1
290
     0
176
     1
 40
1.0
176
     1
 40
1.0
176
     1
  0
VISUALSTYLE
  5
184
102
{ACAD_REACTORS
330
17F
102
}
330
17F
100
AcDbVisualStyle
  2
Basic
 70
     7
177
     3
291
     1
 70
    58
 90
        1
176
     1
 90
        0
176
     1
 90
        1
176
     1
 90
        0
176
     1
 40
0.6
176
     1
 40
30.0
176
     1
 62
     7
420
 16777215
176
     1
 90
        0
176
     1
 90
        4
176
     1
 62
     7
176
     1
 62
   257
176
     1
 90
        1
176
     1
 90
        1
176
     1
 40
1.0
176
     1
 90
        8
176
     1
 62
     7
176
     1
 40
1.0
176
     1
 90
        1
176
     1
 90
        6
176
     1
 90
        2
176
     1
 62
     7
176
     1
 90
        5
176
     1
 90
        0
176
     1
 90
        0
176
     1
290
     0
176
     1
 90
        1
176
     1
 40
0.0
176
     1
 90
        0
176
     1
290
     0
176
     1
290
     1
176
     1
290
     1
176
     1
290
     0
176
     1
290
     0
176
     1
290
     0
176
     1
290
     0
176
     1
290
     0
176
     1
290
     0
176
     1
 90
       50
176
     1
 40
0.0
176
     1
 40
1.0
176
     1
 90
        0
176
     1
 62
    18
420
        0
176
     1
 90
       50
176
     1
 90
        3
176
     1
 62
     5
420
      255
176
     1
290
     0
176
     1
 90
       50
176
     1
 90
       50
176
     1
 90
       50
176
     1
290
     0
176
     1
 90
       50
176
     1
 62
   256
176
     0
 40
1.0
176
     0
 90
        0
176
     1
  1
strokes_ogs.tif
176
     1
290
     0
176
     1
 40
1.0
176
     1
 40
1.0
176
     1
  0
VISUALSTYLE
  5
18B
102
{ACAD_REACTORS
330
17F
102
}
330
17F
100
AcDbVisualStyle
  2
Brighten
 70
    12
177
     3
291
     1
 70
    58
 90
        2
176
     1
 90
        2
176
     1
 90
        0
176
     1
 90
        0
176
     1
 40
0.6
176
     1
 40
30.0
176
     1
 62
     7
420
 16777215
176
     1
 90
        1
176
     1
 90
        4
176
     1
 62
     7
176
     1
 62
   257
176
     1
 90
        1
176
     1
 90
        1
176
     1
 40
1.0
176
     1
 90
        8
176
     1
 62
     7
176
     1
 40
1.0
176
     1
 90
        1
176
     1
 90
        6
176
     1
 90
        2
176
     1
 62
     7
176
     1
 90
        5
176
     1
 90
        0
176
     1
 90
        0
176
     1
290
     0
176
     1
 90
        1
176
     1
 40
50.0
176
     1
 90
        0
176
     1
290
     0
176
     1
290
     1
176
     1
290
     1
176
     1
290
     0
176
     1
290
     0
176
     1
290
     0
176
     1
290
     0
176
     1
290
     0
176
     1
290
     0
176
     1
 90
       50
176
     1
 40
0.0
176
     1
 40
1.0
176
     1
 90
        0
176
     1
 62
    18
420
        0
176
     1
 90
       50
176
     1
 90
        3
176
     1
 62
     5
420
      255
176
     1
290
     0
176
     1
 90
       50
176
     1
 90
       50
176
     1
 90
       50
176
     1
290
     0
176
     1
 90
       50
176
     1
 62
   256
176
     0
 40
1.0
176
     0
 90
        0
176
     1
  1
strokes_ogs.tif
176
     1
290
     0
176
     1
 40
1.0
176
     1
 40
1.0
176
     1
  0
VISUALSTYLE
  5
18F
102
{ACAD_REACTORS
330
17F
102
}
330
17F
100
AcDbVisualStyle
  2
ColorChange
 70
    16
177
     3
291
     1
 70
    58
 90
        2
176
     1
 90
        2
176
     1
 90
        3
176
     1
 90
        0
176
     1
 40
0.6
176
     1
 40
30.0
176
     1
 62
     8
420
  8421504
176
     1
 90
        1
176
     1
 90
        4
176
     1
 62
     7
176
     1
 62
   257
176
     1
 90
        1
176
     1
 90
        1
176
     1
 40
1.0
176
     1
 90
        8
176
     1
 62
     8
420
  8421504
176
     1
 40
1.0
176
     1
 90
        1
176
     1
 90
        6
176
     1
 90
        2
176
     1
 62
     7
176
     1
 90
        5
176
     1
 90
        0
176
     1
 90
        0
176
     1
290
     0
176
     1
 90
        1
176
     1
 40
0.0
176
     1
 90
        0
176
     1
290
     0
176
     1
290
     1
176
     1
290
     1
176
     1
290
     0
176
     1
290
     0
176
     1
290
     0
176
     1
290
     0
176
     1
290
     0
176
     1
290
     0
176
     1
 90
       50
176
     1
 40
0.0
176
     1
 40
1.0
176
     1
 90
        0
176
     1
 62
    18
420
        0
176
     1
 90
       50
176
     1
 90
        3
176
     1
 62
     5
420
      255
176
     1
290
     0
176
     1
 90
       50
176
     1
 90
       50
176
     1
 90
       50
176
     1
290
     0
176
     1
 90
       50
176
     1
 62
   256
176
     0
 40
1.0
176
     0
 90
        0
176
     1
  1
strokes_ogs.tif
176
     1
290
     0
176
     1
 40
1.0
176
     1
 40
1.0
176
     1
  0
VISUALSTYLE
  5
188
102
{ACAD_REACTORS
330
17F
102
}
330
17F
100
AcDbVisualStyle
  2
Conceptual
 70
     9
177
     3
291
     0
 70
    58
 90
        3
176
     1
 90
        2
176
     1
 90
        0
176
     1
 90
        0
176
     1
 40
0.6
176
     1
 40
30.0
176
     1
 62
     7
420
 16777215
176
     1
 90
        2
176
     1
 90
        2
176
     1
 62
     7
176
     1
 62
   257
176
     1
 90
        1
176
     1
 90
        1
176
     1
 40
179.0
176
     1
 90
        8
176
     1
 62
     7
176
     1
 40
1.0
176
     1
 90
        1
176
     1
 90
        6
176
     1
 90
        2
176
     1
 62
     7
176
     1
 90
        3
176
     1
 90
        0
176
     1
 90
        0
176
     1
290
     0
176
     1
 90
        1
176
     1
 40
0.0
176
     1
 90
        0
176
     1
290
     0
176
     1
290
     1
176
     1
290
     1
176
     1
290
     0
176
     1
290
     0
176
     1
290
     0
176
     1
290
     0
176
     1
290
     0
176
     1
290
     0
176
     1
 90
       50
176
     1
 40
0.0
176
     1
 40
1.0
176
     1
 90
        0
176
     1
 62
    18
420
        0
176
     1
 90
       50
176
     1
 90
        3
176
     1
 62
     5
420
      255
176
     1
290
     0
176
     1
 90
       50
176
     1
 90
       50
176
     1
 90
       50
176
     1
290
     0
176
     1
 90
       50
176
     1
 62
   256
176
     0
 40
1.0
176
     0
 90
        0
176
     1
  1
strokes_ogs.tif
176
     1
290
     0
176
     1
 40
1.0
176
     1
 40
1.0
176
     1
  0
VISUALSTYLE
  5
18A
102
{ACAD_REACTORS
330
17F
102
}
330
17F
100
AcDbVisualStyle
  2
Dim
 70
    11
177
     3
291
     1
 70
    58
 90
        2
176
     1
 90
        2
176
     1
 90
        0
176
     1
 90
        0
176
     1
 40
0.6
176
     1
 40
30.0
176
     1
 62
     7
420
 16777215
176
     1
 90
        1
176
     1
 90
        4
176
     1
 62
     7
176
     1
 62
   257
176
     1
 90
        1
176
     1
 90
        1
176
     1
 40
1.0
176
     1
 90
        8
176
     1
 62
     7
176
     1
 40
1.0
176
     1
 90
        1
176
     1
 90
        6
176
     1
 90
        2
176
     1
 62
     7
176
     1
 90
        5
176
     1
 90
        0
176
     1
 90
        0
176
     1
290
     0
176
     1
 90
        1
176
     1
 40
-50.0
176
     1
 90
        0
176
     1
290
     0
176
     1
290
     1
176
     1
290
     1
176
     1
290
     0
176
     1
290
     0
176
     1
290
     0
176
     1
290
     0
176
     1
290
     0
176
     1
290
     0
176
     1
 90
       50
176
     1
 40
0.0
176
     1
 40
1.0
176
     1
 90
        0
176
     1
 62
    18
420
        0
176
     1
 90
       50
176
     1
 90
        3
176
     1
 62
     5
420
      255
176
     1
290
     0
176
     1
 90
       50
176
     1
 90
       50
176
     1
 90
       50
176
     1
290
     0
176
     1
 90
       50
176
     1
 62
   256
176
     0
 40
1.0
176
     0
 90
        0
176
     1
  1
strokes_ogs.tif
176
     1
290
     0
176
     1
 40
1.0
176
     1
 40
1.0
176
     1
  0
VISUALSTYLE
  5
197
102
{ACAD_REACTORS
330
17F
102
}
330
17F
100
AcDbVisualStyle
  2
EdgeColorOff
 70
    22
177
     3
291
     1
 70
    58
 90
        2
176
     0
 90
        2
176
     0
 90
        0
176
     0
 90
        0
176
     0
 40
0.6
176
     0
 40
30.0
176
     0
 62
     7
420
 16777215
176
     0
 90
        1
176
     0
 90
        4
176
     0
 62
     7
176
     0
 62
   257
176
     0
 90
        1
176
     0
 90
        1
176
     0
 40
1.0
176
     0
 90
        8
176
     2
 62
     7
176
     0
 40
1.0
176
     0
 90
        1
176
     0
 90
        6
176
     0
 90
        2
176
     0
 62
     7
176
     0
 90
        5
176
     0
 90
        0
176
     0
 90
        0
176
     0
290
     0
176
     0
 90
        1
176
     0
 40
0.0
176
     0
 90
        0
176
     0
290
     0
176
     1
290
     1
176
     1
290
     1
176
     1
290
     0
176
     1
290
     0
176
     1
290
     0
176
     1
290
     0
176
     1
290
     0
176
     1
290
     0
176
     1
 90
       50
176
     1
 40
0.0
176
     1
 40
1.0
176
     1
 90
        0
176
     1
 62
    18
420
        0
176
     1
 90
       50
176
     1
 90
        3
176
     1
 62
     5
420
      255
176
     1
290
     0
176
     1
 90
       50
176
     1
 90
       50
176
     1
 90
       50
176
     1
290
     0
176
     1
 90
       50
176
     1
 62
   256
176
     0
 40
1.0
176
     0
 90
        0
176
     1
  1
strokes_ogs.tif
176
     1
290
     0
176
     1
 40
1.0
176
     1
 40
1.0
176
     1
  0
VISUALSTYLE
  5
18E
102
{ACAD_REACTORS
330
17F
102
}
330
17F
100
AcDbVisualStyle
  2
Facepattern
 70
    15
177
     3
291
     1
 70
    58
 90
        2
176
     1
 90
        2
176
     1
 90
        0
176
     1
 90
        0
176
     1
 40
0.6
176
     1
 40
30.0
176
     1
 62
     7
420
 16777215
176
     1
 90
        1
176
     1
 90
        4
176
     1
 62
     7
176
     1
 62
   257
176
     1
 90
        1
176
     1
 90
        1
176
     1
 40
1.0
176
     1
 90
        8
176
     1
 62
     7
176
     1
 40
1.0
176
     1
 90
        1
176
     1
 90
        6
176
     1
 90
        2
176
     1
 62
     7
176
     1
 90
        5
176
     1
 90
        0
176
     1
 90
        0
176
     1
290
     0
176
     1
 90
        1
176
     1
 40
0.0
176
     1
 90
        0
176
     1
290
     0
176
     1
290
     1
176
     1
290
     1
176
     1
290
     0
176
     1
290
     0
176
     1
290
     0
176
     1
290
     0
176
     1
290
     0
176
     1
290
     0
176
     1
 90
       50
176
     1
 40
0.0
176
     1
 40
1.0
176
     1
 90
        0
176
     1
 62
    18
420
        0
176
     1
 90
       50
176
     1
 90
        3
176
     1
 62
     5
420
      255
176
     1
290
     0
176
     1
 90
       50
176
     1
 90
       50
176
     1
 90
       50
176
     1
290
     0
176
     1
 90
       50
176
     1
 62
   256
176
     0
 40
1.0
176
     0
 90
        0
176
     1
  1
strokes_ogs.tif
176
     1
290
     0
176
     1
 40
1.0
176
     1
 40
1.0
176
     1
  0
VISUALSTYLE
  5
180
102
{ACAD_REACTORS
330
17F
102
}
330
17F
100
AcDbVisualStyle
  2
Flat
 70
     0
177
     3
291
     1
 70
    58
 90
        2
176
     1
 90
        1
176
     1
 90
        1
176
     1
 90
        2
176
     1
 40
0.6
176
     1
 40
30.0
176
     1
 62
     7
420
 16777215
176
     1
 90
        0
176
     1
 90
        0
176
     1
 62
     7
176
     1
 62
   257
176
     1
 90
        1
176
     1
 90
        1
176
     1
 40
1.0
176
     1
 90
        8
176
     1
 62
     7
176
     1
 40
1.0
176
     1
 90
        1
176
     1
 90
        6
176
     1
 90
        2
176
     1
 62
     7
176
     1
 90
        5
176
     1
 90
        0
176
     1
 90
        0
176
     1
290
     0
176
     1
 90
       13
176
     1
 40
0.0
176
     1
 90
        0
176
     1
290
     0
176
     1
290
     1
176
     1
290
     1
176
     1
290
     0
176
     1
290
     0
176
     1
290
     0
176
     1
290
     0
176
     1
290
     0
176
     1
290
     0
176
     1
 90
       50
176
     1
 40
0.0
176
     1
 40
1.0
176
     1
 90
        0
176
     1
 62
    18
420
        0
176
     1
 90
       50
176
     1
 90
        3
176
     1
 62
     5
420
      255
176
     1
290
     0
176
     1
 90
       50
176
     1
 90
       50
176
     1
 90
       50
176
     1
290
     0
176
     1
 90
       50
176
     1
 62
   256
176
     0
 40
1.0
176
     0
 90
        0
176
     1
  1
strokes_ogs.tif
176
     1
290
     0
176
     1
 40
1.0
176
     1
 40
1.0
176
     1
  0
VISUALSTYLE
  5
181
102
{ACAD_REACTORS
330
17F
102
}
330
17F
100
AcDbVisualStyle
  2
FlatWithEdges
 70
     1
177
     3
291
     1
 70
    58
 90
        2
176
     1
 90
        1
176
     1
 90
        1
176
     1
 90
        2
176
     1
 40
0.6
176
     1
 40
30.0
176
     1
 62
     7
420
 16777215
176
     1
 90
        1
176
     1
 90
        0
176
     1
 62
     7
176
     1
 62
   257
176
     1
 90
        1
176
     1
 90
        1
176
     1
 40
1.0
176
     1
 90
        0
176
     1
 62
   257
176
     1
 40
1.0
176
     1
 90
        1
176
     1
 90
        6
176
     1
 90
        2
176
     1
 62
     7
176
     1
 90
        5
176
     1
 90
        0
176
     1
 90
        0
176
     1
290
     0
176
     1
 90
       13
176
     1
 40
0.0
176
     1
 90
        0
176
     1
290
     0
176
     1
290
     1
176
     1
290
     1
176
     1
290
     0
176
     1
290
     0
176
     1
290
     0
176
     1
290
     0
176
     1
290
     0
176
     1
290
     0
176
     1
 90
       50
176
     1
 40
0.0
176
     1
 40
1.0
176
     1
 90
        0
176
     1
 62
    18
420
        0
176
     1
 90
       50
176
     1
 90
        3
176
     1
 62
     5
420
      255
176
     1
290
     0
176
     1
 90
       50
176
     1
 90
       50
176
     1
 90
       50
176
     1
290
     0
176
     1
 90
       50
176
     1
 62
   256
176
     0
 40
1.0
176
     0
 90
        0
176
     1
  1
strokes_ogs.tif
176
     1
290
     0
176
     1
 40
1.0
176
     1
 40
1.0
176
     1
  0
VISUALSTYLE
  5
182
102
{ACAD_REACTORS
330
17F
102
}
330
17F
100
AcDbVisualStyle
  2
Gouraud
 70
     2
177
     3
291
     1
 70
    58
 90
        2
176
     1
 90
        2
176
     1
 90
        1
176
     1
 90
        2
176
     1
 40
0.6
176
     1
 40
30.0
176
     1
 62
     7
420
 16777215
176
     1
 90
        0
176
     1
 90
        0
176
     1
 62
     7
176
     1
 62
   257
176
     1
 90
        1
176
     1
 90
        1
176
     1
 40
1.0
176
     1
 90
        0
176
     1
 62
     7
176
     1
 40
1.0
176
     1
 90
        1
176
     1
 90
        6
176
     1
 90
        2
176
     1
 62
     7
176
     1
 90
        5
176
     1
 90
        0
176
     1
 90
        0
176
     1
290
     0
176
     1
 90
       13
176
     1
 40
0.0
176
     1
 90
        0
176
     1
290
     0
176
     1
290
     1
176
     1
290
     1
176
     1
290
     0
176
     1
290
     0
176
     1
290
     0
176
     1
290
     0
176
     1
290
     0
176
     1
290
     0
176
     1
 90
       50
176
     1
 40
0.0
176
     1
 40
1.0
176
     1
 90
        0
176
     1
 62
    18
420
        0
176
     1
 90
       50
176
     1
 90
        3
176
     1
 62
     5
420
      255
176
     1
290
     0
176
     1
 90
       50
176
     1
 90
       50
176
     1
 90
       50
176
     1
290
     0
176
     1
 90
       50
176
     1
 62
   256
176
     0
 40
1.0
176
     0
 90
        0
176
     1
  1
strokes_ogs.tif
176
     1
290
     0
176
     1
 40
1.0
176
     1
 40
1.0
176
     1
  0
VISUALSTYLE
  5
183
102
{ACAD_REACTORS
330
17F
102
}
330
17F
100
AcDbVisualStyle
  2
GouraudWithEdges
 70
     3
177
     3
291
     1
 70
    58
 90
        2
176
     1
 90
        2
176
     1
 90
        1
176
     1
 90
        2
176
     1
 40
0.6
176
     1
 40
30.0
176
     1
 62
     7
420
 16777215
176
     1
 90
        1
176
     1
 90
        0
176
     1
 62
     7
176
     1
 62
   257
176
     1
 90
        1
176
     1
 90
        1
176
     1
 40
1.0
176
     1
 90
        0
176
     1
 62
   257
176
     1
 40
1.0
176
     1
 90
        1
176
     1
 90
        6
176
     1
 90
        2
176
     1
 62
     7
176
     1
 90
        5
176
     1
 90
        0
176
     1
 90
        0
176
     1
290
     0
176
     1
 90
       13
176
     1
 40
0.0
176
     1
 90
        0
176
     1
290
     0
176
     1
290
     1
176
     1
290
     1
176
     1
290
     0
176
     1
290
     0
176
     1
290
     0
176
     1
290
     0
176
     1
290
     0
176
     1
290
     0
176
     1
 90
       50
176
     1
 40
0.0
176
     1
 40
1.0
176
     1
 90
        0
176
     1
 62
    18
420
        0
176
     1
 90
       50
176
     1
 90
        3
176
     1
 62
     5
420
      255
176
     1
290
     0
176
     1
 90
       50
176
     1
 90
       50
176
     1
 90
       50
176
     1
290
     0
176
     1
 90
       50
176
     1
 62
   256
176
     0
 40
1.0
176
     0
 90
        0
176
     1
  1
strokes_ogs.tif
176
     1
290
     0
176
     1
 40
1.0
176
     1
 40
1.0
176
     1
  0
VISUALSTYLE
  5
187
102
{ACAD_REACTORS
330
17F
102
}
330
17F
100
AcDbVisualStyle
  2
Hidden
 70
     6
177
     3
291
     0
 70
    58
 90
        1
176
     1
 90
        2
176
     1
 90
        2
176
     1
 90
        0
176
     1
 40
0.6
176
     1
 40
30.0
176
     1
 62
     7
420
 16777215
176
     1
 90
        2
176
     1
 90
        2
176
     1
 62
     7
176
     1
 62
   257
176
     1
 90
        2
176
     1
 90
        1
176
     1
 40
40.0
176
     1
 90
        0
176
     1
 62
   257
176
     1
 40
1.0
176
     1
 90
        1
176
     1
 90
        6
176
     1
 90
        2
176
     1
 62
     7
176
     1
 90
        3
176
     1
 90
        0
176
     1
 90
        0
176
     1
290
     0
176
     1
 90
        1
176
     1
 40
0.0
176
     1
 90
        0
176
     1
290
     0
176
     1
290
     1
176
     1
290
     1
176
     1
290
     0
176
     1
290
     0
176
     1
290
     0
176
     1
290
     0
176
     1
290
     0
176
     1
290
     0
176
     1
 90
       50
176
     1
 40
0.0
176
     1
 40
1.0
176
     1
 90
        0
176
     1
 62
    18
420
        0
176
     1
 90
       50
176
     1
 90
        3
176
     1
 62
     5
420
      255
176
     1
290
     0
176
     1
 90
       50
176
     1
 90
       50
176
     1
 90
       50
176
     1
290
     0
176
     1
 90
       50
176
     1
 62
   256
176
     0
 40
1.0
176
     0
 90
        0
176
     1
  1
strokes_ogs.tif
176
     1
290
     0
176
     1
 40
1.0
176
     1
 40
1.0
176
     1
  0
VISUALSTYLE
  5
195
102
{ACAD_REACTORS
330
17F
102
}
330
17F
100
AcDbVisualStyle
  2
JitterOff
 70
    20
177
     3
291
     1
 70
    58
 90
        2
176
     0
 90
        2
176
     0
 90
        0
176
     0
 90
        0
176
     0
 40
0.6
176
     0
 40
30.0
176
     0
 62
     7
420
 16777215
176
     0
 90
        1
176
     0
 90
        4
176
     0
 62
     7
176
     0
 62
   257
176
     0
 90
        1
176
     0
 90
        1
176
     0
 40
1.0
176
     0
 90
       10
176
     2
 62
     7
176
     0
 40
1.0
176
     0
 90
        1
176
     0
 90
        6
176
     0
 90
        2
176
     0
 62
     7
176
     0
 90
        5
176
     0
 90
        0
176
     0
 90
        0
176
     0
290
     0
176
     0
 90
        1
176
     0
 40
0.0
176
     0
 90
        0
176
     0
290
     0
176
     1
290
     1
176
     1
290
     1
176
     1
290
     0
176
     1
290
     0
176
     1
290
     0
176
     1
290
     0
176
     1
290
     0
176
     1
290
     0
176
     1
 90
       50
176
     1
 40
0.0
176
     1
 40
1.0
176
     1
 90
        0
176
     1
 62
    18
420
        0
176
     1
 90
       50
176
     1
 90
        3
176
     1
 62
     5
420
      255
176
     1
290
     0
176
     1
 90
       50
176
     1
 90
       50
176
     1
 90
       50
176
     1
290
     0
176
     1
 90
       50
176
     1
 62
   256
176
     0
 40
1.0
176
     0
 90
        0
176
     1
  1
strokes_ogs.tif
176
     1
290
     0
176
     1
 40
1.0
176
     1
 40
1.0
176
     1
  0
VISUALSTYLE
  5
18D
102
{ACAD_REACTORS
330
17F
102
}
330
17F
100
AcDbVisualStyle
  2
Linepattern
 70
    14
177
     3
291
     1
 70
    58
 90
        2
176
     1
 90
        2
176
     1
 90
        0
176
     1
 90
        0
176
     1
 40
0.6
176
     1
 40
30.0
176
     1
 62
     7
420
 16777215
176
     1
 90
        1
176
     1
 90
        4
176
     1
 62
     7
176
     1
 62
   257
176
     1
 90
        7
176
     1
 90
        7
176
     1
 40
1.0
176
     1
 90
        8
176
     1
 62
     7
176
     1
 40
1.0
176
     1
 90
        1
176
     1
 90
        6
176
     1
 90
        2
176
     1
 62
     7
176
     1
 90
        5
176
     1
 90
        0
176
     1
 90
        0
176
     1
290
     0
176
     1
 90
        1
176
     1
 40
0.0
176
     1
 90
        0
176
     1
290
     0
176
     1
290
     1
176
     1
290
     1
176
     1
290
     0
176
     1
290
     0
176
     1
290
     0
176
     1
290
     0
176
     1
290
     0
176
     1
290
     0
176
     1
 90
       50
176
     1
 40
0.0
176
     1
 40
1.0
176
     1
 90
        0
176
     1
 62
    18
420
        0
176
     1
 90
       50
176
     1
 90
        3
176
     1
 62
     5
420
      255
176
     1
290
     0
176
     1
 90
       50
176
     1
 90
       50
176
     1
 90
       50
176
     1
290
     0
176
     1
 90
       50
176
     1
 62
   256
176
     0
 40
1.0
176
     0
 90
        0
176
     1
  1
strokes_ogs.tif
176
     1
290
     0
176
     1
 40
1.0
176
     1
 40
1.0
176
     1
  0
VISUALSTYLE
  5
196
102
{ACAD_REACTORS
330
17F
102
}
330
17F
100
AcDbVisualStyle
  2
OverhangOff
 70
    21
177
     3
291
     1
 70
    58
 90
        2
176
     0
 90
        2
176
     0
 90
        0
176
     0
 90
        0
176
     0
 40
0.6
176
     0
 40
30.0
176
     0
 62
     7
420
 16777215
176
     0
 90
        1
176
     0
 90
        4
176
     0
 62
     7
176
     0
 62
   257
176
     0
 90
        1
176
     0
 90
        1
176
     0
 40
1.0
176
     0
 90
        9
176
     2
 62
     7
176
     0
 40
1.0
176
     0
 90
        1
176
     0
 90
        6
176
     0
 90
        2
176
     0
 62
     7
176
     0
 90
        5
176
     0
 90
        0
176
     0
 90
        0
176
     0
290
     0
176
     0
 90
        1
176
     0
 40
0.0
176
     0
 90
        0
176
     0
290
     0
176
     1
290
     1
176
     1
290
     1
176
     1
290
     0
176
     1
290
     0
176
     1
290
     0
176
     1
290
     0
176
     1
290
     0
176
     1
290
     0
176
     1
 90
       50
176
     1
 40
0.0
176
     1
 40
1.0
176
     1
 90
        0
176
     1
 62
    18
420
        0
176
     1
 90
       50
176
     1
 90
        3
176
     1
 62
     5
420
      255
176
     1
290
     0
176
     1
 90
       50
176
     1
 90
       50
176
     1
 90
       50
176
     1
290
     0
176
     1
 90
       50
176
     1
 62
   256
176
     0
 40
1.0
176
     0
 90
        0
176
     1
  1
strokes_ogs.tif
176
     1
290
     0
176
     1
 40
1.0
176
     1
 40
1.0
176
     1
  0
VISUALSTYLE
  5
189
102
{ACAD_REACTORS
330
17F
102
}
330
17F
100
AcDbVisualStyle
  2
Realistic
 70
     8
177
     3
291
     0
 70
    58
 90
        2
176
     1
 90
        3
176
     1
 90
        0
176
     1
 90
        2
176
     1
 40
0.6
176
     1
 40
30.0
176
     1
 62
     7
420
 16777215
176
     1
 90
        0
176
     1
 90
        0
176
     1
 62
     7
176
     1
 62
   257
176
     1
 90
        1
176
     1
 90
        1
176
     1
 40
1.0
176
     1
 90
        8
176
     1
 62
   257
176
     1
 40
1.0
176
     1
 90
        1
176
     1
 90
        6
176
     1
 90
        2
176
     1
 62
     7
176
     1
 90
        3
176
     1
 90
        0
176
     1
 90
        0
176
     1
290
     0
176
     1
 90
       13
176
     1
 40
0.0
176
     1
 90
        0
176
     1
290
     0
176
     1
290
     1
176
     1
290
     1
176
     1
290
     0
176
     1
290
     0
176
     1
290
     0
176
     1
290
     0
176
     1
290
     0
176
     1
290
     0
176
     1
 90
       50
176
     1
 40
0.0
176
     1
 40
1.0
176
     1
 90
        0
176
     1
 62
    18
420
        0
176
     1
 90
       50
176
     1
 90
        3
176
     1
 62
     5
420
      255
176
     1
290
     0
176
     1
 90
       50
176
     1
 90
       50
176
     1
 90
       50
176
     1
290
     0
176
     1
 90
       50
176
     1
 62
   256
176
     0
 40
1.0
176
     0
 90
        0
176
     1
  1
strokes_ogs.tif
176
     1
290
     0
176
     1
 40
1.0
176
     1
 40
1.0
176
     1
  0
VISUALSTYLE
  5
194
102
{ACAD_REACTORS
330
17F
102
}
330
17F
100
AcDbVisualStyle
  2
Shaded
 70
    27
177
     3
291
     0
 70
    58
 90
        2
176
     1
 90
        2
176
     1
 90
        1
176
     1
 90
        2
176
     1
 40
0.6
176
     1
 40
30.0
176
     1
 62
     7
420
 16777215
176
     1
 90
        0
176
     1
 90
        4
176
     1
 62
     7
176
     1
 62
   257
176
     1
 90
        1
176
     1
 90
        1
176
     1
 40
1.0
176
     1
 90
        8
176
     1
 62
   257
176
     1
 40
1.0
176
     1
 90
        1
176
     1
 90
        6
176
     1
 90
        2
176
     1
 62
     8
420
  7895160
176
     1
 90
        3
176
     1
 90
        0
176
     1
 90
        0
176
     1
290
     0
176
     1
 90
        5
176
     1
 40
0.0
176
     1
 90
        0
176
     1
290
     0
176
     1
290
     1
176
     1
290
     1
176
     1
290
     0
176
     1
290
     0
176
     1
290
     0
176
     1
290
     0
176
     1
290
     0
176
     1
290
     0
176
     1
 90
       50
176
     1
 40
0.0
176
     1
 40
1.0
176
     1
 90
        0
176
     1
 62
    18
420
        0
176
     1
 90
       50
176
     1
 90
        3
176
     1
 62
     5
420
      255
176
     1
290
     0
176
     1
 90
       50
176
     1
 90
       50
176
     1
 90
       50
176
     1
290
     0
176
     1
 90
       50
176
     1
 62
   256
176
     0
 40
1.0
176
     0
 90
        0
176
     1
  1
strokes_ogs.tif
176
     1
290
     0
176
     1
 40
1.0
176
     1
 40
1.0
176
     1
  0
VISUALSTYLE
  5
193
102
{ACAD_REACTORS
330
17F
102
}
330
17F
100
AcDbVisualStyle
  2
Shaded with edges
 70
    26
177
     3
291
     0
 70
    58
 90
        2
176
     1
 90
        2
176
     1
 90
        1
176
     1
 90
        2
176
     1
 40
0.6
176
     1
 40
30.0
176
     1
 62
     7
420
 16777215
176
     1
 90
        1
176
     1
 90
       10
176
     1
 62
     7
176
     1
 62
   257
176
     1
 90
        2
176
     1
 90
        1
176
     1
 40
1.0
176
     1
 90
        8
176
     1
 62
   257
176
     1
 40
1.0
176
     1
 90
        1
176
     1
 90
        6
176
     1
 90
        2
176
     1
 62
     7
176
     1
 90
        3
176
     1
 90
        0
176
     1
 90
        0
176
     1
290
     0
176
     1
 90
        5
176
     1
 40
0.0
176
     1
 90
        0
176
     1
290
     0
176
     1
290
     1
176
     1
290
     1
176
     1
290
     0
176
     1
290
     0
176
     1
290
     0
176
     1
290
     0
176
     1
290
     0
176
     1
290
     0
176
     1
 90
       50
176
     1
 40
0.0
176
     1
 40
1.0
176
     1
 90
        0
176
     1
 62
    18
420
        0
176
     1
 90
       50
176
     1
 90
        3
176
     1
 62
     5
420
      255
176
     1
290
     0
176
     1
 90
       50
176
     1
 90
       50
176
     1
 90
       50
176
     1
290
     0
176
     1
 90
       50
176
     1
 62
   256
176
     0
 40
1.0
176
     0
 90
        0
176
     1
  1
strokes_ogs.tif
176
     1
290
     0
176
     1
 40
1.0
176
     1
 40
1.0
176
     1
  0
VISUALSTYLE
  5
190
102
{ACAD_REACTORS
330
17F
102
}
330
17F
100
AcDbVisualStyle
  2
Shades of Gray
 70
    23
177
     3
291
     0
 70
    58
 90
        2
176
     1
 90
        2
176
     1
 90
        3
176
     1
 90
        0
176
     1
 40
0.6
176
     1
 40
30.0
176
     1
 62
     7
420
 16777215
176
     1
 90
        2
176
     1
 90
        2
176
     1
 62
     7
176
     1
 62
     7
176
     1
 90
        1
176
     1
 90
        1
176
     1
 40
40.0
176
     1
 90
        8
176
     1
 62
     7
176
     1
 40
1.0
176
     1
 90
        1
176
     1
 90
        6
176
     1
 90
        2
176
     1
 62
     7
176
     1
 90
        3
176
     1
 90
        0
176
     1
 90
        0
176
     1
290
     0
176
     1
 90
        1
176
     1
 40
0.0
176
     1
 90
        0
176
     1
290
     0
176
     1
290
     1
176
     1
290
     1
176
     1
290
     0
176
     1
290
     0
176
     1
290
     0
176
     1
290
     0
176
     1
290
     0
176
     1
290
     0
176
     1
 90
       50
176
     1
 40
0.0
176
     1
 40
1.0
176
     1
 90
        0
176
     1
 62
    18
420
        0
176
     1
 90
       50
176
     1
 90
        3
176
     1
 62
     5
420
      255
176
     1
290
     0
176
     1
 90
       50
176
     1
 90
       50
176
     1
 90
       50
176
     1
290
     0
176
     1
 90
       50
176
     1
 62
   256
176
     0
 40
1.0
176
     0
 90
        0
176
     1
  1
strokes_ogs.tif
176
     1
290
     0
176
     1
 40
1.0
176
     1
 40
1.0
176
     1
  0
VISUALSTYLE
  5
191
102
{ACAD_REACTORS
330
17F
102
}
330
17F
100
AcDbVisualStyle
  2
Sketchy
 70
    24
177
     3
291
     0
 70
    58
 90
        1
176
     1
 90
        2
176
     1
 90
        2
176
     1
 90
        0
176
     1
 40
0.6
176
     1
 40
30.0
176
     1
 62
     7
420
 16777215
176
     1
 90
        2
176
     1
 90
        2
176
     1
 62
     7
176
     1
 62
     7
176
     1
 90
        1
176
     1
 90
        1
176
     1
 40
40.0
176
     1
 90
       11
176
     1
 62
     7
176
     1
 40
1.0
176
     1
 90
        1
176
     1
 90
        6
176
     1
 90
        2
176
     1
 62
     7
176
     1
 90
        6
176
     1
 90
        0
176
     1
 90
        0
176
     1
290
     0
176
     1
 90
        1
176
     1
 40
0.0
176
     1
 90
        0
176
     1
290
     0
176
     1
290
     1
176
     1
290
     1
176
     1
290
     0
176
     1
290
     0
176
     1
290
     0
176
     1
290
     0
176
     1
290
     0
176
     1
290
     0
176
     1
 90
       50
176
     1
 40
0.0
176
     1
 40
1.0
176
     1
 90
        0
176
     1
 62
    18
420
        0
176
     1
 90
       50
176
     1
 90
        3
176
     1
 62
     5
420
      255
176
     1
290
     0
176
     1
 90
       50
176
     1
 90
       50
176
     1
 90
       50
176
     1
290
     0
176
     1
 90
       50
176
     1
 62
   256
176
     0
 40
1.0
176
     0
 90
        0
176
     1
  1
strokes_ogs.tif
176
     1
290
     0
176
     1
 40
1.0
176
     1
 40
1.0
176
     1
  0
VISUALSTYLE
  5
18C
102
{ACAD_REACTORS
330
17F
102
}
330
17F
100
AcDbVisualStyle
  2
Thicken
 70
    13
177
     3
291
     1
 70
    58
 90
        2
176
     1
 90
        2
176
     1
 90
        0
176
     1
 90
        0
176
     1
 40
0.6
176
     1
 40
30.0
176
     1
 62
     7
420
 16777215
176
     1
 90
        1
176
     1
 90
        4
176
     1
 62
     7
176
     1
 62
   257
176
     1
 90
        1
176
     1
 90
        1
176
     1
 40
1.0
176
     1
 90
       12
176
     1
 62
     7
176
     1
 40
1.0
176
     1
 90
        1
176
     1
 90
        6
176
     1
 90
        2
176
     1
 62
     7
176
     1
 90
        5
176
     1
 90
        0
176
     1
 90
        0
176
     1
290
     0
176
     1
 90
        1
176
     1
 40
0.0
176
     1
 90
        0
176
     1
290
     0
176
     1
290
     1
176
     1
290
     1
176
     1
290
     0
176
     1
290
     0
176
     1
290
     0
176
     1
290
     0
176
     1
290
     0
176
     1
290
     0
176
     1
 90
       50
176
     1
 40
0.0
176
     1
 40
1.0
176
     1
 90
        0
176
     1
 62
    18
420
        0
176
     1
 90
       50
176
     1
 90
        3
176
     1
 62
     5
420
      255
176
     1
290
     0
176
     1
 90
       50
176
     1
 90
       50
176
     1
 90
       50
176
     1
290
     0
176
     1
 90
       50
176
     1
 62
   256
176
     0
 40
1.0
176
     0
 90
        0
176
     1
  1
strokes_ogs.tif
176
     1
290
     0
176
     1
 40
1.0
176
     1
 40
1.0
176
     1
  0
VISUALSTYLE
  5
186
102
{ACAD_REACTORS
330
17F
102
}
330
17F
100
AcDbVisualStyle
  2
Wireframe
 70
     5
177
     3
291
     0
 70
    58
 90
        0
176
     1
 90
        2
176
     1
 90
        0
176
     1
 90
        0
176
     1
 40
0.6
176
     1
 40
30.0
176
     1
 62
     7
420
 16777215
176
     1
 90
        1
176
     1
 90
        4
176
     1
 62
     7
176
     1
 62
   257
176
     1
 90
        1
176
     1
 90
        1
176
     1
 40
1.0
176
     1
 90
        0
176
     1
 62
   257
176
     1
 40
1.0
176
     1
 90
        1
176
     1
 90
        6
176
     1
 90
        2
176
     1
 62
     7
176
     1
 90
        3
176
     1
 90
        0
176
     1
 90
        0
176
     1
290
     0
176
     1
 90
        1
176
     1
 40
0.0
176
     1
 90
        0
176
     1
290
     0
176
     1
290
     1
176
     1
290
     1
176
     1
290
     0
176
     1
290
     0
176
     1
290
     0
176
     1
290
     0
176
     1
290
     0
176
     1
290
     0
176
     1
 90
       50
176
     1
 40
0.0
176
     1
 40
1.0
176
     1
 90
        0
176
     1
 62
    18
420
        0
176
     1
 90
       50
176
     1
 90
        3
176
     1
 62
     5
420
      255
176
     1
290
     0
176
     1
 90
       50
176
     1
 90
       50
176
     1
 90
       50
176
     1
290
     0
176
     1
 90
       50
176
     1
 62
   256
176
     0
 40
1.0
176
     0
 90
        0
176
     1
  1
strokes_ogs.tif
176
     1
290
     0
176
     1
 40
1.0
176
     1
 40
1.0
176
     1
  0
VISUALSTYLE
  5
192
102
{ACAD_REACTORS
330
17F
102
}
330
17F
100
AcDbVisualStyle
  2
X-Ray
 70
    25
177
     3
291
     0
 70
    58
 90
        2
176
     1
 90
        2
176
     1
 90
        1
176
     1
 90
        1
176
     1
 40
0.5
176
     1
 40
30.0
176
     1
 62
     7
420
 16777215
176
     1
 90
        1
176
     1
 90
        0
176
     1
 62
     7
176
     1
 62
   257
176
     1
 90
        1
176
     1
 90
        1
176
     1
 40
1.0
176
     1
 90
        8
176
     1
 62
     7
176
     1
 40
1.0
176
     1
 90
        1
176
     1
 90
        6
176
     1
 90
        2
176
     1
 62
     7
176
     1
 90
        3
176
     1
 90
        0
176
     1
 90
        0
176
     1
290
     0
176
     1
 90
       13
176
     1
 40
0.0
176
     1
 90
        0
176
     1
290
     0
176
     1
290
     1
176
     1
290
     1
176
     1
290
     0
176
     1
290
     0
176
     1
290
     0
176
     1
290
     0
176
     1
290
     0
176
     1
290
     0
176
     1
 90
       50
176
     1
 40
0.0
176
     1
 40
1.0
176
     1
 90
        0
176
     1
 62
    18
420
        0
176
     1
 90
       50
176
     1
 90
        3
176
     1
 62
     5
420
      255
176
     1
290
     0
176
     1
 90
       50
176
     1
 90
       50
176
     1
 90
       50
176
     1
290
     0
176
     1
 90
       50
176
     1
 62
   256
176
     0
 40
1.0
176
     0
 90
        0
176
     1
  1
strokes_ogs.tif
176
     1
290
     0
176
     1
 40
1.0
176
     1
 40
1.0
176
     1
  0
DICTIONARYVAR
  5
DD
102
{ACAD_REACTORS
330
59
102
}
330
59
100
DictionaryVariables
280
     0
  1
1:1
  0
DICTIONARYVAR
  5
E9
102
{ACAD_REACTORS
330
59
102
}
330
59
100
DictionaryVariables
280
     0
  1
STANDARD
  0
DICTIONARYVAR
  5
98
102
{ACAD_REACTORS
330
59
102
}
330
59
100
DictionaryVariables
280
     0
  1
STANDARD
  0
DICTIONARYVAR
  5
209
102
{ACAD_REACTORS
330
59
102
}
330
59
100
DictionaryVariables
280
     0
  1
Metric50
  0
DICTIONARYVAR
  5
20A
102
{ACAD_REACTORS
330
59
102
}
330
59
100
DictionaryVariables
280
     0
  1
Metric50
  0
DICTIONARYVAR
  5
43
102
{ACAD_REACTORS
330
59
102
}
330
59
100
DictionaryVariables
280
     0
  1
2
  0
DICTIONARYVAR
  5
5E
102
{ACAD_REACTORS
330
59
102
}
330
59
100
DictionaryVariables
280
     0
  1
1
  0
DICTIONARYVAR
  5
B6
102
{ACAD_REACTORS
330
59
102
}
330
59
100
DictionaryVariables
280
     0
  1

  0
DICTIONARYVAR
  5
E2
102
{ACAD_REACTORS
330
59
102
}
330
59
100
DictionaryVariables
280
     0
  1
2
  0
DICTIONARY
  5
4E4
102
{ACAD_REACTORS
330
4E3
102
}
330
4E3
100
AcDbDictionary
281
     1
  3
*A1
350
4E5
  0
DICTIONARY
  5
4EA
102
{ACAD_REACTORS
330
4E9
102
}
330
4E9
100
AcDbDictionary
281
     1
  3
*A1
350
4EB
  0
DICTIONARY
  5
4F4
102
{ACAD_REACTORS
330
4F3
102
}
330
4F3
100
AcDbDictionary
281
     1
  3
*A1
350
4F5
  0
DICTIONARY
  5
4F9
102
{ACAD_REACTORS
330
4F8
102
}
330
4F8
100
AcDbDictionary
281
     1
  3
*A1
350
4FA
  0
DICTIONARY
  5
4FE
102
{ACAD_REACTORS
330
4FD
102
}
330
4FD
100
AcDbDictionary
281
     1
  3
*A1
350
4FF
  0
DICTIONARY
  5
503
102
{ACAD_REACTORS
330
502
102
}
330
502
100
AcDbDictionary
281
     1
  3
*A1
350
504
  0
DICTIONARY
  5
50E
102
{ACAD_REACTORS
330
50D
102
}
330
50D
100
AcDbDictionary
281
     1
  3
*A1
350
50F
  0
DICTIONARY
  5
514
102
{ACAD_REACTORS
330
513
102
}
330
513
100
AcDbDictionary
281
     1
  3
*A1
350
515
  0
DICTIONARY
  5
51B
102
{ACAD_REACTORS
330
51A
102
}
330
51A
100
AcDbDictionary
281
     1
  3
*A1
350
51C
  0
DICTIONARY
  5
522
102
{ACAD_REACTORS
330
521
102
}
330
521
100
AcDbDictionary
281
     1
  3
*A1
350
523
  0
DICTIONARY
  5
529
102
{ACAD_REACTORS
330
528
102
}
330
528
100
AcDbDictionary
281
     1
  3
*A1
350
52A
  0
DICTIONARY
  5
52E
102
{ACAD_REACTORS
330
52D
102
}
330
52D
100
AcDbDictionary
281
     1
  3
*A1
350
52F
  0
DICTIONARY
  5
534
102
{ACAD_REACTORS
330
533
102
}
330
533
100
AcDbDictionary
281
     1
  3
*A1
350
535
  0
ACDB_MTEXTOBJECTCONTEXTDATA_CLASS
  5
4E5
330
4E4
100
AcDbObjectContextData
 70
     4
290
     1
100
AcDbAnnotScaleObjectContextData
340
B8
 70
     5
 10
0.5221937118385247
 20
0.8528269034899778
 30
0.0
 11
8417653.154511571
 21
5761258.701310254
 31
0.0
 40
94.56335628902861
 41
0.0
 42
17.80968622100955
 43
1.214870395634379
 71
     0
  0
ACDB_MTEXTOBJECTCONTEXTDATA_CLASS
  5
4EB
330
4EA
100
AcDbObjectContextData
 70
     4
290
     1
100
AcDbAnnotScaleObjectContextData
340
B8
 70
     5
 10
0.1128480038621897
 20
0.9936122624164413
 30
0.0
 11
8417638.081623662
 21
5761224.347821943
 31
0.0
 40
94.56335628902861
 41
0.0
 42
17.80968622100955
 43
1.214870395634379
 71
     0
  0
ACDB_MTEXTOBJECTCONTEXTDATA_CLASS
  5
4F5
330
4F4
100
AcDbObjectContextData
 70
     4
290
     1
100
AcDbAnnotScaleObjectContextData
340
B8
 70
     5
 10
0.5221937118385247
 20
0.8528269034899778
 30
0.0
 11
8417705.061054823
 21
5761284.38847934
 31
0.0
 40
94.56335628902861
 41
0.0
 42
17.42155525238745
 43
1.214870395634379
 71
     0
  0
ACDB_MTEXTOBJECTCONTEXTDATA_CLASS
  5
4FA
330
4F9
100
AcDbObjectContextData
 70
     4
290
     1
100
AcDbAnnotScaleObjectContextData
340
B8
 70
     5
 10
0.8528269034899777
 20
-0.5221937118385248
 30
0.0
 11
8417712.499650209
 21
5761322.148441215
 31
0.0
 40
94.56335628902861
 41
0.0
 42
17.42155525238745
 43
1.214870395634379
 71
     0
  0
ACDB_MTEXTOBJECTCONTEXTDATA_CLASS
  5
4FF
330
4FE
100
AcDbObjectContextData
 70
     4
290
     1
100
AcDbAnnotScaleObjectContextData
340
B8
 70
     5
 10
0.8528269034899777
 20
-0.5221937118385248
 30
0.0
 11
8417673.55018025
 21
5761268.423106289
 31
0.0
 40
94.56335628902861
 41
0.0
 42
17.42155525238745
 43
1.214870395634379
 71
     0
  0
ACDB_MTEXTOBJECTCONTEXTDATA_CLASS
  5
504
330
503
100
AcDbObjectContextData
 70
     4
290
     1
100
AcDbAnnotScaleObjectContextData
340
B8
 70
     5
 10
0.8528269034899777
 20
-0.5221937118385248
 30
0.0
 11
8417640.693700695
 21
5761288.444644418
 31
0.0
 40
94.56335628902861
 41
0.0
 42
17.42155525238745
 43
1.214870395634379
 71
     0
  0
ACDB_MTEXTOBJECTCONTEXTDATA_CLASS
  5
50F
330
50E
100
AcDbObjectContextData
 70
     4
290
     1
100
AcDbAnnotScaleObjectContextData
340
B8
 70
     1
 10
1.0
 20
0.0
 30
0.0
 11
8417773.230319992
 21
5761365.924872973
 31
0.0
 40
70.45776279829443
 41
0.0
 42
43.8431105047749
 43
2.069577080491132
 71
     0
  0
ACDB_MTEXTOBJECTCONTEXTDATA_CLASS
  5
515
330
514
100
AcDbObjectContextData
 70
     4
290
     1
100
AcDbAnnotScaleObjectContextData
340
B8
 70
     1
 10
1.0
 20
0.0
 30
0.0
 11
8417539.170444968
 21
5761172.872293436
 31
0.0
 40
70.45776279829443
 41
0.0
 42
43.99863574351978
 43
2.069577080491132
 71
     0
  0
ACDB_MTEXTOBJECTCONTEXTDATA_CLASS
  5
51C
330
51B
100
AcDbObjectContextData
 70
     4
290
     1
100
AcDbAnnotScaleObjectContextData
340
B8
 70
     1
 10
1.0
 20
0.0
 30
0.0
 11
8417503.571898155
 21
5761321.389223915
 31
0.0
 40
70.45776279829443
 41
0.0
 42
50.64256480218281
 43
2.069577080491132
 71
     0
  0
ACDB_MTEXTOBJECTCONTEXTDATA_CLASS
  5
523
330
522
100
AcDbObjectContextData
 70
     4
290
     1
100
AcDbAnnotScaleObjectContextData
340
B8
 70
     1
 10
1.0
 20
0.0
 30
0.0
 11
8417629.031145693
 21
5761312.103422807
 31
0.0
 40
70.45776279829443
 41
0.0
 42
27.9549795361528
 43
2.068212824010913
 71
     0
  0
ACDB_MTEXTOBJECTCONTEXTDATA_CLASS
  5
52A
330
529
100
AcDbObjectContextData
 70
     4
290
     1
100
AcDbAnnotScaleObjectContextData
340
B8
 70
     1
 10
1.0
 20
0.0
 30
0.0
 11
8417611.194954094
 21
5761333.314180131
 31
0.0
 40
70.45776279829443
 41
0.0
 42
37.1787175989086
 43
5.43838108231014
 71
     0
  0
ACDB_MTEXTOBJECTCONTEXTDATA_CLASS
  5
52F
330
52E
100
AcDbObjectContextData
 70
     4
290
     1
100
AcDbAnnotScaleObjectContextData
340
B8
 70
     5
 10
0.5221937118385247
 20
0.8528269034899778
 30
0.0
 11
8417674.664064463
 21
5761295.644060513
 31
0.0
 40
94.56335628902861
 41
0.0
 42
17.42155525238745
 43
1.214870395634379
 71
     0
  0
ACDB_MTEXTOBJECTCONTEXTDATA_CLASS
  5
535
330
534
100
AcDbObjectContextData
 70
     4
290
     1
100
AcDbAnnotScaleObjectContextData
340
B8
 70
     1
 10
1.0
 20
0.0
 30
0.0
 11
8417733.30789705
 21
5761278.960405238
 31
0.0
 40
70.45776279829443
 41
0.0
 42
46.95770804911322
 43
5.43838108231014
 71
     0
  0
ENDSEC
  0
SECTION
  2
ACDSDATA
 70
     2
 71
     2
  0
ACDSSCHEMA
 90
        0
  1
AcDb3DSolid_ASM_Data
  2
AcDbDs::ID
280
    10
 91
        0
  2
ASM_Data
280
    15
 91
        0
101
ACDSRECORD
 95
        0
 90
        1
  2
AcDbDs::TreatedAsObjectData
280
     1
291
     1
101
ACDSRECORD
 95
        0
 90
        2
  2
AcDbDs::Legacy
280
     1
291
     1
101
ACDSRECORD
  1
AcDbDs::ID
 90
        3
  2
AcDs:Indexable
280
     1
291
     1
101
ACDSRECORD
  1
AcDbDs::ID
 90
        4
  2
AcDbDs::HandleAttribute
280
     7
282
     1
  0
ACDSSCHEMA
 90
        1
  1
AcDbDs::TreatedAsObjectDataSchema
  2
AcDbDs::TreatedAsObjectData
280
     1
 91
        0
  0
ACDSSCHEMA
 90
        2
  1
AcDbDs::LegacySchema
  2
AcDbDs::Legacy
280
     1
 91
        0
  0
ACDSSCHEMA
 90
        3
  1
AcDbDs::IndexedPropertySchema
  2
AcDs:Indexable
280
     1
 91
        0
  0
ACDSSCHEMA
 90
        4
  1
AcDbDs::HandleAttributeSchema
  2
AcDbDs::HandleAttribute
280
     7
 91
        8
  0
ENDSEC
  0
EOF
