  0
SECTION
  2
HEADER
  9
$ACADVER
  1
AC1018
  9
$ACADMAINTVER
 70
   104
  9
$DWGCODEPAGE
  3
ANSI_1250
  9
$LASTSAVEDBY
  1
Dell
  9
$INSBASE
 10
0.0
 20
0.0
 30
0.0
  9
$EXTMIN
 10
7565467.012288713
 20
5722319.673128374
 30
0.0
  9
$EXTMAX
 10
7565649.740506176
 20
5722429.505827169
 30
0.25
  9
$LIMMIN
 10
7565467.012
 20
5722319.672999999
  9
$LIMMAX
 10
7565552.34
 20
5722429.506
  9
$ORTHOMODE
 70
     0
  9
$REGENMODE
 70
     1
  9
$FILLMODE
 70
     1
  9
$QTEXTMODE
 70
     0
  9
$MIRRTEXT
 70
     0
  9
$LTSCALE
 40
1.0
  9
$ATTMODE
 70
     1
  9
$TEXTSIZE
 40
0.2
  9
$TRACEWID
 40
0.05
  9
$TEXTSTYLE
  7
STANDARD
  9
$CLAYER
  8
osie_dobrze
  9
$CELTYPE
  6
CONTINUOUS
  9
$CECOLOR
 62
   256
  9
$CELTSCALE
 40
1.0
  9
$DISPSILH
 70
     0
  9
$DIMSCALE
 40
0.25
  9
$DIMASZ
 40
2.5
  9
$DIMEXO
 40
0.625
  9
$DIMDLI
 40
0.38
  9
$DIMRND
 40
0.0
  9
$DIMDLE
 40
0.0
  9
$DIMEXE
 40
1.25
  9
$DIMTP
 40
0.0
  9
$DIMTM
 40
0.0
  9
$DIMTXT
 40
2.5
  9
$DIMCEN
 40
0.09
  9
$DIMTSZ
 40
0.0
  9
$DIMTOL
 70
     0
  9
$DIMLIM
 70
     0
  9
$DIMTIH
 70
     1
  9
$DIMTOH
 70
     1
  9
$DIMSE1
 70
     0
  9
$DIMSE2
 70
     0
  9
$DIMTAD
 70
     0
  9
$DIMZIN
 70
     0
  9
$DIMBLK
  1

  9
$DIMASO
 70
     1
  9
$DIMSHO
 70
     1
  9
$DIMPOST
  1

  9
$DIMAPOST
  1

  9
$DIMALT
 70
     0
  9
$DIMALTD
 70
     2
  9
$DIMALTF
 40
25.4
  9
$DIMLFAC
 40
1.0
  9
$DIMTOFL
 70
     0
  9
$DIMTVP
 40
0.0
  9
$DIMTIX
 70
     0
  9
$DIMSOXD
 70
     0
  9
$DIMSAH
 70
     0
  9
$DIMBLK1
  1

  9
$DIMBLK2
  1

  9
$DIMSTYLE
  2
Standard
  9
$DIMCLRD
 70
     0
  9
$DIMCLRE
 70
     0
  9
$DIMCLRT
 70
     0
  9
$DIMTFAC
 40
1.0
  9
$DIMGAP
 40
0.625
  9
$DIMJUST
 70
     0
  9
$DIMSD1
 70
     0
  9
$DIMSD2
 70
     0
  9
$DIMTOLJ
 70
     1
  9
$DIMTZIN
 70
     0
  9
$DIMALTZ
 70
     0
  9
$DIMALTTZ
 70
     0
  9
$DIMUPT
 70
     0
  9
$DIMDEC
 70
     4
  9
$DIMTDEC
 70
     4
  9
$DIMALTU
 70
     2
  9
$DIMALTTD
 70
     2
  9
$DIMTXSTY
  7
STANDARD
  9
$DIMAUNIT
 70
     0
  9
$DIMADEC
 70
     0
  9
$DIMALTRND
 40
0.0
  9
$DIMAZIN
 70
     0
  9
$DIMDSEP
 70
    46
  9
$DIMATFIT
 70
     3
  9
$DIMFRAC
 70
     0
  9
$DIMLDRBLK
  1

  9
$DIMLUNIT
 70
     2
  9
$DIMLWD
 70
    -2
  9
$DIMLWE
 70
    -2
  9
$DIMTMOVE
 70
     0
  9
$LUNITS
 70
     2
  9
$LUPREC
 70
     4
  9
$SKETCHINC
 40
0.1
  9
$FILLETRAD
 40
0.0
  9
$AUNITS
 70
     0
  9
$AUPREC
 70
     0
  9
$MENU
  1

  9
$ELEVATION
 40
0.0
  9
$PELEVATION
 40
0.0
  9
$THICKNESS
 40
0.0
  9
$LIMCHECK
 70
     0
  9
$CHAMFERA
 40
0.0
  9
$CHAMFERB
 40
0.0
  9
$CHAMFERC
 40
0.0
  9
$CHAMFERD
 40
0.0
  9
$SKPOLY
 70
     0
  9
$TDCREATE
 40
2305824.216120961
  9
$TDUCREATE
 40
45567.3557438079
  9
$TDUPDATE
 40
2460611.923701215
  9
$TDUUPDATE
 40
2460611.882034549
  9
$TDINDWG
 40
0.0204045949
  9
$TDUSRTIMER
 40
0.0204043171
  9
$USRTIMER
 70
     1
  9
$ANGBASE
 50
0.0
  9
$ANGDIR
 70
     0
  9
$PDMODE
 70
     0
  9
$PDSIZE
 40
0.0
  9
$PLINEWID
 40
0.0
  9
$SPLFRAME
 70
     0
  9
$SPLINETYPE
 70
     6
  9
$SPLINESEGS
 70
     8
  9
$HANDSEED
  5
10004CE
  9
$SURFTAB1
 70
     6
  9
$SURFTAB2
 70
     6
  9
$SURFTYPE
 70
     6
  9
$SURFU
 70
     6
  9
$SURFV
 70
     6
  9
$UCSBASE
  2

  9
$UCSNAME
  2

  9
$UCSORG
 10
0.0
 20
0.0
 30
0.0
  9
$UCSXDIR
 10
1.0
 20
0.0
 30
0.0
  9
$UCSYDIR
 10
0.0
 20
1.0
 30
0.0
  9
$UCSORTHOREF
  2

  9
$UCSORTHOVIEW
 70
     0
  9
$UCSORGTOP
 10
0.0
 20
0.0
 30
0.0
  9
$UCSORGBOTTOM
 10
0.0
 20
0.0
 30
0.0
  9
$UCSORGLEFT
 10
0.0
 20
0.0
 30
0.0
  9
$UCSORGRIGHT
 10
0.0
 20
0.0
 30
0.0
  9
$UCSORGFRONT
 10
0.0
 20
0.0
 30
0.0
  9
$UCSORGBACK
 10
0.0
 20
0.0
 30
0.0
  9
$PUCSBASE
  2

  9
$PUCSNAME
  2

  9
$PUCSORG
 10
0.0
 20
0.0
 30
0.0
  9
$PUCSXDIR
 10
1.0
 20
0.0
 30
0.0
  9
$PUCSYDIR
 10
0.0
 20
1.0
 30
0.0
  9
$PUCSORTHOREF
  2

  9
$PUCSORTHOVIEW
 70
     0
  9
$PUCSORGTOP
 10
0.0
 20
0.0
 30
0.0
  9
$PUCSORGBOTTOM
 10
0.0
 20
0.0
 30
0.0
  9
$PUCSORGLEFT
 10
0.0
 20
0.0
 30
0.0
  9
$PUCSORGRIGHT
 10
0.0
 20
0.0
 30
0.0
  9
$PUCSORGFRONT
 10
0.0
 20
0.0
 30
0.0
  9
$PUCSORGBACK
 10
0.0
 20
0.0
 30
0.0
  9
$USERI1
 70
     0
  9
$USERI2
 70
     0
  9
$USERI3
 70
     0
  9
$USERI4
 70
     0
  9
$USERI5
 70
     0
  9
$USERR1
 40
0.0
  9
$USERR2
 40
0.0
  9
$USERR3
 40
0.0
  9
$USERR4
 40
0.0
  9
$USERR5
 40
0.0
  9
$WORLDVIEW
 70
     1
  9
$SHADEDGE
 70
     3
  9
$SHADEDIF
 70
    70
  9
$TILEMODE
 70
     1
  9
$MAXACTVP
 70
    64
  9
$PINSBASE
 10
0.0
 20
0.0
 30
0.0
  9
$PLIMCHECK
 70
     0
  9
$PEXTMIN
 10
1.000000000000000E+20
 20
1.000000000000000E+20
 30
1.000000000000000E+20
  9
$PEXTMAX
 10
-1.000000000000000E+20
 20
-1.000000000000000E+20
 30
-1.000000000000000E+20
  9
$PLIMMIN
 10
0.0
 20
0.0
  9
$PLIMMAX
 10
210.0
 20
297.0
  9
$UNITMODE
 70
     0
  9
$VISRETAIN
 70
     1
  9
$PLINEGEN
 70
     0
  9
$PSLTSCALE
 70
     1
  9
$TREEDEPTH
 70
  3020
  9
$CMLSTYLE
  2
Standard
  9
$CMLJUST
 70
     0
  9
$CMLSCALE
 40
1.0
  9
$PROXYGRAPHICS
 70
     1
  9
$MEASUREMENT
 70
     1
  9
$CELWEIGHT
370
    -1
  9
$ENDCAPS
280
     0
  9
$JOINSTYLE
280
     0
  9
$LWDISPLAY
290
     1
  9
$INSUNITS
 70
     6
  9
$HYPERLINKBASE
  1

  9
$STYLESHEET
  1

  9
$XEDIT
290
     0
  9
$CEPSNTYPE
380
     0
  9
$PSTYLEMODE
290
     1
  9
$FINGERPRINTGUID
  2
{DDCDB014-1171-42EA-9F11-787E6DC1946E}
  9
$VERSIONGUID
  2
{075775DB-8269-4C36-A733-1657DEDBF819}
  9
$EXTNAMES
290
     1
  9
$PSVPSCALE
 40
0.0
  9
$OLESTARTUP
290
     0
  9
$SORTENTS
280
   127
  9
$INDEXCTL
280
     0
  9
$HIDETEXT
280
     1
  9
$XCLIPFRAME
290
     0
  9
$HALOGAP
280
     0
  9
$OBSCOLOR
 70
   257
  9
$OBSLTYPE
280
     0
  9
$INTERSECTIONDISPLAY
280
     0
  9
$INTERSECTIONCOLOR
 70
   257
  9
$DIMASSOC
280
     2
  9
$PROJECTNAME
  1

  0
ENDSEC
  0
SECTION
  2
CLASSES
  0
CLASS
  1
WIPEOUT
  2
AcDbWipeout
  3
WipeOut|Product Desc: Object Enabler for WipeOut entity | Company: Autodesk, Inc. | WEB Address: www.autodesk.com
 90
     2175
 91
        0
280
     0
281
     1
  0
CLASS
  1
WIPEOUTVARIABLES
  2
AcDbWipeoutVariables
  3
"WipeOut|Product Desc:     WipeOut Dbx Application|Company:          Autodesk, Inc.|WEB Address:      www.autodesk.com"
 90
        0
 91
        0
280
     0
281
     0
  0
CLASS
  1
ACDBDICTIONARYWDFLT
  2
AcDbDictionaryWithDefault
  3
ObjectDBX Classes
 90
        0
 91
        1
280
     0
281
     0
  0
CLASS
  1
MATERIAL
  2
AcDbMaterial
  3
ObjectDBX Classes
 90
     1153
 91
        3
280
     0
281
     0
  0
CLASS
  1
VISUALSTYLE
  2
AcDbVisualStyle
  3
ObjectDBX Classes
 90
     4095
 91
       24
280
     0
281
     0
  0
CLASS
  1
TABLESTYLE
  2
AcDbTableStyle
  3
ObjectDBX Classes
 90
     4095
 91
        1
280
     0
281
     0
  0
CLASS
  1
MLEADERSTYLE
  2
AcDbMLeaderStyle
  3
ACDB_MLEADERSTYLE_CLASS
 90
     4095
 91
        1
280
     0
281
     0
  0
CLASS
  1
SCALE
  2
AcDbScale
  3
ObjectDBX Classes
 90
     1153
 91
       17
280
     0
281
     0
  0
CLASS
  1
DICTIONARYVAR
  2
AcDbDictionaryVar
  3
ObjectDBX Classes
 90
        0
 91
       19
280
     0
281
     0
  0
CLASS
  1
ACDBSECTIONVIEWSTYLE
  2
AcDbSectionViewStyle
  3
ObjectDBX Classes
 90
     1025
 91
        1
280
     0
281
     0
  0
CLASS
  1
ACDBDETAILVIEWSTYLE
  2
AcDbDetailViewStyle
  3
ObjectDBX Classes
 90
     1025
 91
        1
280
     0
281
     0
  0
CLASS
  1
DIMASSOC
  2
AcDbDimAssoc
  3
"AcDbDimAssoc|Product Desc:     AcDim ARX App For Dimension|Company:          Autodesk, Inc.|WEB Address:      www.autodesk.com"
 90
        0
 91
       15
280
     0
281
     0
  0
CLASS
  1
SORTENTSTABLE
  2
AcDbSortentsTable
  3
ObjectDBX Classes
 90
        0
 91
        4
280
     0
281
     0
  0
CLASS
  1
CELLSTYLEMAP
  2
AcDbCellStyleMap
  3
ObjectDBX Classes
 90
     1152
 91
        1
280
     0
281
     0
  0
ENDSEC
  0
SECTION
  2
TABLES
  0
TABLE
  2
VPORT
  5
1
330
0
100
AcDbSymbolTable
 70
     1
  0
VPORT
  5
2
330
1
100
AcDbSymbolTableRecord
100
AcDbViewportTableRecord
  2
*ACTIVE
 70
     0
 10
0.0
 20
0.0
 11
1.0
 21
1.0
 12
7565498.935572433
 22
5722373.900643138
 13
0.0
 23
0.0
 14
1.0
 24
1.0
 15
0.0
 25
0.0
 16
0.0
 26
0.0
 36
1.0
 17
0.0
 27
0.0
 37
0.0
 40
85.81792871300548
 41
2.426356589147286
 42
50.0
 43
0.0
 44
0.0
 50
0.0
 51
0.0
 71
     0
 72
   100
 73
     1
 74
     1
 75
     0
 76
     0
 77
     0
 78
     0
281
     0
 65
     1
110
0.0
120
0.0
130
0.0
111
1.0
121
0.0
131
0.0
112
0.0
122
1.0
132
0.0
 79
     0
146
0.0
1001
ACAD_NAV_VCDISPLAY
1070
     3
  0
ENDTAB
  0
TABLE
  2
LTYPE
  5
3
330
0
100
AcDbSymbolTable
 70
     4
  0
LTYPE
  5
4
330
3
100
AcDbSymbolTableRecord
100
AcDbLinetypeTableRecord
  2
ByBlock
 70
     0
  3

 72
    65
 73
     0
 40
0.0
  0
LTYPE
  5
5
330
3
100
AcDbSymbolTableRecord
100
AcDbLinetypeTableRecord
  2
ByLayer
 70
     0
  3

 72
    65
 73
     0
 40
0.0
  0
LTYPE
  5
6
330
3
100
AcDbSymbolTableRecord
100
AcDbLinetypeTableRecord
  2
CONTINUOUS
 70
     0
  3
Solid line
 72
    65
 73
     0
 40
0.0
  0
LTYPE
  5
7
330
3
100
AcDbSymbolTableRecord
100
AcDbLinetypeTableRecord
  2
L_0_04
 70
     0
  3
Budynek_projektowany
 72
    65
 73
     2
 40
1.5
 49
1.0
 74
     0
 49
-0.5
 74
     0
  0
LTYPE
  5
8
330
3
100
AcDbSymbolTableRecord
100
AcDbLinetypeTableRecord
  2
L_0_0A
 70
     0
  3
Gmina
 72
    65
 73
     4
 40
2.5
 49
1.5
 74
     0
 49
-0.5
 74
     0
 49
0.0
 74
     0
 49
-0.5
 74
     0
  0
ENDTAB
  0
TABLE
  2
LAYER
  5
9
330
0
100
AcDbSymbolTable
 70
     9
  0
LAYER
  5
A
330
9
100
AcDbSymbolTableRecord
100
AcDbLayerTableRecord
  2
0
 70
     0
 62
     7
  6
CONTINUOUS
370
    18
390
B
  0
LAYER
  5
C
330
9
100
AcDbSymbolTableRecord
100
AcDbLayerTableRecord
  2
bud_bez_ocieplenia
 70
     0
 62
     5
  6
CONTINUOUS
370
    18
390
B
  0
LAYER
  5
D
330
9
100
AcDbSymbolTableRecord
100
AcDbLayerTableRecord
  2
bud_z_ociepleniem
 70
     0
 62
     7
  6
CONTINUOUS
370
    35
390
B
  0
LAYER
  5
E
330
9
100
AcDbSymbolTableRecord
100
AcDbLayerTableRecord
  2
Dzialki
 70
     0
 62
    96
  6
CONTINUOUS
370
    18
390
B
  0
LAYER
  5
F
330
9
100
AcDbSymbolTableRecord
100
AcDbLayerTableRecord
  2
oski
 70
     0
 62
     1
  6
L_0_0A
370
    25
390
B
  0
LAYER
  5
1000041
330
9
100
AcDbSymbolTableRecord
100
AcDbLayerTableRecord
  2
osie_dobrze
 70
     0
 62
     1
420
 16711680
  6
L_0_0A
370
    25
390
B
  0
LAYER
  5
1000042
330
9
100
AcDbSymbolTableRecord
100
AcDbLayerTableRecord
  2
PRZEKATNE
 70
     0
 62
   202
420
  9699539
  6
CONTINUOUS
370
    18
390
B
  0
LAYER
  5
1000169
330
9
100
AcDbSymbolTableRecord
100
AcDbLayerTableRecord
  2
Defpoints
 70
     0
 62
     7
  6
CONTINUOUS
290
     0
370
    -3
390
B
  0
LAYER
  5
10002F6
330
9
100
AcDbSymbolTableRecord
100
AcDbLayerTableRecord
  2
Stare_opracowanie
 70
     0
 62
   190
  6
CONTINUOUS
370
    18
390
B
1001
AcAecLayerStandard
1000

1000

1001
AcCmTransparency
1071
        0
  0
ENDTAB
  0
TABLE
  2
STYLE
  5
10
330
0
100
AcDbSymbolTable
 70
     2
  0
STYLE
  5
11
330
10
100
AcDbSymbolTableRecord
100
AcDbTextStyleTableRecord
  2
STANDARD
 70
     0
 40
0.0
 41
1.0
 50
0.0
 71
     0
 42
0.2
  3
simplex.shx
  4

  0
STYLE
  5
12
330
10
100
AcDbSymbolTableRecord
100
AcDbTextStyleTableRecord
  2
STANDARD_ITALIC
 70
     0
 40
0.0
 41
1.0
 50
15.0
 71
     0
 42
0.2
  3
simplex.shx
  4

  0
ENDTAB
  0
TABLE
  2
VIEW
  5
13
330
0
100
AcDbSymbolTable
 70
     0
  0
ENDTAB
  0
TABLE
  2
UCS
  5
14
330
0
100
AcDbSymbolTable
 70
     0
  0
ENDTAB
  0
TABLE
  2
APPID
  5
15
330
0
100
AcDbSymbolTable
 70
     8
  0
APPID
  5
16
330
15
100
AcDbSymbolTableRecord
100
AcDbRegAppTableRecord
  2
ACAD
 70
     0
  0
APPID
  5
1000043
330
15
100
AcDbSymbolTableRecord
100
AcDbRegAppTableRecord
  2
ACAD_NAV_VCDISPLAY
 70
     0
  0
APPID
  5
1000166
330
15
100
AcDbSymbolTableRecord
100
AcDbRegAppTableRecord
  2
ACAD_DSTYLE_DIMJAG
 70
     0
  0
APPID
  5
1000167
330
15
100
AcDbSymbolTableRecord
100
AcDbRegAppTableRecord
  2
ACAD_DSTYLE_DIMTALN
 70
     0
  0
APPID
  5
1000284
330
15
100
AcDbSymbolTableRecord
100
AcDbRegAppTableRecord
  2
ACAD_EXEMPT_FROM_CAD_STANDARDS
 70
     0
  0
APPID
  5
10002F7
330
15
100
AcDbSymbolTableRecord
100
AcDbRegAppTableRecord
  2
AcAecLayerStandard
 70
     0
  0
APPID
  5
10002F8
330
15
100
AcDbSymbolTableRecord
100
AcDbRegAppTableRecord
  2
AcCmTransparency
 70
     0
  0
APPID
  5
10004CC
330
15
100
AcDbSymbolTableRecord
100
AcDbRegAppTableRecord
  2
ACAD_MLEADERVER
 70
     0
  0
ENDTAB
  0
TABLE
  2
DIMSTYLE
  5
17
330
0
100
AcDbSymbolTable
 70
     2
100
AcDbDimStyleTable
 71
     1
340
18
  0
DIMSTYLE
105
18
102
{ACAD_REACTORS
330
1000327
330
1000341
330
100035B
330
1000375
330
1000383
330
1000391
102
}
330
17
100
AcDbSymbolTableRecord
100
AcDbDimStyleTableRecord
  2
Standard
 70
     0
340
11
  0
ENDTAB
  0
TABLE
  2
BLOCK_RECORD
  5
19
330
0
100
AcDbSymbolTable
 70
    22
  0
BLOCK_RECORD
  5
1A
102
{ACAD_XDICTIONARY
360
10001DB
102
}
330
19
100
AcDbSymbolTableRecord
100
AcDbBlockTableRecord
  2
*MODEL_SPACE
340
1B
  0
BLOCK_RECORD
  5
1C
330
19
100
AcDbSymbolTableRecord
100
AcDbBlockTableRecord
  2
*PAPER_SPACE
340
1D
  0
BLOCK_RECORD
  5
1000104
330
19
100
AcDbSymbolTableRecord
100
AcDbBlockTableRecord
  2
A$C32866C33
340
0
1001
ACAD
1000
DesignCenter Data
1002
{
1070
     1
1070
     6
1002
}
  0
BLOCK_RECORD
  5
100016A
330
19
100
AcDbSymbolTableRecord
100
AcDbBlockTableRecord
  2
*D2
340
0
  0
BLOCK_RECORD
  5
1000186
330
19
100
AcDbSymbolTableRecord
100
AcDbBlockTableRecord
  2
*D3
340
0
  0
BLOCK_RECORD
  5
10001A2
330
19
100
AcDbSymbolTableRecord
100
AcDbBlockTableRecord
  2
*D4
340
0
  0
BLOCK_RECORD
  5
10001BC
330
19
100
AcDbSymbolTableRecord
100
AcDbBlockTableRecord
  2
*D5
340
0
  0
BLOCK_RECORD
  5
100025B
330
19
100
AcDbSymbolTableRecord
100
AcDbBlockTableRecord
  2
*D6
340
0
  0
BLOCK_RECORD
  5
1000297
330
19
100
AcDbSymbolTableRecord
100
AcDbBlockTableRecord
  2
*D8
340
0
  0
BLOCK_RECORD
  5
10002B3
330
19
100
AcDbSymbolTableRecord
100
AcDbBlockTableRecord
  2
*D9
340
0
  0
BLOCK_RECORD
  5
10002DF
102
{ACAD_XDICTIONARY
360
10002F1
102
}
330
19
100
AcDbSymbolTableRecord
100
AcDbBlockTableRecord
  2
A$C5E6C1AEE
340
0
1001
ACAD
1000
DesignCenter Data
1002
{
1070
     1
1070
     6
1002
}
  0
BLOCK_RECORD
  5
100030E
330
19
100
AcDbSymbolTableRecord
100
AcDbBlockTableRecord
  2
*D11
340
0
  0
BLOCK_RECORD
  5
1000328
330
19
100
AcDbSymbolTableRecord
100
AcDbBlockTableRecord
  2
*D12
340
0
  0
BLOCK_RECORD
  5
1000342
330
19
100
AcDbSymbolTableRecord
100
AcDbBlockTableRecord
  2
*D13
340
0
  0
BLOCK_RECORD
  5
100035C
330
19
100
AcDbSymbolTableRecord
100
AcDbBlockTableRecord
  2
*D14
340
0
  0
BLOCK_RECORD
  5
1000376
330
19
100
AcDbSymbolTableRecord
100
AcDbBlockTableRecord
  2
*D15
340
0
  0
BLOCK_RECORD
  5
1000384
330
19
100
AcDbSymbolTableRecord
100
AcDbBlockTableRecord
  2
*D16
340
0
  0
BLOCK_RECORD
  5
1000392
330
19
100
AcDbSymbolTableRecord
100
AcDbBlockTableRecord
  2
*D17
340
0
  0
BLOCK_RECORD
  5
1000418
330
19
100
AcDbSymbolTableRecord
100
AcDbBlockTableRecord
  2
*D18
340
0
  0
BLOCK_RECORD
  5
1000434
330
19
100
AcDbSymbolTableRecord
100
AcDbBlockTableRecord
  2
*D19
340
0
  0
BLOCK_RECORD
  5
1000450
330
19
100
AcDbSymbolTableRecord
100
AcDbBlockTableRecord
  2
*D20
340
0
  0
BLOCK_RECORD
  5
100046C
330
19
100
AcDbSymbolTableRecord
100
AcDbBlockTableRecord
  2
*D21
340
0
  0
ENDTAB
  0
ENDSEC
  0
SECTION
  2
BLOCKS
  0
BLOCK
  5
1E
330
1A
100
AcDbEntity
  8
0
100
AcDbBlockBegin
  2
*MODEL_SPACE
 70
     0
 10
0.0
 20
0.0
 30
0.0
  3
*MODEL_SPACE
  1

  0
ENDBLK
  5
1F
330
1A
100
AcDbEntity
  8
0
100
AcDbBlockEnd
  0
BLOCK
  5
20
330
1C
100
AcDbEntity
 67
     1
  8
0
100
AcDbBlockBegin
  2
*PAPER_SPACE
 70
     0
 10
0.0
 20
0.0
 30
0.0
  3
*PAPER_SPACE
  1

  0
ENDBLK
  5
21
330
1C
100
AcDbEntity
 67
     1
  8
0
100
AcDbBlockEnd
  0
BLOCK
  5
1000163
330
1000104
100
AcDbEntity
  8
0
100
AcDbBlockBegin
  2
A$C32866C33
 70
     0
 10
0.0
 20
0.0
 30
0.0
  3
A$C32866C33
  1

  0
POLYLINE
  5
1000105
330
1000104
100
AcDbEntity
  8
bud_bez_ocieplenia
  6
Continuous
370
    18
100
AcDb2dPolyline
 66
     1
 10
0.0
 20
0.0
 30
0.0
 70
   129
  0
VERTEX
  5
1000106
330
1000105
100
AcDbEntity
  8
bud_bez_ocieplenia
100
AcDbVertex
100
AcDb2dVertex
 10
-2.768805311061441
 20
5.744713400490581
 30
0.0
  0
VERTEX
  5
1000107
330
1000105
100
AcDbEntity
  8
bud_bez_ocieplenia
100
AcDbVertex
100
AcDb2dVertex
 10
6.777918684296309
 20
10.11526282597333
 30
0.0
  0
VERTEX
  5
1000108
330
1000105
100
AcDbEntity
  8
bud_bez_ocieplenia
100
AcDbVertex
100
AcDb2dVertex
 10
9.484632680192589
 20
4.207059162668883
 30
0.0
  0
VERTEX
  5
1000109
330
1000105
100
AcDbEntity
  8
bud_bez_ocieplenia
100
AcDbVertex
100
AcDb2dVertex
 10
-0.0624439129605889
 20
-0.1650757659226656
 30
0.0
  0
SEQEND
  5
100010A
330
1000105
100
AcDbEntity
  8
bud_bez_ocieplenia
  0
POLYLINE
  5
100010B
330
1000104
100
AcDbEntity
  8
bud_z_ociepleniem
  6
Continuous
370
    35
100
AcDb2dPolyline
 66
     1
 10
0.0
 20
0.0
 30
0.0
 70
   129
  0
VERTEX
  5
100010C
330
100010B
100
AcDbEntity
  8
bud_z_ociepleniem
100
AcDbVertex
100
AcDb2dVertex
 10
-2.901062820106744
 20
5.793169511482119
 30
0.0
  0
VERTEX
  5
100010D
330
100010B
100
AcDbEntity
  8
bud_z_ociepleniem
100
AcDbVertex
100
AcDb2dVertex
 10
6.827060693874955
 20
10.24908412341028
 30
0.0
  0
VERTEX
  5
100010E
330
100010B
100
AcDbEntity
  8
bud_z_ociepleniem
100
AcDbVertex
100
AcDb2dVertex
 10
9.616694749332964
 20
4.157455291599035
 30
0.0
  0
VERTEX
  5
100010F
330
100010B
100
AcDbEntity
  8
bud_z_ociepleniem
100
AcDbVertex
100
AcDb2dVertex
 10
-0.1108881859108806
 20
-0.2982117375358939
 30
0.0
  0
SEQEND
  5
1000110
330
100010B
100
AcDbEntity
  8
bud_z_ociepleniem
  0
POLYLINE
  5
1000111
330
1000104
100
AcDbEntity
  8
osie_dobrze
370
    25
100
AcDb2dPolyline
 66
     1
 10
0.0
 20
0.0
 30
0.0
 70
   128
  0
VERTEX
  5
1000112
330
1000111
100
AcDbEntity
  8
osie_dobrze
100
AcDbVertex
100
AcDb2dVertex
 10
6.716102534905076
 20
9.950858839787542
 30
0.0
  0
VERTEX
  5
1000113
330
1000111
100
AcDbEntity
  8
osie_dobrze
100
AcDbVertex
100
AcDb2dVertex
 10
9.318877380341291
 20
4.268600211478769
 30
0.0
  0
SEQEND
  5
1000114
330
1000111
100
AcDbEntity
  8
osie_dobrze
  0
POLYLINE
  5
1000115
330
1000104
100
AcDbEntity
  8
osie_dobrze
370
    25
100
AcDb2dPolyline
 66
     1
 10
0.0
 20
0.0
 30
0.0
 70
   128
  0
VERTEX
  5
1000116
330
1000115
100
AcDbEntity
  8
osie_dobrze
100
AcDbVertex
100
AcDb2dVertex
 10
6.716102534905076
 20
9.950858839787542
 30
0.0
  0
VERTEX
  5
1000117
330
1000115
100
AcDbEntity
  8
osie_dobrze
100
AcDbVertex
100
AcDb2dVertex
 10
-2.602774841710925
 20
5.68225862737745
 30
0.0
  0
VERTEX
  5
1000118
330
1000115
100
AcDbEntity
  8
osie_dobrze
100
AcDbVertex
100
AcDb2dVertex
 10
0.0
 20
0.0
 30
0.0
  0
VERTEX
  5
1000119
330
1000115
100
AcDbEntity
  8
osie_dobrze
100
AcDbVertex
100
AcDb2dVertex
 10
9.318877380341291
 20
4.268600211478769
 30
0.0
  0
SEQEND
  5
100011A
330
1000115
100
AcDbEntity
  8
osie_dobrze
  0
POLYLINE
  5
100011B
330
1000104
100
AcDbEntity
  8
osie_dobrze
370
    25
100
AcDb2dPolyline
 66
     1
 10
0.0
 20
0.0
 30
0.0
 70
   128
  0
VERTEX
  5
100011C
330
100011B
100
AcDbEntity
  8
osie_dobrze
100
AcDbVertex
100
AcDb2dVertex
 10
-5.330411448143422
 20
4.433550732210278
 30
0.0
  0
VERTEX
  5
100011D
330
100011B
100
AcDbEntity
  8
osie_dobrze
100
AcDbVertex
100
AcDb2dVertex
 10
9.216522064059972
 20
11.09588706027716
 30
0.0
  0
SEQEND
  5
100011E
330
100011B
100
AcDbEntity
  8
osie_dobrze
  0
POLYLINE
  5
100011F
330
1000104
100
AcDbEntity
  8
osie_dobrze
370
    25
100
AcDb2dPolyline
 66
     1
 10
0.0
 20
0.0
 30
0.0
 70
   128
  0
VERTEX
  5
1000120
330
100011F
100
AcDbEntity
  8
osie_dobrze
100
AcDbVertex
100
AcDb2dVertex
 10
-2.72730063740164
 20
-1.249691191129386
 30
0.0
  0
VERTEX
  5
1000121
330
100011F
100
AcDbEntity
  8
osie_dobrze
100
AcDbVertex
100
AcDb2dVertex
 10
11.81904188077897
 20
5.413935400545597
 30
0.0
  0
SEQEND
  5
1000122
330
100011F
100
AcDbEntity
  8
osie_dobrze
  0
POLYLINE
  5
1000123
330
1000104
100
AcDbEntity
  8
osie_dobrze
370
    25
100
AcDb2dPolyline
 66
     1
 10
0.0
 20
0.0
 30
0.0
 70
   128
  0
VERTEX
  5
1000124
330
1000123
100
AcDbEntity
  8
osie_dobrze
100
AcDbVertex
100
AcDb2dVertex
 10
10.56860684417188
 20
1.541317106224596
 30
0.0
  0
VERTEX
  5
1000125
330
1000123
100
AcDbEntity
  8
osie_dobrze
100
AcDbVertex
100
AcDb2dVertex
 10
5.154244383797049
 20
13.36014442238957
 30
0.0
  0
SEQEND
  5
1000126
330
1000123
100
AcDbEntity
  8
osie_dobrze
  0
POLYLINE
  5
1000127
330
1000104
100
AcDbEntity
  8
osie_dobrze
370
    25
100
AcDb2dPolyline
 66
     1
 10
0.0
 20
0.0
 30
0.0
 70
   128
  0
VERTEX
  5
1000128
330
1000127
100
AcDbEntity
  8
osie_dobrze
100
AcDbVertex
100
AcDb2dVertex
 10
-4.164149845018982
 20
9.091421910561621
 30
0.0
  0
VERTEX
  5
1000129
330
1000127
100
AcDbEntity
  8
osie_dobrze
100
AcDbVertex
100
AcDb2dVertex
 10
1.249425113201141
 20
-2.727766139432787
 30
0.0
  0
SEQEND
  5
100012A
330
1000127
100
AcDbEntity
  8
osie_dobrze
  0
POLYLINE
  5
100012B
330
1000104
100
AcDbEntity
  8
PRZEKATNE
  6
Continuous
370
    18
100
AcDb2dPolyline
 66
     1
 10
0.0
 20
0.0
 30
0.0
 70
   128
  0
VERTEX
  5
100012C
330
100012B
100
AcDbEntity
  8
PRZEKATNE
100
AcDbVertex
100
AcDb2dVertex
 10
6.827060693874955
 20
10.24908412341028
 30
0.0
  0
VERTEX
  5
100012D
330
100012B
100
AcDbEntity
  8
PRZEKATNE
100
AcDbVertex
100
AcDb2dVertex
 10
9.616694749332964
 20
4.157455291599035
 30
0.0
  0
VERTEX
  5
100012E
330
100012B
100
AcDbEntity
  8
PRZEKATNE
100
AcDbVertex
100
AcDb2dVertex
 10
-1.306427461095154
 20
-0.8491116594523191
 30
0.0
  0
SEQEND
  5
100012F
330
100012B
100
AcDbEntity
  8
PRZEKATNE
  0
POLYLINE
  5
1000130
330
1000104
100
AcDbEntity
  8
PRZEKATNE
  6
Continuous
370
    18
100
AcDb2dPolyline
 66
     1
 10
0.0
 20
0.0
 30
0.0
 70
   128
  0
VERTEX
  5
1000131
330
1000130
100
AcDbEntity
  8
PRZEKATNE
100
AcDbVertex
100
AcDb2dVertex
 10
9.616694749332964
 20
4.157455291599035
 30
0.0
  0
VERTEX
  5
1000132
330
1000130
100
AcDbEntity
  8
PRZEKATNE
100
AcDbVertex
100
AcDb2dVertex
 10
6.827060693874955
 20
10.24908412341028
 30
0.0
  0
VERTEX
  5
1000133
330
1000130
100
AcDbEntity
  8
PRZEKATNE
100
AcDbVertex
100
AcDb2dVertex
 10
-4.093219076283276
 20
5.24235819093883
 30
0.0
  0
SEQEND
  5
1000134
330
1000130
100
AcDbEntity
  8
PRZEKATNE
  0
POLYLINE
  5
1000135
330
1000104
100
AcDbEntity
  8
PRZEKATNE
  6
Continuous
370
    18
100
AcDb2dPolyline
 66
     1
 10
0.0
 20
0.0
 30
0.0
 70
   128
  0
VERTEX
  5
1000136
330
1000135
100
AcDbEntity
  8
PRZEKATNE
100
AcDbVertex
100
AcDb2dVertex
 10
0.0
 20
0.0
 30
0.0
  0
VERTEX
  5
1000137
330
1000135
100
AcDbEntity
  8
PRZEKATNE
100
AcDbVertex
100
AcDb2dVertex
 10
6.716102534905076
 20
9.950858839787542
 30
0.0
  0
SEQEND
  5
1000138
330
1000135
100
AcDbEntity
  8
PRZEKATNE
  0
POLYLINE
  5
1000139
330
1000104
100
AcDbEntity
  8
PRZEKATNE
  6
Continuous
370
    18
100
AcDb2dPolyline
 66
     1
 10
0.0
 20
0.0
 30
0.0
 70
   128
  0
VERTEX
  5
100013A
330
1000139
100
AcDbEntity
  8
PRZEKATNE
100
AcDbVertex
100
AcDb2dVertex
 10
-2.602774841710925
 20
5.68225862737745
 30
0.0
  0
VERTEX
  5
100013B
330
1000139
100
AcDbEntity
  8
PRZEKATNE
100
AcDbVertex
100
AcDb2dVertex
 10
9.318877380341291
 20
4.268600211478769
 30
0.0
  0
SEQEND
  5
100013C
330
1000139
100
AcDbEntity
  8
PRZEKATNE
  0
POINT
  5
100013D
330
1000104
100
AcDbEntity
  8
0
100
AcDbPoint
 10
9.616694749332964
 20
4.157455291599035
 30
0.0
  0
POINT
  5
100013E
330
1000104
100
AcDbEntity
  8
0
100
AcDbPoint
 10
-0.1108881859108806
 20
-0.2982117375358939
 30
0.0
  0
POINT
  5
100013F
330
1000104
100
AcDbEntity
  8
0
100
AcDbPoint
 10
-2.901062820106744
 20
5.793169511482119
 30
0.0
  0
POINT
  5
1000140
330
1000104
100
AcDbEntity
  8
0
100
AcDbPoint
 10
6.827060693874955
 20
10.24908412341028
 30
0.0
  0
POINT
  5
1000141
330
1000104
100
AcDbEntity
  8
0
100
AcDbPoint
 10
9.484138585627079
 20
4.206738795153796
 30
0.0
  0
POINT
  5
1000142
330
1000104
100
AcDbEntity
  8
0
100
AcDbPoint
 10
-0.0624439129605889
 20
-0.1650757659226656
 30
0.0
  0
POINT
  5
1000143
330
1000104
100
AcDbEntity
  8
0
100
AcDbPoint
 10
-2.768805311061441
 20
5.744713400490581
 30
0.0
  0
POINT
  5
1000144
330
1000104
100
AcDbEntity
  8
0
100
AcDbPoint
 10
6.77813858538866
 20
10.11573879513889
 30
0.0
  0
POINT
  5
1000145
330
1000104
100
AcDbEntity
  8
0
100
AcDbPoint
 10
-4.164149845018982
 20
9.091421910561621
 30
0.0
  0
POINT
  5
1000146
330
1000104
100
AcDbEntity
  8
0
100
AcDbPoint
 10
9.318877380341291
 20
4.268600211478769
 30
0.0
  0
POINT
  5
1000147
330
1000104
100
AcDbEntity
  8
0
100
AcDbPoint
 10
6.716102534905076
 20
9.950858839787542
 30
0.0
  0
POINT
  5
1000148
330
1000104
100
AcDbEntity
  8
0
100
AcDbPoint
 10
-2.602774841710925
 20
5.68225862737745
 30
0.0
  0
POINT
  5
1000149
330
1000104
100
AcDbEntity
  8
0
100
AcDbPoint
 10
0.0
 20
0.0
 30
0.0
  0
POINT
  5
100014A
330
1000104
100
AcDbEntity
  8
0
100
AcDbPoint
 10
10.56860684417188
 20
1.541317106224596
 30
0.0
  0
POINT
  5
100014B
330
1000104
100
AcDbEntity
  8
0
100
AcDbPoint
 10
5.154244383797049
 20
13.36014442238957
 30
0.0
  0
POINT
  5
100014C
330
1000104
100
AcDbEntity
  8
0
100
AcDbPoint
 10
1.249425113201141
 20
-2.727766139432787
 30
0.0
  0
POINT
  5
100014D
330
1000104
100
AcDbEntity
  8
0
100
AcDbPoint
 10
-2.72730063740164
 20
-1.249691191129386
 30
0.0
  0
POINT
  5
100014E
330
1000104
100
AcDbEntity
  8
0
100
AcDbPoint
 10
11.81904188077897
 20
5.413935400545597
 30
0.0
  0
POINT
  5
100014F
330
1000104
100
AcDbEntity
  8
0
100
AcDbPoint
 10
9.216522064059972
 20
11.09588706027716
 30
0.0
  0
POINT
  5
1000150
330
1000104
100
AcDbEntity
  8
0
100
AcDbPoint
 10
-5.330411448143422
 20
4.433550732210278
 30
0.0
  0
TEXT
  5
1000151
330
1000104
100
AcDbEntity
  8
bud_bez_ocieplenia
370
    15
100
AcDbText
 39
0.15
 10
2.940817500885246
 20
1.464981976026549
 30
0.0
 40
0.75
  1
-10.500-
 50
-337.0
 41
0.6600000000000001
 72
     1
 11
4.665821363218128
 21
1.925612579099833
 31
0.0
100
AcDbText
 73
     1
  0
TEXT
  5
1000152
330
1000104
100
AcDbEntity
  8
bud_bez_ocieplenia
370
    15
100
AcDbText
 39
0.15
 10
6.672703603889386
 20
8.254057738034486
 30
0.0
 40
0.75
  1
-6.499-
 50
-65.0
 41
0.6600000000000001
 72
     1
 11
7.113561640493571
 21
6.717084231786429
 31
0.0
100
AcDbText
 73
     1
  0
TEXT
  5
1000153
330
1000104
100
AcDbEntity
  8
bud_bez_ocieplenia
370
    15
100
AcDbText
 39
0.15
 10
0.2578175072107889
 20
6.196981980526699
 30
0.0
 40
0.75
  1
-10.500-
 50
-337.0
 41
0.6600000000000001
 72
     1
 11
1.982821369543671
 21
6.657612583599984
 31
0.0
100
AcDbText
 73
     1
  0
TEXT
  5
1000154
330
1000104
100
AcDbEntity
  8
bud_bez_ocieplenia
370
    15
100
AcDbText
 39
0.15
 10
-1.989296401244063
 20
4.51705773271477
 30
0.0
 40
0.75
  1
-6.500-
 50
-65.0
 41
0.6600000000000001
 72
     1
 11
-1.548438364639878
 21
2.980084226466715
 31
0.0
100
AcDbText
 73
     1
  0
TEXT
  5
1000155
330
1000104
100
AcDbEntity
  8
bud_z_ociepleniem
370
    15
100
AcDbText
 39
0.15
 10
3.61081750081074
 20
0.4649819760265491
 30
0.0
 40
0.75
  1
-10.700-
 50
-337.0
 41
0.6600000000000001
 72
     1
 11
5.335821363143622
 21
0.9256125790998339
 31
0.0
100
AcDbText
 73
     1
  0
TEXT
  5
1000156
330
1000104
100
AcDbEntity
  8
bud_z_ociepleniem
370
    15
100
AcDbText
 39
0.15
 10
7.740703599202971
 20
8.617057734204887
 30
0.0
 40
0.75
  1
-6.700-
 50
-65.0
 41
0.6600000000000001
 72
     1
 11
8.181561635807156
 21
7.080084227956831
 31
0.0
100
AcDbText
 73
     1
  0
TEXT
  5
1000157
330
1000104
100
AcDbEntity
  8
bud_z_ociepleniem
370
    15
100
AcDbText
 39
0.15
 10
-0.359182493340554
 20
7.335981979096187
 30
0.0
 40
0.75
  1
-10.700-
 50
-337.0
 41
0.6600000000000001
 72
     1
 11
1.365821368992328
 21
7.796612582169473
 31
0.0
100
AcDbText
 73
     1
  0
TEXT
  5
1000158
330
1000104
100
AcDbEntity
  8
bud_z_ociepleniem
370
    15
100
AcDbText
 39
0.15
 10
-3.089296400871534
 20
3.847057733720599
 30
0.0
 40
0.75
  1
-6.700-
 50
-65.0
 41
0.6600000000000001
 72
     1
 11
-2.648438364267349
 21
2.310084227472543
 31
0.0
100
AcDbText
 73
     1
  0
TEXT
  5
1000159
330
1000104
100
AcDbEntity
  8
osie_dobrze
370
    18
100
AcDbText
 39
0.18
 10
-6.271861418150365
 20
3.725738792866468
 30
0.0
 40
0.9
  1
A
 41
0.6600000000000001
 11
-6.271861418150365
 21
3.425738792866468
 31
0.0
100
AcDbText
 73
     1
  0
TEXT
  5
100015A
330
1000104
100
AcDbEntity
  8
osie_dobrze
370
    18
100
AcDbText
 39
0.18
 10
-3.721861418336629
 20
-1.954261208698153
 30
0.0
 40
0.9
  1
B
 41
0.6600000000000001
 11
-3.721861418336629
 21
-2.254261208698153
 31
0.0
100
AcDbText
 73
     1
  0
TEXT
  5
100015B
330
1000104
100
AcDbEntity
  8
osie_dobrze
370
    18
100
AcDbText
 39
0.18
 10
12.68813858181238
 20
5.335738791339099
 30
0.0
 40
0.9
  1
B
 41
0.6600000000000001
 11
12.68813858181238
 21
5.035738791339099
 31
0.0
100
AcDbText
 73
     1
  0
TEXT
  5
100015C
330
1000104
100
AcDbEntity
  8
osie_dobrze
370
    18
100
AcDbText
 39
0.18
 10
10.14813858177513
 20
11.13573879115283
 30
0.0
 40
0.9
  1
A
 41
0.6600000000000001
 11
10.14813858177513
 21
10.83573879115283
 31
0.0
100
AcDbText
 73
     1
  0
TEXT
  5
100015D
330
1000104
100
AcDbEntity
  8
osie_dobrze
370
    18
100
AcDbText
 39
0.18
 10
-4.921861418522894
 20
9.405738791637123
 30
0.0
 40
0.9
  1
1
 41
0.6600000000000001
 11
-4.921861418522894
 21
9.105738791637122
 31
0.0
100
AcDbText
 73
     1
  0
TEXT
  5
100015E
330
1000104
100
AcDbEntity
  8
osie_dobrze
370
    18
100
AcDbText
 39
0.18
 10
1.508138581179082
 20
-4.054261207394302
 30
0.0
 40
0.9
  1
1
 41
0.6600000000000001
 11
1.508138581179082
 21
-4.354261207394301
 31
0.0
100
AcDbText
 73
     1
  0
TEXT
  5
100015F
330
1000104
100
AcDbEntity
  8
osie_dobrze
370
    18
100
AcDbText
 39
0.18
 10
10.55813858192414
 20
0.2557387912645936
 30
0.0
 40
0.9
  1
2
 41
0.6600000000000001
 11
10.55813858192414
 21
-0.0442612087354064
 31
0.0
100
AcDbText
 73
     1
  0
TEXT
  5
1000160
330
1000104
100
AcDbEntity
  8
osie_dobrze
370
    18
100
AcDbText
 39
0.18
 10
4.568138581700623
 20
13.63573879115283
 30
0.0
 40
0.9
  1
2
 41
0.6600000000000001
 11
4.568138581700623
 21
13.33573879115283
 31
0.0
100
AcDbText
 73
     1
  0
TEXT
  5
1000161
330
1000104
100
AcDbEntity
  8
PRZEKATNE
370
    15
100
AcDbText
 39
0.15
 10
2.245122465232021
 20
3.593688360437168
 30
0.0
 40
0.75
  1
-12.005-
 50
-304.0
 41
0.6600000000000001
 72
     1
 11
3.440955027006566
 21
4.919510128907859
 31
0.0
100
AcDbText
 73
     1
  0
TEXT
  5
1000162
330
1000104
100
AcDbEntity
  8
PRZEKATNE
370
    15
100
AcDbText
 39
0.15
 10
3.415569207358299
 20
4.975988288649831
 30
0.0
 40
0.75
  1
-12.006-
 50
-7.0
 41
0.6600000000000001
 72
     1
 11
5.139781675301492
 21
4.512404161505401
 31
0.0
100
AcDbText
 73
     1
  0
ENDBLK
  5
1000164
330
1000104
100
AcDbEntity
  8
0
100
AcDbBlockEnd
  0
BLOCK
  5
100016B
330
100016A
100
AcDbEntity
  8
0
100
AcDbBlockBegin
  2
*D2
 70
     1
 10
0.0
 20
0.0
 30
0.0
  3
*D2
  1

  0
LINE
  5
1000179
330
100016A
100
AcDbEntity
  8
0
  6
Continuous
 62
     0
440
 16777216
370
    -2
100
AcDbLine
 10
7565491.845242059
 20
5722375.769775084
 30
0.0
 11
7565491.780252073
 21
5722375.911867886
 31
0.0
  0
LINE
  5
100017A
330
100016A
100
AcDbEntity
  8
0
  6
Continuous
 62
     0
440
 16777216
370
    -2
100
AcDbLine
 10
7565491.73620414
 20
5722375.719903644
 30
0.0
 11
7565491.671214154
 21
5722375.861996447
 31
0.0
  0
LINE
  5
100017B
330
100016A
100
AcDbEntity
  8
0
  6
Continuous
 62
     0
440
 16777216
370
    -2
100
AcDbLine
 10
7565492.478603249
 20
5722375.887642223
 30
0.0
 11
7565493.046974458
 21
5722376.147602163
 31
0.0
  0
LINE
  5
100017C
330
100016A
100
AcDbEntity
  8
0
  6
Continuous
 62
     0
440
 16777216
370
    -2
100
AcDbLine
 10
7565491.232822918
 20
5722375.317850903
 30
0.0
 11
7565490.66445171
 21
5722375.057890964
 31
0.0
  0
LINE
  5
100017D
330
100016A
100
AcDbEntity
  8
0
  6
Continuous
 62
     0
440
 16777216
370
    -2
100
AcDbLine
 10
7565490.66445171
 20
5722375.057890964
 30
0.0
 11
7565490.039451709
 21
5722375.057890963
 31
0.0
  0
SOLID
  5
100017E
330
100016A
100
AcDbEntity
  8
0
  6
Continuous
 62
     0
440
 16777216
100
AcDbTrace
 10
7565492.435276592
 20
5722375.982370757
 30
0.0
 11
7565492.521929906
 21
5722375.792913688
 31
0.0
 12
7565491.910232043
 22
5722375.627682282
 32
0.0
 13
7565491.910232043
 23
5722375.627682282
 33
0.0
  0
SOLID
  5
100017F
330
100016A
100
AcDbEntity
  8
0
  6
Continuous
 62
     0
440
 16777216
100
AcDbTrace
 10
7565491.189496261
 20
5722375.412579437
 30
0.0
 11
7565491.276149574
 21
5722375.223122369
 31
0.0
 12
7565491.801194124
 22
5722375.577810843
 32
0.0
 13
7565491.801194124
 23
5722375.577810843
 33
0.0
  0
MTEXT
  5
1000180
330
100016A
100
AcDbEntity
  8
0
  6
Continuous
 62
     0
440
 16777216
100
AcDbMText
 10
7565488.469511233
 20
5722375.057890963
 30
0.0
 40
0.625
 41
0.0
 71
     5
 72
     1
  1
\A1;0.1199
 73
     1
 44
1.0
  0
POINT
  5
1000181
330
100016A
100
AcDbEntity
  8
Defpoints
  6
Continuous
 62
     0
440
 16777216
100
AcDbPoint
 10
7565491.910232043
 20
5722375.627682282
 30
0.0
  0
POINT
  5
1000182
330
100016A
100
AcDbEntity
  8
Defpoints
  6
Continuous
 62
     0
440
 16777216
100
AcDbPoint
 10
7565491.801194124
 20
5722375.577810843
 30
0.0
  0
POINT
  5
1000183
330
100016A
100
AcDbEntity
  8
Defpoints
  6
Continuous
 62
     0
440
 16777216
100
AcDbPoint
 10
7565491.801194124
 20
5722375.577810843
 30
0.0
  0
ENDBLK
  5
100016C
330
100016A
100
AcDbEntity
  8
0
100
AcDbBlockEnd
  0
BLOCK
  5
1000187
330
1000186
100
AcDbEntity
  8
0
100
AcDbBlockBegin
  2
*D3
 70
     1
 10
0.0
 20
0.0
 30
0.0
  3
*D3
  1

  0
LINE
  5
1000195
330
1000186
100
AcDbEntity
  8
0
  6
Continuous
 62
     0
440
 16777216
370
    -2
100
AcDbLine
 10
7565491.735167637
 20
5722375.72230721
 30
0.0
 11
7565490.938524392
 21
5722377.464072009
 31
0.0
  0
LINE
  5
1000196
330
1000186
100
AcDbEntity
  8
0
  6
Continuous
 62
     0
440
 16777216
370
    -2
100
AcDbLine
 10
7565491.644176281
 20
5722375.680689853
 30
0.0
 11
7565490.847533036
 21
5722377.422454651
 31
0.0
  0
LINE
  5
1000197
330
1000186
100
AcDbEntity
  8
0
  6
Continuous
 62
     0
440
 16777216
370
    -2
100
AcDbLine
 10
7565491.63687557
 20
5722377.439846351
 30
0.0
 11
7565492.205246775
 21
5722377.699806295
 31
0.0
  0
LINE
  5
1000198
330
1000186
100
AcDbEntity
  8
0
  6
Continuous
 62
     0
440
 16777216
370
    -2
100
AcDbLine
 10
7565490.409141804
 20
5722376.878309104
 30
0.0
 11
7565489.840770598
 21
5722376.618349159
 31
0.0
  0
LINE
  5
1000199
330
1000186
100
AcDbEntity
  8
0
  6
Continuous
 62
     0
440
 16777216
370
    -2
100
AcDbLine
 10
7565489.840770598
 20
5722376.618349159
 30
0.0
 11
7565489.215770599
 21
5722376.618349159
 31
0.0
  0
SOLID
  5
100019A
330
1000186
100
AcDbEntity
  8
0
  6
Continuous
 62
     0
440
 16777216
100
AcDbTrace
 10
7565491.593548913
 20
5722377.534574885
 30
0.0
 11
7565491.680202228
 21
5722377.345117816
 31
0.0
 12
7565491.068504364
 22
5722377.179886406
 32
0.0
 13
7565491.068504364
 23
5722377.179886406
 33
0.0
  0
SOLID
  5
100019B
330
1000186
100
AcDbEntity
  8
0
  6
Continuous
 62
     0
440
 16777216
100
AcDbTrace
 10
7565490.365815147
 20
5722376.973037637
 30
0.0
 11
7565490.452468461
 21
5722376.783580569
 31
0.0
 12
7565490.977513008
 22
5722377.138269048
 32
0.0
 13
7565490.977513008
 23
5722377.138269048
 33
0.0
  0
MTEXT
  5
100019C
330
1000186
100
AcDbEntity
  8
0
  6
Continuous
 62
     0
440
 16777216
100
AcDbMText
 10
7565487.705353931
 20
5722376.618349159
 30
0.0
 40
0.625
 41
0.0
 71
     5
 72
     1
  1
\A1;0.1001
 73
     1
 44
1.0
  0
POINT
  5
100019D
330
1000186
100
AcDbEntity
  8
Defpoints
  6
Continuous
 62
     0
440
 16777216
100
AcDbPoint
 10
7565491.800157623
 20
5722375.580214408
 30
0.0
  0
POINT
  5
100019E
330
1000186
100
AcDbEntity
  8
Defpoints
  6
Continuous
 62
     0
440
 16777216
100
AcDbPoint
 10
7565491.709166267
 20
5722375.538597051
 30
0.0
  0
POINT
  5
100019F
330
1000186
100
AcDbEntity
  8
Defpoints
  6
Continuous
 62
     0
440
 16777216
100
AcDbPoint
 10
7565490.977513008
 20
5722377.138269048
 30
0.0
  0
ENDBLK
  5
1000188
330
1000186
100
AcDbEntity
  8
0
100
AcDbBlockEnd
  0
BLOCK
  5
10001A3
330
10001A2
100
AcDbEntity
  8
0
100
AcDbBlockBegin
  2
*D4
 70
     1
 10
0.0
 20
0.0
 30
0.0
  3
*D4
  1

  0
LINE
  5
10001B0
330
10001A2
100
AcDbEntity
  8
0
  6
Continuous
 62
     0
440
 16777216
370
    -2
100
AcDbLine
 10
7565501.473564531
 20
5722379.921840193
 30
0.0
 11
7565501.388182715
 21
5722380.108702386
 31
0.0
  0
LINE
  5
10001B1
330
10001A2
100
AcDbEntity
  8
0
  6
Continuous
 62
     0
440
 16777216
370
    -2
100
AcDbLine
 10
7565505.106578844
 20
5722381.581851565
 30
0.0
 11
7565505.021197027
 21
5722381.768713757
 31
0.0
  0
LINE
  5
10001B2
330
10001A2
100
AcDbEntity
  8
0
  6
Continuous
 62
     0
440
 16777216
370
    -2
100
AcDbLine
 10
7565502.086524763
 20
5722380.084215022
 30
0.0
 11
7565502.308681532
 21
5722380.185723778
 31
0.0
  0
LINE
  5
10001B3
330
10001A2
100
AcDbEntity
  8
0
  6
Continuous
 62
     0
440
 16777216
370
    -2
100
AcDbLine
 10
7565504.582601906
 20
5722381.224732534
 30
0.0
 11
7565504.360445139
 21
5722381.123223779
 31
0.0
  0
SOLID
  5
10001B4
330
10001A2
100
AcDbEntity
  8
0
  6
Continuous
 62
     0
440
 16777216
100
AcDbTrace
 10
7565502.043233609
 20
5722380.178959787
 30
0.0
 11
7565502.129815919
 21
5722379.989470258
 31
0.0
 12
7565501.518056179
 22
5722379.824468093
 32
0.0
 13
7565501.518056179
 23
5722379.824468093
 33
0.0
  0
SOLID
  5
10001B5
330
10001A2
100
AcDbEntity
  8
0
  6
Continuous
 62
     0
440
 16777216
100
AcDbTrace
 10
7565504.539310751
 20
5722381.319477298
 30
0.0
 11
7565504.625893061
 21
5722381.129987769
 31
0.0
 12
7565505.151070491
 22
5722381.484479464
 32
0.0
 13
7565505.151070491
 23
5722381.484479464
 33
0.0
  0
MTEXT
  5
10001B6
330
10001A2
100
AcDbEntity
  8
0
  6
Continuous
 62
     0
440
 16777216
100
AcDbMText
 10
7565503.334563336
 20
5722380.654473779
 30
0.0
 40
0.625
 41
0.0
 71
     5
 72
     1
  1
\A1;3.9943
 73
     1
 44
1.0
  0
POINT
  5
10001B7
330
10001A2
100
AcDbEntity
  8
Defpoints
  6
Continuous
 62
     0
440
 16777216
100
AcDbPoint
 10
7565501.538501264
 20
5722379.779723048
 30
0.0
  0
POINT
  5
10001B8
330
10001A2
100
AcDbEntity
  8
Defpoints
  6
Continuous
 62
     0
440
 16777216
100
AcDbPoint
 10
7565505.171515576
 20
5722381.439734419
 30
0.0
  0
POINT
  5
10001B9
330
10001A2
100
AcDbEntity
  8
Defpoints
  6
Continuous
 62
     0
440
 16777216
100
AcDbPoint
 10
7565505.151070491
 20
5722381.484479464
 30
0.0
  0
ENDBLK
  5
10001A4
330
10001A2
100
AcDbEntity
  8
0
100
AcDbBlockEnd
  0
BLOCK
  5
10001BD
330
10001BC
100
AcDbEntity
  8
0
100
AcDbBlockBegin
  2
*D5
 70
     1
 10
0.0
 20
0.0
 30
0.0
  3
*D5
  1

  0
LINE
  5
10001CA
330
10001BC
100
AcDbEntity
  8
0
  6
Continuous
 62
     0
440
 16777216
370
    -2
100
AcDbLine
 10
7565498.866719337
 20
5722385.612050673
 30
0.0
 11
7565498.723719275
 21
5722385.925013147
 31
0.0
  0
LINE
  5
10001CB
330
10001BC
100
AcDbEntity
  8
0
  6
Continuous
 62
     0
440
 16777216
370
    -2
100
AcDbLine
 10
7565502.50540181
 20
5722387.274651964
 30
0.0
 11
7565502.36240175
 21
5722387.587614438
 31
0.0
  0
LINE
  5
10001CC
330
10001BC
100
AcDbEntity
  8
0
  6
Continuous
 62
     0
440
 16777216
370
    -2
100
AcDbLine
 10
7565499.422061324
 20
5722385.900525785
 30
0.0
 11
7565499.647052174
 21
5722386.003329501
 31
0.0
  0
LINE
  5
10001CD
330
10001BC
100
AcDbEntity
  8
0
  6
Continuous
 62
     0
440
 16777216
370
    -2
100
AcDbLine
 10
7565501.92380663
 20
5722387.043633215
 30
0.0
 11
7565501.698815782
 21
5722386.940829501
 31
0.0
  0
SOLID
  5
10001CE
330
10001BC
100
AcDbEntity
  8
0
  6
Continuous
 62
     0
440
 16777216
100
AcDbTrace
 10
7565499.378770168
 20
5722385.995270549
 30
0.0
 11
7565499.46535248
 21
5722385.80578102
 31
0.0
 12
7565498.853592741
 22
5722385.640778854
 32
0.0
 13
7565498.853592741
 23
5722385.640778854
 33
0.0
  0
SOLID
  5
10001CF
330
10001BC
100
AcDbEntity
  8
0
  6
Continuous
 62
     0
440
 16777216
100
AcDbTrace
 10
7565501.880515475
 20
5722387.138377979
 30
0.0
 11
7565501.967097786
 21
5722386.94888845
 31
0.0
 12
7565502.492275215
 22
5722387.303380146
 32
0.0
 13
7565502.492275215
 23
5722387.303380146
 33
0.0
  0
MTEXT
  5
10001D0
330
10001BC
100
AcDbEntity
  8
0
  6
Continuous
 62
     0
440
 16777216
100
AcDbMText
 10
7565500.672933978
 20
5722386.472079501
 30
0.0
 40
0.625
 41
0.0
 71
     5
 72
     1
  1
\A1;4.0005
 73
     1
 44
1.0
  0
POINT
  5
10001D1
330
10001BC
100
AcDbEntity
  8
Defpoints
  6
Continuous
 62
     0
440
 16777216
100
AcDbPoint
 10
7565498.931656068
 20
5722385.469933526
 30
0.0
  0
POINT
  5
10001D2
330
10001BC
100
AcDbEntity
  8
Defpoints
  6
Continuous
 62
     0
440
 16777216
100
AcDbPoint
 10
7565502.570338543
 20
5722387.132534819
 30
0.0
  0
POINT
  5
10001D3
330
10001BC
100
AcDbEntity
  8
Defpoints
  6
Continuous
 62
     0
440
 16777216
100
AcDbPoint
 10
7565502.492275215
 20
5722387.303380146
 30
0.0
  0
ENDBLK
  5
10001BE
330
10001BC
100
AcDbEntity
  8
0
100
AcDbBlockEnd
  0
BLOCK
  5
100025C
330
100025B
100
AcDbEntity
  8
0
100
AcDbBlockBegin
  2
*D6
 70
     1
 10
0.0
 20
0.0
 30
0.0
  3
*D6
  1

  0
LINE
  5
100028B
330
100025B
100
AcDbEntity
  8
0
  6
Continuous
 62
     0
440
 16777216
370
    -2
100
AcDbLine
 10
7565593.33806464
 20
5722400.6532177
 30
0.0
 11
7565593.17186947
 21
5722400.577090426
 31
0.0
  0
LINE
  5
100028C
330
100025B
100
AcDbEntity
  8
0
  6
Continuous
 62
     0
440
 16777216
370
    -2
100
AcDbLine
 10
7565593.504644222
 20
5722400.289554061
 30
0.0
 11
7565593.338449051
 21
5722400.213426786
 31
0.0
  0
LINE
  5
100028D
330
100025B
100
AcDbEntity
  8
0
  6
Continuous
 62
     0
440
 16777216
370
    -2
100
AcDbLine
 10
7565593.19570109
 20
5722401.275455161
 30
0.0
 11
7565592.935420494
 21
5722401.843679598
 31
0.0
  0
LINE
  5
100028E
330
100025B
100
AcDbEntity
  8
0
  6
Continuous
 62
     0
440
 16777216
370
    -2
100
AcDbLine
 10
7565593.882841866
 20
5722399.775342648
 30
0.0
 11
7565594.143122465
 21
5722399.207118211
 31
0.0
  0
LINE
  5
100028F
330
100025B
100
AcDbEntity
  8
0
  6
Continuous
 62
     0
440
 16777216
370
    -2
100
AcDbLine
 10
7565594.143122465
 20
5722399.207118211
 30
0.0
 11
7565594.768122466
 21
5722399.207118211
 31
0.0
  0
SOLID
  5
1000290
330
100025B
100
AcDbEntity
  8
0
  6
Continuous
 62
     0
440
 16777216
100
AcDbTrace
 10
7565593.290405164
 20
5722401.31883526
 30
0.0
 11
7565593.10099702
 21
5722401.232075061
 31
0.0
 12
7565593.455981688
 22
5722400.707230723
 32
0.0
 13
7565593.455981688
 23
5722400.707230723
 33
0.0
  0
SOLID
  5
1000291
330
100025B
100
AcDbEntity
  8
0
  6
Continuous
 62
     0
440
 16777216
100
AcDbTrace
 10
7565593.977545939
 20
5722399.818722747
 30
0.0
 11
7565593.788137796
 21
5722399.731962549
 31
0.0
 12
7565593.622561269
 22
5722400.343567085
 32
0.0
 13
7565593.622561269
 23
5722400.343567085
 33
0.0
  0
MTEXT
  5
1000292
330
100025B
100
AcDbEntity
  8
0
  6
Continuous
 62
     0
440
 16777216
100
AcDbMText
 10
7565596.471991511
 20
5722399.207118211
 30
0.0
 40
0.625
 41
0.0
 71
     5
 72
     1
  1
\A1;0.4000
 73
     1
 44
1.0
  0
POINT
  5
1000293
330
100025B
100
AcDbEntity
  8
Defpoints
  6
Continuous
 62
     0
440
 16777216
100
AcDbPoint
 10
7565593.48012075
 20
5722400.71828785
 30
0.0
  0
POINT
  5
1000294
330
100025B
100
AcDbEntity
  8
Defpoints
  6
Continuous
 62
     0
440
 16777216
100
AcDbPoint
 10
7565593.646700331
 20
5722400.35462421
 30
0.0
  0
POINT
  5
1000295
330
100025B
100
AcDbEntity
  8
Defpoints
  6
Continuous
 62
     0
440
 16777216
100
AcDbPoint
 10
7565593.622561269
 20
5722400.343567085
 30
0.0
  0
ENDBLK
  5
100025D
330
100025B
100
AcDbEntity
  8
0
100
AcDbBlockEnd
  0
BLOCK
  5
1000298
330
1000297
100
AcDbEntity
  8
0
100
AcDbBlockBegin
  2
*D8
 70
     1
 10
0.0
 20
0.0
 30
0.0
  3
*D8
  1

  0
LINE
  5
10002A6
330
1000297
100
AcDbEntity
  8
0
  6
Continuous
 62
     0
440
 16777216
370
    -2
100
AcDbLine
 10
7565489.685809893
 20
5722380.779863455
 30
0.0
 11
7565489.840584193
 21
5722380.441484752
 31
0.0
  0
LINE
  5
10002A7
330
1000297
100
AcDbEntity
  8
0
  6
Continuous
 62
     0
440
 16777216
370
    -2
100
AcDbLine
 10
7565489.576496194
 20
5722380.729863407
 30
0.0
 11
7565489.731270493
 21
5722380.391484704
 31
0.0
  0
LINE
  5
10002A8
330
1000297
100
AcDbEntity
  8
0
  6
Continuous
 62
     0
440
 16777216
370
    -2
100
AcDbLine
 10
7565490.278965256
 20
5722380.985638493
 30
0.0
 11
7565490.847331603
 21
5722381.245609061
 31
0.0
  0
LINE
  5
10002A9
330
1000297
100
AcDbEntity
  8
0
  6
Continuous
 62
     0
440
 16777216
370
    -2
100
AcDbLine
 10
7565489.032918862
 20
5722380.415697309
 30
0.0
 11
7565488.464552515
 21
5722380.155726742
 31
0.0
  0
LINE
  5
10002AA
330
1000297
100
AcDbEntity
  8
0
  6
Continuous
 62
     0
440
 16777216
370
    -2
100
AcDbLine
 10
7565488.464552515
 20
5722380.155726742
 30
0.0
 11
7565487.839552515
 21
5722380.155726742
 31
0.0
  0
SOLID
  5
10002AB
330
1000297
100
AcDbEntity
  8
0
  6
Continuous
 62
     0
440
 16777216
100
AcDbTrace
 10
7565490.235636829
 20
5722381.080366218
 30
0.0
 11
7565490.322293684
 21
5722380.890910769
 31
0.0
 12
7565489.710598909
 22
5722380.725667925
 32
0.0
 13
7565489.710598909
 23
5722380.725667925
 33
0.0
  0
SOLID
  5
10002AC
330
1000297
100
AcDbEntity
  8
0
  6
Continuous
 62
     0
440
 16777216
100
AcDbTrace
 10
7565488.989590435
 20
5722380.510425034
 30
0.0
 11
7565489.07624729
 21
5722380.320969586
 31
0.0
 12
7565489.601285208
 22
5722380.675667877
 32
0.0
 13
7565489.601285208
 23
5722380.675667877
 33
0.0
  0
MTEXT
  5
10002AD
330
1000297
100
AcDbEntity
  8
0
  6
Continuous
 62
     0
440
 16777216
100
AcDbMText
 10
7565486.195207279
 20
5722380.155726742
 30
0.0
 40
0.625
 41
0.0
 71
     5
 72
     1
  1
\A1;0.1202
 73
     1
 44
1.0
  0
POINT
  5
10002AE
330
1000297
100
AcDbEntity
  8
Defpoints
  6
Continuous
 62
     0
440
 16777216
100
AcDbPoint
 10
7565489.620817252
 20
5722380.921955042
 30
0.0
  0
POINT
  5
10002AF
330
1000297
100
AcDbEntity
  8
Defpoints
  6
Continuous
 62
     0
440
 16777216
100
AcDbPoint
 10
7565489.511503551
 20
5722380.871954993
 30
0.0
  0
POINT
  5
10002B0
330
1000297
100
AcDbEntity
  8
Defpoints
  6
Continuous
 62
     0
440
 16777216
100
AcDbPoint
 10
7565489.601285208
 20
5722380.675667877
 30
0.0
  0
ENDBLK
  5
1000299
330
1000297
100
AcDbEntity
  8
0
100
AcDbBlockEnd
  0
BLOCK
  5
10002B4
330
10002B3
100
AcDbEntity
  8
0
100
AcDbBlockBegin
  2
*D9
 70
     1
 10
0.0
 20
0.0
 30
0.0
  3
*D9
  1

  0
LINE
  5
10002C2
330
10002B3
100
AcDbEntity
  8
0
  6
Continuous
 62
     0
440
 16777216
370
    -2
100
AcDbLine
 10
7565489.446513563
 20
5722381.014047792
 30
0.0
 11
7565489.381523576
 21
5722381.156140594
 31
0.0
  0
LINE
  5
10002C3
330
10002B3
100
AcDbEntity
  8
0
  6
Continuous
 62
     0
440
 16777216
370
    -2
100
AcDbLine
 10
7565489.467553632
 20
5722380.680035578
 30
0.0
 11
7565489.53254362
 21
5722380.537942776
 31
0.0
  0
LINE
  5
10002C4
330
10002B3
100
AcDbEntity
  8
0
  6
Continuous
 62
     0
440
 16777216
370
    -2
100
AcDbLine
 10
7565490.079874754
 20
5722381.131914942
 30
0.0
 11
7565490.648245956
 21
5722381.391874892
 31
0.0
  0
LINE
  5
10002C5
330
10002B3
100
AcDbEntity
  8
0
  6
Continuous
 62
     0
440
 16777216
370
    -2
100
AcDbLine
 10
7565488.834192442
 20
5722380.562168429
 30
0.0
 11
7565488.265821237
 21
5722380.302208478
 31
0.0
  0
LINE
  5
10002C6
330
10002B3
100
AcDbEntity
  8
0
  6
Continuous
 62
     0
440
 16777216
370
    -2
100
AcDbLine
 10
7565488.265821237
 20
5722380.302208478
 30
0.0
 11
7565487.640821238
 21
5722380.30220848
 31
0.0
  0
SOLID
  5
10002C7
330
10002B3
100
AcDbEntity
  8
0
  6
Continuous
 62
     0
440
 16777216
100
AcDbTrace
 10
7565490.036548096
 20
5722381.226643475
 30
0.0
 11
7565490.123201413
 21
5722381.037186408
 31
0.0
 12
7565489.511503551
 22
5722380.871954992
 32
0.0
 13
7565489.511503551
 23
5722380.871954992
 33
0.0
  0
SOLID
  5
10002C8
330
10002B3
100
AcDbEntity
  8
0
  6
Continuous
 62
     0
440
 16777216
100
AcDbTrace
 10
7565488.790865783
 20
5722380.656896961
 30
0.0
 11
7565488.8775191
 21
5722380.467439895
 31
0.0
 12
7565489.402563644
 22
5722380.822128378
 32
0.0
 13
7565489.402563644
 23
5722380.822128378
 33
0.0
  0
MTEXT
  5
10002C9
330
10002B3
100
AcDbEntity
  8
0
  6
Continuous
 62
     0
440
 16777216
100
AcDbMText
 10
7565486.055999809
 20
5722380.302208478
 30
0.0
 40
0.625
 41
0.0
 71
     5
 72
     1
  1
\A1;0.1198
 73
     1
 44
1.0
  0
POINT
  5
10002CA
330
10002B3
100
AcDbEntity
  8
Defpoints
  6
Continuous
 62
     0
440
 16777216
100
AcDbPoint
 10
7565489.511503551
 20
5722380.871954992
 30
0.0
  0
POINT
  5
10002CB
330
10002B3
100
AcDbEntity
  8
Defpoints
  6
Continuous
 62
     0
440
 16777216
100
AcDbPoint
 10
7565489.402563644
 20
5722380.822128378
 30
0.0
  0
POINT
  5
10002CC
330
10002B3
100
AcDbEntity
  8
Defpoints
  6
Continuous
 62
     0
440
 16777216
100
AcDbPoint
 10
7565489.402563644
 20
5722380.822128378
 30
0.0
  0
ENDBLK
  5
10002B5
330
10002B3
100
AcDbEntity
  8
0
100
AcDbBlockEnd
  0
BLOCK
  5
10002F3
330
10002DF
100
AcDbEntity
  8
0
100
AcDbBlockBegin
  2
A$C5E6C1AEE
 70
     0
 10
0.0
 20
0.0
 30
0.0
  3
A$C5E6C1AEE
  1

  0
LINE
  5
10002E0
330
10002DF
100
AcDbEntity
  8
osie_dobrze
370
    25
100
AcDbLine
 10
6.716102534905076
 20
9.950858839787542
 30
0.0
 11
9.318877380341291
 21
4.268600211478769
 31
0.0
  0
POLYLINE
  5
10002E1
330
10002DF
100
AcDbEntity
  8
osie_dobrze
370
    25
100
AcDb2dPolyline
 66
     1
 10
0.0
 20
0.0
 30
0.0
 70
   128
  0
VERTEX
  5
10002E2
330
10002E1
100
AcDbEntity
  8
osie_dobrze
100
AcDbVertex
100
AcDb2dVertex
 10
6.716102534905076
 20
9.950858839787542
 30
0.0
  0
VERTEX
  5
10002E3
330
10002E1
100
AcDbEntity
  8
osie_dobrze
100
AcDbVertex
100
AcDb2dVertex
 10
-2.602774841710925
 20
5.68225862737745
 30
0.0
  0
VERTEX
  5
10002E4
330
10002E1
100
AcDbEntity
  8
osie_dobrze
100
AcDbVertex
100
AcDb2dVertex
 10
0.0
 20
0.0
 30
0.0
  0
VERTEX
  5
10002E5
330
10002E1
100
AcDbEntity
  8
osie_dobrze
100
AcDbVertex
100
AcDb2dVertex
 10
9.318877380341291
 20
4.268600211478769
 30
0.0
  0
SEQEND
  5
10002E6
330
10002E1
100
AcDbEntity
  8
osie_dobrze
  0
TEXT
  5
10002E7
330
10002DF
100
AcDbEntity
  8
osie_dobrze
370
    18
100
AcDbText
 39
0.18
 10
-3.935736316256225
 20
4.856454309262335
 30
0.0
 40
0.9
  1
A
 41
0.6600000000000001
 11
-3.935736316256225
 21
4.556454309262335
 31
0.0
100
AcDbText
 73
     1
  0
TEXT
  5
10002E8
330
10002DF
100
AcDbEntity
  8
osie_dobrze
370
    18
100
AcDbText
 39
0.18
 10
-1.501027610152959
 20
-1.172811703570187
 30
0.0
 40
0.9
  1
B
 41
0.6600000000000001
 11
-1.501027610152959
 21
-1.472811703570187
 31
0.0
100
AcDbText
 73
     1
  0
TEXT
  5
10002E9
330
10002DF
100
AcDbEntity
  8
osie_dobrze
370
    18
100
AcDbText
 39
0.18
 10
10.09030213486403
 20
4.662231036648154
 30
0.0
 40
0.9
  1
B
 41
0.6600000000000001
 11
10.09030213486403
 21
4.362231036648154
 31
0.0
100
AcDbText
 73
     1
  0
TEXT
  5
10002EA
330
10002DF
100
AcDbEntity
  8
osie_dobrze
370
    18
100
AcDbText
 39
0.18
 10
7.761450706049799
 20
10.46261418256908
 30
0.0
 40
0.9
  1
A
 41
0.6600000000000001
 11
7.761450706049799
 21
10.16261418256908
 31
0.0
100
AcDbText
 73
     1
  0
TEXT
  5
10002EB
330
10002DF
100
AcDbEntity
  8
osie_dobrze
370
    18
100
AcDbText
 39
0.18
 10
-3.194737852551043
 20
6.760433091036975
 30
0.0
 40
0.9
  1
1
 41
0.6600000000000001
 11
-3.194737852551043
 21
6.460433091036975
 31
0.0
100
AcDbText
 73
     1
  0
TEXT
  5
10002EC
330
10002DF
100
AcDbEntity
  8
osie_dobrze
370
    18
100
AcDbText
 39
0.18
 10
0.6161098834127188
 20
-1.754583190008997
 30
0.0
 40
0.9
  1
1
 41
0.6600000000000001
 11
0.6161098834127188
 21
-2.054583190008997
 31
0.0
100
AcDbText
 73
     1
  0
TEXT
  5
10002ED
330
10002DF
100
AcDbEntity
  8
osie_dobrze
370
    18
100
AcDbText
 39
0.18
 10
9.613946245983242
 20
2.688033966533839
 30
0.0
 40
0.9
  1
2
 41
0.6600000000000001
 11
9.613946245983242
 21
2.388033966533839
 31
0.0
100
AcDbText
 73
     1
  0
TEXT
  5
10002EE
330
10002DF
100
AcDbEntity
  8
osie_dobrze
370
    18
100
AcDbText
 39
0.18
 10
5.803097889758646
 20
11.04438541289419
 30
0.0
 40
0.9
  1
2
 41
0.6600000000000001
 11
5.803097889758646
 21
10.74438541289419
 31
0.0
100
AcDbText
 73
     1
  0
LWPOLYLINE
  5
10002EF
330
10002DF
100
AcDbEntity
  8
0
  6
Continuous
100
AcDbPolyline
 90
        4
 70
     1
 43
0.0
 10
-2.761847484856843
 20
5.741384715773165
 10
6.7752519948408
 20
10.10988045856356
 10
9.477949749678373
 20
4.209474720992147
 10
-0.0591258155182004
 20
-0.1590732401236892
  0
LWPOLYLINE
  5
10002F0
330
10002DF
100
AcDbEntity
  8
0
  6
Continuous
100
AcDbPolyline
 90
        4
 70
     1
 43
0.0
 10
-2.443702198565006
 20
5.623132538981735
 10
6.656999818049371
 20
9.791735172271728
 10
9.159805011004209
 20
4.327725701965391
 10
0.0591258155182004
 20
0.1590732401236892
  0
ENDBLK
  5
10002F4
330
10002DF
100
AcDbEntity
  8
0
100
AcDbBlockEnd
  0
BLOCK
  5
100030F
330
100030E
100
AcDbEntity
  8
0
100
AcDbBlockBegin
  2
*D11
 70
     1
 10
0.0
 20
0.0
 30
0.0
  3
*D11
  1

  0
LINE
  5
100031C
330
100030E
100
AcDbEntity
  8
Stare_opracowanie
  6
Continuous
 62
     0
440
 16777216
370
    -2
100
AcDbLine
 10
7565492.02309884
 20
5722375.38113122
 30
0.0
 11
7565492.831684331
 21
5722373.615889999
 31
0.0
  0
LINE
  5
100031D
330
100030E
100
AcDbEntity
  8
Stare_opracowanie
  6
Continuous
 62
     0
440
 16777216
370
    -2
100
AcDbLine
 10
7565501.341975646
 20
5722379.649731168
 30
0.0
 11
7565502.150561137
 21
5722377.884489949
 31
0.0
  0
LINE
  5
100031E
330
100030E
100
AcDbEntity
  8
Stare_opracowanie
  6
Continuous
 62
     0
440
 16777216
370
    -2
100
AcDbLine
 10
7565493.269768471
 20
5722374.160282814
 30
0.0
 11
7565496.33764374
 21
5722375.565552193
 31
0.0
  0
LINE
  5
100031F
330
100030E
100
AcDbEntity
  8
Stare_opracowanie
  6
Continuous
 62
     0
440
 16777216
370
    -2
100
AcDbLine
 10
7565501.452196403
 20
5722377.908321573
 30
0.0
 11
7565498.384321131
 21
5722376.503052193
 31
0.0
  0
SOLID
  5
1000320
330
100030E
100
AcDbEntity
  8
Stare_opracowanie
  6
Continuous
 62
     0
440
 16777216
100
AcDbTrace
 10
7565493.226388372
 20
5722374.254986887
 30
0.0
 11
7565493.313148571
 21
5722374.065578742
 31
0.0
 12
7565492.701544034
 22
5722373.900002219
 32
0.0
 13
7565492.701544034
 23
5722373.900002219
 33
0.0
  0
SOLID
  5
1000321
330
100030E
100
AcDbEntity
  8
Stare_opracowanie
  6
Continuous
 62
     0
440
 16777216
100
AcDbTrace
 10
7565501.408816303
 20
5722378.003025645
 30
0.0
 11
7565501.495576502
 21
5722377.813617499
 31
0.0
 12
7565502.02042084
 22
5722378.168602167
 32
0.0
 13
7565502.02042084
 23
5722378.168602167
 33
0.0
  0
MTEXT
  5
1000322
330
100030E
100
AcDbEntity
  8
Stare_opracowanie
  6
Continuous
 62
     0
440
 16777216
100
AcDbMText
 10
7565497.360982436
 20
5722376.034302194
 30
0.0
 40
0.625
 41
0.0
 71
     5
 72
     1
  1
\A1;10.2500
 73
     1
 44
1.0
  0
POINT
  5
1000323
330
100030E
100
AcDbEntity
  8
Defpoints
  6
Continuous
 62
     0
440
 16777216
100
AcDbPoint
 10
7565491.958028691
 20
5722375.523187329
 30
0.0
  0
POINT
  5
1000324
330
100030E
100
AcDbEntity
  8
Defpoints
  6
Continuous
 62
     0
440
 16777216
100
AcDbPoint
 10
7565501.276905497
 20
5722379.791787278
 30
0.0
  0
POINT
  5
1000325
330
100030E
100
AcDbEntity
  8
Defpoints
  6
Continuous
 62
     0
440
 16777216
100
AcDbPoint
 10
7565502.02042084
 20
5722378.168602167
 30
0.0
  0
ENDBLK
  5
1000310
330
100030E
100
AcDbEntity
  8
0
100
AcDbBlockEnd
  0
BLOCK
  5
1000329
330
1000328
100
AcDbEntity
  8
0
100
AcDbBlockBegin
  2
*D12
 70
     1
 10
0.0
 20
0.0
 30
0.0
  3
*D12
  1

  0
LINE
  5
1000403
330
1000328
100
AcDbEntity
  8
PRZEKATNE
  6
Continuous
 62
     0
440
 16777216
370
    -2
100
AcDbLine
 10
7565492.023098174
 20
5722375.381131144
 30
0.0
 11
7565493.211711675
 21
5722372.786242069
 31
0.0
  0
LINE
  5
1000404
330
1000328
100
AcDbEntity
  8
PRZEKATNE
  6
Continuous
 62
     0
440
 16777216
370
    -2
100
AcDbLine
 10
7565501.341975642
 20
5722379.649731167
 30
0.0
 11
7565502.530589143
 21
5722377.05484209
 31
0.0
  0
LINE
  5
1000405
330
1000328
100
AcDbEntity
  8
PRZEKATNE
  6
Continuous
 62
     0
440
 16777216
370
    -2
100
AcDbLine
 10
7565493.649795826
 20
5722373.330634874
 30
0.0
 11
7565496.717671369
 21
5722374.735904302
 31
0.0
  0
LINE
  5
1000406
330
1000328
100
AcDbEntity
  8
PRZEKATNE
  6
Continuous
 62
     0
440
 16777216
370
    -2
100
AcDbLine
 10
7565501.832224407
 20
5722377.078673728
 30
0.0
 11
7565498.76434887
 21
5722375.673404302
 31
0.0
  0
SOLID
  5
1000407
330
1000328
100
AcDbEntity
  8
PRZEKATNE
  6
Continuous
 62
     0
440
 16777216
100
AcDbTrace
 10
7565493.606415729
 20
5722373.425338949
 30
0.0
 11
7565493.693175923
 21
5722373.235930801
 31
0.0
 12
7565493.081571382
 22
5722373.07035429
 32
0.0
 13
7565493.081571382
 23
5722373.07035429
 33
0.0
  0
SOLID
  5
1000408
330
1000328
100
AcDbEntity
  8
PRZEKATNE
  6
Continuous
 62
     0
440
 16777216
100
AcDbTrace
 10
7565501.78884431
 20
5722377.173377802
 30
0.0
 11
7565501.875604504
 21
5722376.983969654
 31
0.0
 12
7565502.40044885
 22
5722377.338954312
 32
0.0
 13
7565502.40044885
 23
5722377.338954312
 33
0.0
  0
MTEXT
  5
1000409
330
1000328
100
AcDbEntity
  8
PRZEKATNE
  6
Continuous
 62
     0
440
 16777216
100
AcDbMText
 10
7565497.741010117
 20
5722375.204654301
 30
0.0
 40
0.625
 41
0.0
 71
     5
 72
     1
  1
\A1;10.2500
 73
     1
 44
1.0
  0
POINT
  5
100040A
330
1000328
100
AcDbEntity
  8
Defpoints
  6
Continuous
 62
     0
440
 16777216
100
AcDbPoint
 10
7565491.958028029
 20
5722375.523187256
 30
0.0
  0
POINT
  5
100040B
330
1000328
100
AcDbEntity
  8
Defpoints
  6
Continuous
 62
     0
440
 16777216
100
AcDbPoint
 10
7565501.276905497
 20
5722379.791787277
 30
0.0
  0
POINT
  5
100040C
330
1000328
100
AcDbEntity
  8
Defpoints
  6
Continuous
 62
     0
440
 16777216
100
AcDbPoint
 10
7565502.40044885
 20
5722377.338954312
 30
0.0
  0
ENDBLK
  5
100032A
330
1000328
100
AcDbEntity
  8
0
100
AcDbBlockEnd
  0
BLOCK
  5
1000343
330
1000342
100
AcDbEntity
  8
0
100
AcDbBlockBegin
  2
*D13
 70
     1
 10
0.0
 20
0.0
 30
0.0
  3
*D13
  1

  0
LINE
  5
10003EF
330
1000342
100
AcDbEntity
  8
PRZEKATNE
  6
Continuous
 62
     0
440
 16777216
370
    -2
100
AcDbLine
 10
7565489.290183127
 20
5722381.347501803
 30
0.0
 11
7565488.154846923
 21
5722383.826079871
 31
0.0
  0
LINE
  5
10003F0
330
1000342
100
AcDbEntity
  8
PRZEKATNE
  6
Continuous
 62
     0
440
 16777216
370
    -2
100
AcDbLine
 10
7565498.609060502
 20
5722385.616102015
 30
0.0
 11
7565497.473724298
 21
5722388.094680082
 31
0.0
  0
LINE
  5
10003F1
330
1000342
100
AcDbEntity
  8
PRZEKATNE
  6
Continuous
 62
     0
440
 16777216
370
    -2
100
AcDbLine
 10
7565488.853211659
 20
5722383.802248248
 30
0.0
 11
7565491.921087214
 21
5722385.207517758
 31
0.0
  0
LINE
  5
10003F2
330
1000342
100
AcDbEntity
  8
PRZEKATNE
  6
Continuous
 62
     0
440
 16777216
370
    -2
100
AcDbLine
 10
7565497.035640158
 20
5722387.550287268
 30
0.0
 11
7565493.967764604
 21
5722386.145017757
 31
0.0
  0
SOLID
  5
10003F3
330
1000342
100
AcDbEntity
  8
PRZEKATNE
  6
Continuous
 62
     0
440
 16777216
100
AcDbTrace
 10
7565488.80983156
 20
5722383.896952321
 30
0.0
 11
7565488.896591759
 21
5722383.707544175
 31
0.0
 12
7565488.284987221
 22
5722383.541967652
 32
0.0
 13
7565488.284987221
 23
5722383.541967652
 33
0.0
  0
SOLID
  5
10003F4
330
1000342
100
AcDbEntity
  8
PRZEKATNE
  6
Continuous
 62
     0
440
 16777216
100
AcDbTrace
 10
7565496.992260059
 20
5722387.644991341
 30
0.0
 11
7565497.079020258
 21
5722387.455583195
 31
0.0
 12
7565497.603864596
 22
5722387.810567864
 32
0.0
 13
7565497.603864596
 23
5722387.810567864
 33
0.0
  0
MTEXT
  5
10003F5
330
1000342
100
AcDbEntity
  8
PRZEKATNE
  6
Continuous
 62
     0
440
 16777216
100
AcDbMText
 10
7565492.944425908
 20
5722385.676267759
 30
0.0
 40
0.625
 41
0.0
 71
     5
 72
     1
  1
\A1;10.2500
 73
     1
 44
1.0
  0
POINT
  5
10003F6
330
1000342
100
AcDbEntity
  8
Defpoints
  6
Continuous
 62
     0
440
 16777216
100
AcDbPoint
 10
7565489.355253276
 20
5722381.205445694
 30
0.0
  0
POINT
  5
10003F7
330
1000342
100
AcDbEntity
  8
Defpoints
  6
Continuous
 62
     0
440
 16777216
100
AcDbPoint
 10
7565498.674130651
 20
5722385.474045906
 30
0.0
  0
POINT
  5
10003F8
330
1000342
100
AcDbEntity
  8
Defpoints
  6
Continuous
 62
     0
440
 16777216
100
AcDbPoint
 10
7565497.603864596
 20
5722387.810567864
 30
0.0
  0
ENDBLK
  5
1000344
330
1000342
100
AcDbEntity
  8
0
100
AcDbBlockEnd
  0
BLOCK
  5
100035D
330
100035C
100
AcDbEntity
  8
0
100
AcDbBlockBegin
  2
*D14
 70
     1
 10
0.0
 20
0.0
 30
0.0
  3
*D14
  1

  0
LINE
  5
10003F9
330
100035C
100
AcDbEntity
  8
PRZEKATNE
  6
Continuous
 62
     0
440
 16777216
370
    -2
100
AcDbLine
 10
7565489.213196809
 20
5722381.140376322
 30
0.0
 11
7565486.389054968
 21
5722379.846770061
 31
0.0
  0
LINE
  5
10003FA
330
100035C
100
AcDbEntity
  8
PRZEKATNE
  6
Continuous
 62
     0
440
 16777216
370
    -2
100
AcDbLine
 10
7565491.815971649
 20
5722375.458117693
 30
0.0
 11
7565488.99182981
 21
5722374.164511434
 31
0.0
  0
LINE
  5
10003FB
330
100035C
100
AcDbEntity
  8
PRZEKATNE
  6
Continuous
 62
     0
440
 16777216
370
    -2
100
AcDbLine
 10
7565486.933445384
 20
5722379.40868294
 30
0.0
 11
7565487.759843039
 21
5722377.604529491
 31
0.0
  0
LINE
  5
10003FC
330
100035C
100
AcDbEntity
  8
PRZEKATNE
  6
Continuous
 62
     0
440
 16777216
370
    -2
100
AcDbLine
 10
7565489.015665256
 20
5722374.862876039
 30
0.0
 11
7565488.1892676
 21
5722376.667029491
 31
0.0
  0
SOLID
  5
10003FD
330
100035C
100
AcDbEntity
  8
PRZEKATNE
  6
Continuous
 62
     0
440
 16777216
100
AcDbTrace
 10
7565487.028149692
 20
5722379.45206252
 30
0.0
 11
7565486.838741073
 21
5722379.36530336
 31
0.0
 12
7565486.673167899
 22
5722379.976908804
 32
0.0
 13
7565486.673167899
 23
5722379.976908804
 33
0.0
  0
SOLID
  5
10003FE
330
100035C
100
AcDbEntity
  8
PRZEKATNE
  6
Continuous
 62
     0
440
 16777216
100
AcDbTrace
 10
7565489.110369565
 20
5722374.90625562
 30
0.0
 11
7565488.920960945
 21
5722374.819496458
 31
0.0
 12
7565489.27594274
 22
5722374.294650177
 32
0.0
 13
7565489.27594274
 23
5722374.294650177
 33
0.0
  0
MTEXT
  5
10003FF
330
100035C
100
AcDbEntity
  8
PRZEKATNE
  6
Continuous
 62
     0
440
 16777216
100
AcDbMText
 10
7565487.974555321
 20
5722377.135779489
 30
0.0
 40
0.625
 41
0.0
 71
     5
 72
     1
  1
\A1;6.2500
 73
     1
 44
1.0
  0
POINT
  5
1000400
330
100035C
100
AcDbEntity
  8
Defpoints
  6
Continuous
 62
     0
440
 16777216
100
AcDbPoint
 10
7565489.355253275
 20
5722381.205445693
 30
0.0
  0
POINT
  5
1000401
330
100035C
100
AcDbEntity
  8
Defpoints
  6
Continuous
 62
     0
440
 16777216
100
AcDbPoint
 10
7565491.958028115
 20
5722375.523187065
 30
0.0
  0
POINT
  5
1000402
330
100035C
100
AcDbEntity
  8
Defpoints
  6
Continuous
 62
     0
440
 16777216
100
AcDbPoint
 10
7565489.27594274
 20
5722374.294650177
 30
0.0
  0
ENDBLK
  5
100035E
330
100035C
100
AcDbEntity
  8
0
100
AcDbBlockEnd
  0
BLOCK
  5
1000377
330
1000376
100
AcDbEntity
  8
0
100
AcDbBlockBegin
  2
*D15
 70
     1
 10
0.0
 20
0.0
 30
0.0
  3
*D15
  1

  0
LINE
  5
100040D
330
1000376
100
AcDbEntity
  8
PRZEKATNE
  6
Continuous
 62
     0
440
 16777216
370
    -2
100
AcDbLine
 10
7565498.816187117
 20
5722385.539115277
 30
0.0
 11
7565501.3934898
 21
5722386.719656156
 31
0.0
  0
LINE
  5
100040E
330
1000376
100
AcDbEntity
  8
PRZEKATNE
  6
Continuous
 62
     0
440
 16777216
370
    -2
100
AcDbLine
 10
7565501.418961964
 20
5722379.856856648
 30
0.0
 11
7565503.996264645
 21
5722381.037397528
 31
0.0
  0
LINE
  5
100040F
330
1000376
100
AcDbEntity
  8
PRZEKATNE
  6
Continuous
 62
     0
440
 16777216
370
    -2
100
AcDbLine
 10
7565501.369654355
 20
5722386.02129155
 30
0.0
 11
7565502.196052013
 21
5722384.217138101
 31
0.0
  0
LINE
  5
1000410
330
1000376
100
AcDbEntity
  8
PRZEKATNE
  6
Continuous
 62
     0
440
 16777216
370
    -2
100
AcDbLine
 10
7565503.451874231
 20
5722381.475484647
 30
0.0
 11
7565502.625476573
 21
5722383.2796381
 31
0.0
  0
SOLID
  5
1000411
330
1000376
100
AcDbEntity
  8
PRZEKATNE
  6
Continuous
 62
     0
440
 16777216
100
AcDbTrace
 10
7565501.464358663
 20
5722386.06467113
 30
0.0
 11
7565501.274950044
 21
5722385.977911971
 31
0.0
 12
7565501.10937687
 22
5722386.589517413
 32
0.0
 13
7565501.10937687
 23
5722386.589517413
 33
0.0
  0
SOLID
  5
1000412
330
1000376
100
AcDbEntity
  8
PRZEKATNE
  6
Continuous
 62
     0
440
 16777216
100
AcDbTrace
 10
7565503.546578541
 20
5722381.518864229
 30
0.0
 11
7565503.357169919
 21
5722381.432105067
 31
0.0
 12
7565503.712151715
 22
5722380.907258784
 32
0.0
 13
7565503.712151715
 23
5722380.907258784
 33
0.0
  0
MTEXT
  5
1000413
330
1000376
100
AcDbEntity
  8
PRZEKATNE
  6
Continuous
 62
     0
440
 16777216
100
AcDbMText
 10
7565502.410764293
 20
5722383.748388099
 30
0.0
 40
0.625
 41
0.0
 71
     5
 72
     1
  1
\A1;6.2500
 73
     1
 44
1.0
  0
POINT
  5
1000414
330
1000376
100
AcDbEntity
  8
Defpoints
  6
Continuous
 62
     0
440
 16777216
100
AcDbPoint
 10
7565498.674130652
 20
5722385.474045906
 30
0.0
  0
POINT
  5
1000415
330
1000376
100
AcDbEntity
  8
Defpoints
  6
Continuous
 62
     0
440
 16777216
100
AcDbPoint
 10
7565501.276905497
 20
5722379.791787278
 30
0.0
  0
POINT
  5
1000416
330
1000376
100
AcDbEntity
  8
Defpoints
  6
Continuous
 62
     0
440
 16777216
100
AcDbPoint
 10
7565503.712151715
 20
5722380.907258784
 30
0.0
  0
ENDBLK
  5
1000378
330
1000376
100
AcDbEntity
  8
0
100
AcDbBlockEnd
  0
BLOCK
  5
1000385
330
1000384
100
AcDbEntity
  8
0
100
AcDbBlockBegin
  2
*D16
 70
     1
 10
0.0
 20
0.0
 30
0.0
  3
*D16
  1

  0
LINE
  5
10003E5
330
1000384
100
AcDbEntity
  8
PRZEKATNE
  6
Continuous
 62
     0
440
 16777216
370
    -2
100
AcDbLine
 10
7565498.803642648
 20
5722385.386634776
 30
0.0
 11
7565499.034014595
 21
5722385.231150545
 31
0.0
  0
LINE
  5
10003E6
330
1000384
100
AcDbEntity
  8
PRZEKATNE
  6
Continuous
 62
     0
440
 16777216
370
    -2
100
AcDbLine
 10
7565492.087540111
 20
5722375.435775935
 30
0.0
 11
7565492.317912061
 21
5722375.280291704
 31
0.0
  0
LINE
  5
10003E7
330
1000384
100
AcDbEntity
  8
PRZEKATNE
  6
Continuous
 62
     0
440
 16777216
370
    -2
100
AcDbLine
 10
7565498.425346081
 20
5722384.887924833
 30
0.0
 11
7565495.733311336
 21
5722380.899293389
 31
0.0
  0
LINE
  5
10003E8
330
1000384
100
AcDbEntity
  8
PRZEKATNE
  6
Continuous
 62
     0
440
 16777216
370
    -2
100
AcDbLine
 10
7565492.408532597
 20
5722375.973161943
 30
0.0
 11
7565495.100567345
 21
5722379.961793389
 31
0.0
  0
SOLID
  5
10003E9
330
1000384
100
AcDbEntity
  8
PRZEKATNE
  6
Continuous
 62
     0
440
 16777216
100
AcDbTrace
 10
7565498.339004752
 20
5722384.94619892
 30
0.0
 11
7565498.511687411
 21
5722384.829650744
 31
0.0
 12
7565498.774990608
 22
5722385.405972809
 32
0.0
 13
7565498.774990608
 23
5722385.405972809
 33
0.0
  0
SOLID
  5
10003EA
330
1000384
100
AcDbEntity
  8
PRZEKATNE
  6
Continuous
 62
     0
440
 16777216
100
AcDbTrace
 10
7565492.322191269
 20
5722376.031436032
 30
0.0
 11
7565492.494873928
 21
5722375.914887855
 31
0.0
 12
7565492.058888072
 22
5722375.455113968
 32
0.0
 13
7565492.058888072
 23
5722375.455113968
 33
0.0
  0
MTEXT
  5
10003EB
330
1000384
100
AcDbEntity
  8
PRZEKATNE
  6
Continuous
 62
     0
440
 16777216
100
AcDbMText
 10
7565495.41693934
 20
5722380.430543388
 30
0.0
 40
0.625
 41
0.0
 71
     5
 72
     1
  1
\A1;12.0052
 73
     1
 44
1.0
  0
POINT
  5
10003EC
330
1000384
100
AcDbEntity
  8
Defpoints
  6
Continuous
 62
     0
440
 16777216
100
AcDbPoint
 10
7565498.674130654
 20
5722385.474045908
 30
0.0
  0
POINT
  5
10003ED
330
1000384
100
AcDbEntity
  8
Defpoints
  6
Continuous
 62
     0
440
 16777216
100
AcDbPoint
 10
7565491.958028117
 20
5722375.523187066
 30
0.0
  0
POINT
  5
10003EE
330
1000384
100
AcDbEntity
  8
Defpoints
  6
Continuous
 62
     0
440
 16777216
100
AcDbPoint
 10
7565492.058888072
 20
5722375.455113968
 30
0.0
  0
ENDBLK
  5
1000386
330
1000384
100
AcDbEntity
  8
0
100
AcDbBlockEnd
  0
BLOCK
  5
1000393
330
1000392
100
AcDbEntity
  8
0
100
AcDbBlockBegin
  2
*D17
 70
     1
 10
0.0
 20
0.0
 30
0.0
  3
*D17
  1

  0
LINE
  5
10003DB
330
1000392
100
AcDbEntity
  8
PRZEKATNE
  6
Continuous
 62
     0
440
 16777216
370
    -2
100
AcDbLine
 10
7565489.373652351
 20
5722381.360608628
 30
0.0
 11
7565489.479650405
 21
5722382.254510518
 31
0.0
  0
LINE
  5
10003DC
330
1000392
100
AcDbEntity
  8
PRZEKATNE
  6
Continuous
 62
     0
440
 16777216
370
    -2
100
AcDbLine
 10
7565501.295304573
 20
5722379.946950213
 30
0.0
 11
7565501.401302627
 21
5722380.840852101
 31
0.0
  0
LINE
  5
10003DD
330
1000392
100
AcDbEntity
  8
PRZEKATNE
  6
Continuous
 62
     0
440
 16777216
370
    -2
100
AcDbLine
 10
7565490.063503992
 20
5722381.870588342
 30
0.0
 11
7565493.461714075
 21
5722381.467631755
 31
0.0
  0
LINE
  5
10003DE
330
1000392
100
AcDbEntity
  8
PRZEKATNE
  6
Continuous
 62
     0
440
 16777216
370
    -2
100
AcDbLine
 10
7565500.743852733
 20
5722380.604122536
 30
0.0
 11
7565497.345642649
 21
5722381.007079122
 31
0.0
  0
SOLID
  5
10003DF
330
1000392
100
AcDbEntity
  8
PRZEKATNE
  6
Continuous
 62
     0
440
 16777216
100
AcDbTrace
 10
7565490.075770044
 20
5722381.974030299
 30
0.0
 11
7565490.051237942
 21
5722381.767146385
 31
0.0
 12
7565489.442852252
 22
5722381.944184646
 32
0.0
 13
7565489.442852252
 23
5722381.944184646
 33
0.0
  0
SOLID
  5
10003E0
330
1000392
100
AcDbEntity
  8
PRZEKATNE
  6
Continuous
 62
     0
440
 16777216
100
AcDbTrace
 10
7565500.756118783
 20
5722380.707564493
 30
0.0
 11
7565500.731586682
 21
5722380.500680579
 31
0.0
 12
7565501.364504474
 22
5722380.530526232
 32
0.0
 13
7565501.364504474
 23
5722380.530526232
 33
0.0
  0
MTEXT
  5
10003E1
330
1000392
100
AcDbEntity
  8
PRZEKATNE
  6
Continuous
 62
     0
440
 16777216
100
AcDbMText
 10
7565495.403678363
 20
5722381.237355439
 30
0.0
 40
0.625
 41
0.0
 71
     5
 72
     1
  1
\A1;12.0052
 73
     1
 44
1.0
  0
POINT
  5
10003E2
330
1000392
100
AcDbEntity
  8
Defpoints
  6
Continuous
 62
     0
440
 16777216
100
AcDbPoint
 10
7565489.355253275
 20
5722381.205445693
 30
0.0
  0
POINT
  5
10003E3
330
1000392
100
AcDbEntity
  8
Defpoints
  6
Continuous
 62
     0
440
 16777216
100
AcDbPoint
 10
7565501.276905497
 20
5722379.791787278
 30
0.0
  0
POINT
  5
10003E4
330
1000392
100
AcDbEntity
  8
Defpoints
  6
Continuous
 62
     0
440
 16777216
100
AcDbPoint
 10
7565501.364504474
 20
5722380.530526232
 30
0.0
  0
ENDBLK
  5
1000394
330
1000392
100
AcDbEntity
  8
0
100
AcDbBlockEnd
  0
BLOCK
  5
1000419
330
1000418
100
AcDbEntity
  8
0
100
AcDbBlockBegin
  2
*D18
 70
     1
 10
0.0
 20
0.0
 30
0.0
  3
*D18
  1

  0
LINE
  5
1000427
330
1000418
100
AcDbEntity
  8
osie_dobrze
  6
Continuous
 62
     0
440
 16777216
370
    -2
100
AcDbLine
 10
7565489.216230472
 20
5722381.141858739
 30
0.0
 11
7565487.519032507
 21
5722380.365560986
 31
0.0
  0
LINE
  5
1000428
330
1000418
100
AcDbEntity
  8
osie_dobrze
  6
Continuous
 62
     0
440
 16777216
370
    -2
100
AcDbLine
 10
7565489.161177317
 20
5722381.262219906
 30
0.0
 11
7565487.463979351
 21
5722380.485922153
 31
0.0
  0
LINE
  5
1000429
330
1000418
100
AcDbEntity
  8
osie_dobrze
  6
Continuous
 62
     0
440
 16777216
370
    -2
100
AcDbLine
 10
7565488.063186246
 20
5722379.927179921
 30
0.0
 11
7565488.323156813
 21
5722379.358813574
 31
0.0
  0
LINE
  5
100042A
330
1000418
100
AcDbEntity
  8
osie_dobrze
  6
Continuous
 62
     0
440
 16777216
370
    -2
100
AcDbLine
 10
7565487.488191955
 20
5722381.184273784
 30
0.0
 11
7565487.228221388
 21
5722381.752640131
 31
0.0
  0
LINE
  5
100042B
330
1000418
100
AcDbEntity
  8
osie_dobrze
  6
Continuous
 62
     0
440
 16777216
370
    -2
100
AcDbLine
 10
7565487.228221388
 20
5722381.752640131
 30
0.0
 11
7565486.60322139
 21
5722381.752640131
 31
0.0
  0
SOLID
  5
100042C
330
1000418
100
AcDbEntity
  8
osie_dobrze
  6
Continuous
 62
     0
440
 16777216
100
AcDbTrace
 10
7565488.157913971
 20
5722379.970508349
 30
0.0
 11
7565487.968458524
 21
5722379.883851495
 31
0.0
 12
7565487.803215679
 22
5722380.495546268
 32
0.0
 13
7565487.803215679
 23
5722380.495546268
 33
0.0
  0
SOLID
  5
100042D
330
1000418
100
AcDbEntity
  8
osie_dobrze
  6
Continuous
 62
     0
440
 16777216
100
AcDbTrace
 10
7565487.58291968
 20
5722381.227602211
 30
0.0
 11
7565487.393464232
 21
5722381.140945357
 31
0.0
 12
7565487.748162524
 22
5722380.615907436
 32
0.0
 13
7565487.748162524
 23
5722380.615907436
 33
0.0
  0
MTEXT
  5
100042E
330
1000418
100
AcDbEntity
  8
osie_dobrze
  6
Continuous
 62
     0
440
 16777216
100
AcDbMText
 10
7565484.943995199
 20
5722381.752640131
 30
0.0
 40
0.625
 41
0.0
 71
     5
 72
     1
  1
\A1;0.1324
 73
     1
 44
1.0
  0
POINT
  5
100042F
330
1000418
100
AcDbEntity
  8
Defpoints
  6
Continuous
 62
     0
440
 16777216
100
AcDbPoint
 10
7565489.35832206
 20
5722381.206851379
 30
0.0
  0
POINT
  5
1000430
330
1000418
100
AcDbEntity
  8
Defpoints
  6
Continuous
 62
     0
440
 16777216
100
AcDbPoint
 10
7565489.303268904
 20
5722381.327212548
 30
0.0
  0
POINT
  5
1000431
330
1000418
100
AcDbEntity
  8
Defpoints
  6
Continuous
 62
     0
440
 16777216
100
AcDbPoint
 10
7565487.748162524
 20
5722380.615907436
 30
0.0
  0
ENDBLK
  5
100041A
330
1000418
100
AcDbEntity
  8
0
100
AcDbBlockEnd
  0
BLOCK
  5
1000435
330
1000434
100
AcDbEntity
  8
0
100
AcDbBlockBegin
  2
*D19
 70
     1
 10
0.0
 20
0.0
 30
0.0
  3
*D19
  1

  0
LINE
  5
1000443
330
1000434
100
AcDbEntity
  8
osie_dobrze
  6
Continuous
 62
     0
440
 16777216
370
    -2
100
AcDbLine
 10
7565491.815971652
 20
5722375.458117695
 30
0.0
 11
7565491.150965418
 21
5722375.153509688
 31
0.0
  0
LINE
  5
1000444
330
1000434
100
AcDbEntity
  8
osie_dobrze
  6
Continuous
 62
     0
440
 16777216
370
    -2
100
AcDbLine
 10
7565491.768118578
 20
5722375.562588332
 30
0.0
 11
7565491.103112345
 21
5722375.257980324
 31
0.0
  0
LINE
  5
1000445
330
1000434
100
AcDbEntity
  8
osie_dobrze
  6
Continuous
 62
     0
440
 16777216
370
    -2
100
AcDbLine
 10
7565491.695355831
 20
5722374.715422565
 30
0.0
 11
7565491.955633314
 21
5722374.147196702
 31
0.0
  0
LINE
  5
1000446
330
1000434
100
AcDbEntity
  8
osie_dobrze
  6
Continuous
 62
     0
440
 16777216
370
    -2
100
AcDbLine
 10
7565491.126947793
 20
5722375.956344929
 30
0.0
 11
7565490.86667031
 21
5722376.524570793
 31
0.0
  0
LINE
  5
1000447
330
1000434
100
AcDbEntity
  8
osie_dobrze
  6
Continuous
 62
     0
440
 16777216
370
    -2
100
AcDbLine
 10
7565490.86667031
 20
5722376.524570793
 30
0.0
 11
7565490.24167031
 21
5722376.524570791
 31
0.0
  0
SOLID
  5
1000448
330
1000434
100
AcDbEntity
  8
osie_dobrze
  6
Continuous
 62
     0
440
 16777216
100
AcDbTrace
 10
7565491.790060142
 20
5722374.758802145
 30
0.0
 11
7565491.600651521
 21
5722374.672042985
 31
0.0
 12
7565491.435078349
 22
5722375.283648428
 32
0.0
 13
7565491.435078349
 23
5722375.283648428
 33
0.0
  0
SOLID
  5
1000449
330
1000434
100
AcDbEntity
  8
osie_dobrze
  6
Continuous
 62
     0
440
 16777216
100
AcDbTrace
 10
7565491.221652104
 20
5722375.999724509
 30
0.0
 11
7565491.032243483
 21
5722375.912965349
 31
0.0
 12
7565491.387225275
 22
5722375.388119066
 32
0.0
 13
7565491.387225275
 23
5722375.388119066
 33
0.0
  0
MTEXT
  5
100044A
330
1000434
100
AcDbEntity
  8
osie_dobrze
  6
Continuous
 62
     0
440
 16777216
100
AcDbMText
 10
7565488.671729833
 20
5722376.524570793
 30
0.0
 40
0.625
 41
0.0
 71
     5
 72
     1
  1
\A1;0.1149
 73
     1
 44
1.0
  0
POINT
  5
100044B
330
1000434
100
AcDbEntity
  8
Defpoints
  6
Continuous
 62
     0
440
 16777216
100
AcDbPoint
 10
7565491.958028117
 20
5722375.523187066
 30
0.0
  0
POINT
  5
100044C
330
1000434
100
AcDbEntity
  8
Defpoints
  6
Continuous
 62
     0
440
 16777216
100
AcDbPoint
 10
7565491.910175043
 20
5722375.627657702
 30
0.0
  0
POINT
  5
100044D
330
1000434
100
AcDbEntity
  8
Defpoints
  6
Continuous
 62
     0
440
 16777216
100
AcDbPoint
 10
7565491.387225275
 20
5722375.388119066
 30
0.0
  0
ENDBLK
  5
1000436
330
1000434
100
AcDbEntity
  8
0
100
AcDbBlockEnd
  0
BLOCK
  5
1000451
330
1000450
100
AcDbEntity
  8
0
100
AcDbBlockBegin
  2
*D20
 70
     1
 10
0.0
 20
0.0
 30
0.0
  3
*D20
  1

  0
LINE
  5
100045F
330
1000450
100
AcDbEntity
  8
osie_dobrze
  6
Continuous
 62
     0
440
 16777216
370
    -2
100
AcDbLine
 10
7565498.576045956
 20
5722385.312979386
 30
0.0
 11
7565497.856905165
 21
5722384.983570117
 31
0.0
  0
LINE
  5
1000460
330
1000450
100
AcDbEntity
  8
osie_dobrze
  6
Continuous
 62
     0
440
 16777216
370
    -2
100
AcDbLine
 10
7565498.532074018
 20
5722385.408975513
 30
0.0
 11
7565497.812933227
 21
5722385.079566246
 31
0.0
  0
LINE
  5
1000461
330
1000450
100
AcDbEntity
  8
osie_dobrze
  6
Continuous
 62
     0
440
 16777216
370
    -2
100
AcDbLine
 10
7565498.401297979
 20
5722384.545485981
 30
0.0
 11
7565498.661578579
 21
5722383.977261544
 31
0.0
  0
LINE
  5
1000462
330
1000450
100
AcDbEntity
  8
osie_dobrze
  6
Continuous
 62
     0
440
 16777216
370
    -2
100
AcDbLine
 10
7565497.836764844
 20
5722385.777930981
 30
0.0
 11
7565497.576484247
 21
5722386.346155418
 31
0.0
  0
LINE
  5
1000463
330
1000450
100
AcDbEntity
  8
osie_dobrze
  6
Continuous
 62
     0
440
 16777216
370
    -2
100
AcDbLine
 10
7565497.576484247
 20
5722386.346155418
 30
0.0
 11
7565496.951484248
 21
5722386.346155418
 31
0.0
  0
SOLID
  5
1000464
330
1000450
100
AcDbEntity
  8
osie_dobrze
  6
Continuous
 62
     0
440
 16777216
100
AcDbTrace
 10
7565498.496002052
 20
5722384.58886608
 30
0.0
 11
7565498.306593909
 21
5722384.502105881
 31
0.0
 12
7565498.14101738
 22
5722385.113710417
 32
0.0
 13
7565498.14101738
 23
5722385.113710417
 33
0.0
  0
SOLID
  5
1000465
330
1000450
100
AcDbEntity
  8
osie_dobrze
  6
Continuous
 62
     0
440
 16777216
100
AcDbTrace
 10
7565497.931468917
 20
5722385.821311081
 30
0.0
 11
7565497.742060773
 21
5722385.734550882
 31
0.0
 12
7565498.097045443
 22
5722385.209706544
 32
0.0
 13
7565498.097045443
 23
5722385.209706544
 33
0.0
  0
MTEXT
  5
1000466
330
1000450
100
AcDbEntity
  8
osie_dobrze
  6
Continuous
 62
     0
440
 16777216
100
AcDbMText
 10
7565495.322019962
 20
5722386.34615542
 30
0.0
 40
0.625
 41
0.0
 71
     5
 72
     1
  1
\A1;0.1056
 73
     1
 44
1.0
  0
POINT
  5
1000467
330
1000450
100
AcDbEntity
  8
Defpoints
  6
Continuous
 62
     0
440
 16777216
100
AcDbPoint
 10
7565498.718102064
 20
5722385.378049534
 30
0.0
  0
POINT
  5
1000468
330
1000450
100
AcDbEntity
  8
Defpoints
  6
Continuous
 62
     0
440
 16777216
100
AcDbPoint
 10
7565498.674130126
 20
5722385.474045664
 30
0.0
  0
POINT
  5
1000469
330
1000450
100
AcDbEntity
  8
Defpoints
  6
Continuous
 62
     0
440
 16777216
100
AcDbPoint
 10
7565498.097045443
 20
5722385.209706544
 30
0.0
  0
ENDBLK
  5
1000452
330
1000450
100
AcDbEntity
  8
0
100
AcDbBlockEnd
  0
BLOCK
  5
100046D
330
100046C
100
AcDbEntity
  8
0
100
AcDbBlockBegin
  2
*D21
 70
     1
 10
0.0
 20
0.0
 30
0.0
  3
*D21
  1

  0
LINE
  5
100047B
330
100046C
100
AcDbEntity
  8
osie_dobrze
  6
Continuous
 62
     0
440
 16777216
370
    -2
100
AcDbLine
 10
7565501.133427787
 20
5722379.729914755
 30
0.0
 11
7565500.989950074
 21
5722379.668042232
 31
0.0
  0
LINE
  5
100047C
330
100046C
100
AcDbEntity
  8
osie_dobrze
  6
Continuous
 62
     0
440
 16777216
370
    -2
100
AcDbLine
 10
7565501.17883364
 20
5722379.624622001
 30
0.0
 11
7565501.035355928
 21
5722379.562749479
 31
0.0
  0
LINE
  5
100047D
330
100046C
100
AcDbEntity
  8
osie_dobrze
  6
Continuous
 62
     0
440
 16777216
370
    -2
100
AcDbLine
 10
7565501.029415407
 20
5722380.36569812
 30
0.0
 11
7565500.781925319
 21
5722380.939608963
 31
0.0
  0
LINE
  5
100047E
330
100046C
100
AcDbEntity
  8
osie_dobrze
  6
Continuous
 62
     0
440
 16777216
370
    -2
100
AcDbLine
 10
7565501.569801438
 20
5722379.112583679
 30
0.0
 11
7565501.817291526
 21
5722378.538672835
 31
0.0
  0
LINE
  5
100047F
330
100046C
100
AcDbEntity
  8
osie_dobrze
  6
Continuous
 62
     0
440
 16777216
370
    -2
100
AcDbLine
 10
7565501.817291526
 20
5722378.538672835
 30
0.0
 11
7565502.442291525
 21
5722378.538672835
 31
0.0
  0
SOLID
  5
1000480
330
100046C
100
AcDbEntity
  8
osie_dobrze
  6
Continuous
 62
     0
440
 16777216
100
AcDbTrace
 10
7565501.125067213
 20
5722380.406946467
 30
0.0
 11
7565500.933763599
 21
5722380.324449772
 31
0.0
 12
7565501.276905495
 22
5722379.791787276
 32
0.0
 13
7565501.276905495
 23
5722379.791787276
 33
0.0
  0
SOLID
  5
1000481
330
100046C
100
AcDbEntity
  8
osie_dobrze
  6
Continuous
 62
     0
440
 16777216
100
AcDbTrace
 10
7565501.665453244
 20
5722379.153832027
 30
0.0
 11
7565501.47414963
 21
5722379.071335332
 31
0.0
 12
7565501.322311351
 22
5722379.686494523
 32
0.0
 13
7565501.322311351
 23
5722379.686494523
 33
0.0
  0
MTEXT
  5
1000482
330
100046C
100
AcDbEntity
  8
osie_dobrze
  6
Continuous
 62
     0
440
 16777216
100
AcDbMText
 10
7565504.027112954
 20
5722378.538672836
 30
0.0
 40
0.625
 41
0.0
 71
     5
 72
     1
  1
\A1;0.1147
 73
     1
 44
1.0
  0
POINT
  5
1000483
330
100046C
100
AcDbEntity
  8
Defpoints
  6
Continuous
 62
     0
440
 16777216
100
AcDbPoint
 10
7565501.276905498
 20
5722379.791787278
 30
0.0
  0
POINT
  5
1000484
330
100046C
100
AcDbEntity
  8
Defpoints
  6
Continuous
 62
     0
440
 16777216
100
AcDbPoint
 10
7565501.322311352
 20
5722379.686494523
 30
0.0
  0
POINT
  5
1000485
330
100046C
100
AcDbEntity
  8
Defpoints
  6
Continuous
 62
     0
440
 16777216
100
AcDbPoint
 10
7565501.322311351
 20
5722379.686494523
 30
0.0
  0
ENDBLK
  5
100046E
330
100046C
100
AcDbEntity
  8
0
100
AcDbBlockEnd
  0
ENDSEC
  0
SECTION
  2
ENTITIES
  0
POLYLINE
  5
34
330
1A
100
AcDbEntity
  8
Dzialki
  6
Continuous
370
    18
100
AcDb2dPolyline
 66
     1
 10
0.0
 20
0.0
 30
0.0
 70
   128
  0
VERTEX
  5
35
330
34
100
AcDbEntity
  8
Dzialki
100
AcDbVertex
100
AcDb2dVertex
 10
7565507.884010599
 20
5722429.505827169
 30
0.0
  0
VERTEX
  5
36
330
34
100
AcDbEntity
  8
Dzialki
100
AcDbVertex
100
AcDb2dVertex
 10
7565543.929999997
 20
5722349.89
 30
0.0
  0
SEQEND
  5
37
330
34
100
AcDbEntity
  8
Dzialki
  0
POLYLINE
  5
38
330
1A
100
AcDbEntity
  8
Dzialki
  6
Continuous
370
    18
100
AcDb2dPolyline
 66
     1
 10
0.0
 20
0.0
 30
0.0
 70
   128
  0
VERTEX
  5
39
330
38
100
AcDbEntity
  8
Dzialki
100
AcDbVertex
100
AcDb2dVertex
 10
7565543.929999997
 20
5722349.89
 30
0.0
  0
VERTEX
  5
3A
330
38
100
AcDbEntity
  8
Dzialki
100
AcDbVertex
100
AcDb2dVertex
 10
7565552.339994202
 20
5722353.517132469
 30
0.0
  0
SEQEND
  5
3B
330
38
100
AcDbEntity
  8
Dzialki
  0
POLYLINE
  5
3C
330
1A
100
AcDbEntity
  8
Dzialki
  6
Continuous
370
    18
100
AcDb2dPolyline
 66
     1
 10
0.0
 20
0.0
 30
0.0
 70
   128
  0
VERTEX
  5
3D
330
3C
100
AcDbEntity
  8
Dzialki
100
AcDbVertex
100
AcDb2dVertex
 10
7565523.59
 20
5722341.13
 30
0.0
  0
VERTEX
  5
3E
330
3C
100
AcDbEntity
  8
Dzialki
100
AcDbVertex
100
AcDb2dVertex
 10
7565487.456048336
 20
5722420.210882098
 30
0.0
  0
SEQEND
  5
3F
330
3C
100
AcDbEntity
  8
Dzialki
  0
POLYLINE
  5
40
330
1A
100
AcDbEntity
  8
Dzialki
  6
Continuous
370
    18
100
AcDb2dPolyline
 66
     1
 10
0.0
 20
0.0
 30
0.0
 70
   128
  0
VERTEX
  5
41
330
40
100
AcDbEntity
  8
Dzialki
100
AcDbVertex
100
AcDb2dVertex
 10
7565467.012288713
 20
5722410.908749055
 30
0.0
  0
VERTEX
  5
42
330
40
100
AcDbEntity
  8
Dzialki
100
AcDbVertex
100
AcDb2dVertex
 10
7565503.24
 20
5722332.37
 30
0.0
  0
SEQEND
  5
43
330
40
100
AcDbEntity
  8
Dzialki
  0
POLYLINE
  5
44
330
1A
100
AcDbEntity
  8
Dzialki
  6
Continuous
370
    18
100
AcDb2dPolyline
 66
     1
 10
0.0
 20
0.0
 30
0.0
 70
   128
  0
VERTEX
  5
45
330
44
100
AcDbEntity
  8
Dzialki
100
AcDbVertex
100
AcDb2dVertex
 10
7565503.24
 20
5722332.37
 30
0.0
  0
VERTEX
  5
46
330
44
100
AcDbEntity
  8
Dzialki
100
AcDbVertex
100
AcDb2dVertex
 10
7565523.59
 20
5722341.13
 30
0.0
  0
SEQEND
  5
47
330
44
100
AcDbEntity
  8
Dzialki
  0
POLYLINE
  5
48
330
1A
100
AcDbEntity
  8
Dzialki
  6
Continuous
370
    18
100
AcDb2dPolyline
 66
     1
 10
0.0
 20
0.0
 30
0.0
 70
   128
  0
VERTEX
  5
49
330
48
100
AcDbEntity
  8
Dzialki
100
AcDbVertex
100
AcDb2dVertex
 10
7565523.59
 20
5722341.13
 30
0.0
  0
VERTEX
  5
4A
330
48
100
AcDbEntity
  8
Dzialki
100
AcDbVertex
100
AcDb2dVertex
 10
7565543.929999997
 20
5722349.89
 30
0.0
  0
SEQEND
  5
4B
330
48
100
AcDbEntity
  8
Dzialki
  0
POLYLINE
  5
4C
330
1A
100
AcDbEntity
  8
Dzialki
  6
Continuous
370
    18
100
AcDb2dPolyline
 66
     1
 10
0.0
 20
0.0
 30
0.0
 70
   128
  0
VERTEX
  5
4D
330
4C
100
AcDbEntity
  8
Dzialki
100
AcDbVertex
100
AcDb2dVertex
 10
7565474.579402343
 20
5722319.673128374
 30
0.0
  0
VERTEX
  5
4E
330
4C
100
AcDbEntity
  8
Dzialki
100
AcDbVertex
100
AcDb2dVertex
 10
7565503.24
 20
5722332.37
 30
0.0
  0
SEQEND
  5
4F
330
4C
100
AcDbEntity
  8
Dzialki
  0
POLYLINE
  5
54
330
1A
100
AcDbEntity
  8
Stare_opracowanie
370
    25
100
AcDb2dPolyline
 66
     1
 10
0.0
 20
0.0
 30
0.0
 70
   128
  0
VERTEX
  5
55
330
54
100
AcDbEntity
  8
Stare_opracowanie
100
AcDbVertex
100
AcDb2dVertex
 10
7565502.181
 20
5722386.868
 30
0.0
  0
VERTEX
  5
56
330
54
100
AcDbEntity
  8
Stare_opracowanie
100
AcDbVertex
100
AcDb2dVertex
 10
7565485.103000001
 20
5722379.519999998
 30
0.0
  0
SEQEND
  5
57
330
54
100
AcDbEntity
  8
Stare_opracowanie
  0
POLYLINE
  5
58
330
1A
100
AcDbEntity
  8
Stare_opracowanie
370
    25
100
AcDb2dPolyline
 66
     1
 10
0.0
 20
0.0
 30
0.0
 70
   128
  0
VERTEX
  5
59
330
58
100
AcDbEntity
  8
Stare_opracowanie
100
AcDbVertex
100
AcDb2dVertex
 10
7565489.170000001
 20
5722374.446000001
 30
0.0
  0
VERTEX
  5
5A
330
58
100
AcDbEntity
  8
Stare_opracowanie
100
AcDbVertex
100
AcDb2dVertex
 10
7565504.781000002
 20
5722381.177999999
 30
0.0
  0
SEQEND
  5
5B
330
58
100
AcDbEntity
  8
Stare_opracowanie
  0
POLYLINE
  5
5C
330
1A
100
AcDbEntity
  8
Stare_opracowanie
370
    25
100
AcDb2dPolyline
 66
     1
 10
0.0
 20
0.0
 30
0.0
 70
   128
  0
VERTEX
  5
5D
330
5C
100
AcDbEntity
  8
Stare_opracowanie
100
AcDbVertex
100
AcDb2dVertex
 10
7565496.347
 20
5722390.586
 30
0.0
  0
VERTEX
  5
5E
330
5C
100
AcDbEntity
  8
Stare_opracowanie
100
AcDbVertex
100
AcDb2dVertex
 10
7565504.065000001
 20
5722373.734
 30
0.0
  0
SEQEND
  5
5F
330
5C
100
AcDbEntity
  8
Stare_opracowanie
  0
POLYLINE
  5
60
102
{ACAD_REACTORS
330
1000340
102
}
330
1A
100
AcDbEntity
  8
Stare_opracowanie
370
    25
100
AcDb2dPolyline
 66
     1
 10
0.0
 20
0.0
 30
0.0
 70
   128
  0
VERTEX
  5
61
102
{ACAD_REACTORS
330
1000340
102
}
330
60
100
AcDbEntity
  8
Stare_opracowanie
100
AcDbVertex
100
AcDb2dVertex
 10
7565494.401999999
 20
5722370.18
 30
0.0
  0
VERTEX
  5
62
330
60
100
AcDbEntity
  8
Stare_opracowanie
100
AcDbVertex
100
AcDb2dVertex
 10
7565486.87
 20
5722386.647
 30
0.0
  0
SEQEND
  5
63
330
60
100
AcDbEntity
  8
Stare_opracowanie
  0
TEXT
  5
6C
330
1A
100
AcDbEntity
  8
Stare_opracowanie
370
    25
100
AcDbText
 39
0.25
 10
7565485.969999996
 20
5722387.304999996
 30
0.0
 40
1.25
  1
1
 41
0.6600000000000002
 11
7565485.969999996
 21
5722387.929999996
 31
0.0
100
AcDbText
 73
     2
  0
TEXT
  5
6D
330
1A
100
AcDbEntity
  8
Stare_opracowanie
370
    25
100
AcDbText
 39
0.25
 10
7565494.6365
 20
5722369.1085
 30
0.0
 40
1.25
  1
1
 41
0.6600000000000002
 11
7565494.6365
 21
5722369.7335
 31
0.0
100
AcDbText
 73
     2
  0
TEXT
  5
6E
330
1A
100
AcDbEntity
  8
Stare_opracowanie
370
    25
100
AcDbText
 39
0.25
 10
7565495.299999996
 20
5722390.814999996
 30
0.0
 40
1.25
  1
2
 41
0.6600000000000002
 11
7565495.299999996
 21
5722391.439999996
 31
0.0
100
AcDbText
 73
     2
  0
TEXT
  5
6F
330
1A
100
AcDbEntity
  8
Stare_opracowanie
370
    25
100
AcDbText
 39
0.25
 10
7565503.849999998
 20
5722371.604999996
 30
0.0
 40
1.25
  1
2
 41
0.6600000000000002
 11
7565503.849999998
 21
5722372.229999996
 31
0.0
100
AcDbText
 73
     2
  0
TEXT
  5
70
330
1A
100
AcDbEntity
  8
Stare_opracowanie
370
    25
100
AcDbText
 39
0.25
 10
7565483.899999996
 20
5722378.924999995
 30
0.0
 40
1.25
  1
A
 41
0.6600000000000002
 11
7565483.899999996
 21
5722379.549999994
 31
0.0
100
AcDbText
 73
     2
  0
TEXT
  5
71
330
1A
100
AcDbEntity
  8
Stare_opracowanie
370
    25
100
AcDbText
 39
0.25
 10
7565503.119999996
 20
5722386.874999996
 30
0.0
 40
1.25
  1
A
 41
0.6600000000000002
 11
7565503.119999996
 21
5722387.499999996
 31
0.0
100
AcDbText
 73
     2
  0
TEXT
  5
72
330
1A
100
AcDbEntity
  8
Stare_opracowanie
370
    25
100
AcDbText
 39
0.25
 10
7565487.839999994
 20
5722373.574999997
 30
0.0
 40
1.25
  1
B
 41
0.6600000000000002
 11
7565487.839999994
 21
5722374.199999998
 31
0.0
100
AcDbText
 73
     2
  0
TEXT
  5
73
330
1A
100
AcDbEntity
  8
Stare_opracowanie
370
    25
100
AcDbText
 39
0.25
 10
7565505.789999996
 20
5722381.154999998
 30
0.0
 40
1.25
  1
B
 41
0.6600000000000002
 11
7565505.789999996
 21
5722381.779999997
 31
0.0
100
AcDbText
 73
     2
  0
POLYLINE
  5
10002CE
330
1A
100
AcDbEntity
  8
Stare_opracowanie
  6
Continuous
370
    18
100
AcDb2dPolyline
 66
     1
 10
0.0
 20
0.0
 30
0.0
 70
   129
  0
VERTEX
  5
10002CF
330
10002CE
100
AcDbEntity
  8
Stare_opracowanie
  6
Continuous
370
    18
100
AcDbVertex
100
AcDb2dVertex
 10
7565489.704117343
 20
5722381.172588375
 30
0.0
  0
VERTEX
  5
10002D0
330
10002CE
100
AcDbEntity
  8
Stare_opracowanie
  6
Continuous
370
    18
100
AcDbVertex
100
AcDb2dVertex
 10
7565498.578856513
 20
5722384.991524962
 30
0.0
  0
VERTEX
  5
10002D1
330
10002CE
100
AcDbEntity
  8
Stare_opracowanie
  6
Continuous
370
    18
100
AcDbVertex
100
AcDb2dVertex
 10
7565500.935769282
 20
5722379.84686591
 30
0.0
  0
VERTEX
  5
10002D2
330
10002CE
100
AcDbEntity
  8
Stare_opracowanie
  6
Continuous
370
    18
100
AcDbVertex
100
AcDb2dVertex
 10
7565492.061251871
 20
5722376.01899675
 30
0.0
  0
SEQEND
  5
10002D3
330
10002CE
100
AcDbEntity
  8
Stare_opracowanie
  6
Continuous
370
    18
  0
POLYLINE
  5
10002D4
330
1A
100
AcDbEntity
  8
Stare_opracowanie
  6
Continuous
370
    18
100
AcDb2dPolyline
 66
     1
 10
0.0
 20
0.0
 30
0.0
 70
   129
  0
VERTEX
  5
10002D5
330
10002D4
100
AcDbEntity
  8
Stare_opracowanie
  6
Continuous
370
    18
100
AcDbVertex
100
AcDb2dVertex
 10
7565488.903212714
 20
5722381.48114025
 30
0.0
  0
VERTEX
  5
10002D6
330
10002D4
100
AcDbEntity
  8
Stare_opracowanie
  6
Continuous
370
    18
100
AcDbVertex
100
AcDb2dVertex
 10
7565498.880175921
 20
5722385.774380774
 30
0.0
  0
VERTEX
  5
10002D7
330
10002D4
100
AcDbEntity
  8
Stare_opracowanie
  6
Continuous
370
    18
100
AcDbVertex
100
AcDb2dVertex
 10
7565501.736804727
 20
5722379.538943707
 30
0.0
  0
VERTEX
  5
10002D8
330
10002D4
100
AcDbEntity
  8
Stare_opracowanie
  6
Continuous
370
    18
100
AcDbVertex
100
AcDb2dVertex
 10
7565491.759807403
 20
5722375.23553896
 30
0.0
  0
SEQEND
  5
10002D9
330
10002D4
100
AcDbEntity
  8
Stare_opracowanie
  6
Continuous
370
    18
  0
LINE
  5
10002F9
330
1A
100
AcDbEntity
  8
osie_dobrze
370
    25
100
AcDbLine
 10
7565498.674130652
 20
5722385.474045906
 30
0.0
 11
7565501.276905497
 21
5722379.791787278
 31
0.0
  0
TEXT
  5
1000300
330
1A
100
AcDbEntity
  8
osie_dobrze
370
    18
100
AcDbText
 39
0.18
 10
7565488.022291802
 20
5722380.379641375
 30
0.0
 40
0.9
  1
A
 41
0.6600000000000001
 11
7565488.022291802
 21
5722380.079641376
 31
0.0
100
AcDbText
 73
     1
  0
TEXT
  5
1000301
330
1A
100
AcDbEntity
  8
osie_dobrze
370
    18
100
AcDbText
 39
0.18
 10
7565490.457000508
 20
5722374.350375363
 30
0.0
 40
0.9
  1
B
 41
0.6600000000000001
 11
7565490.457000508
 21
5722374.050375362
 31
0.0
100
AcDbText
 73
     1
  0
TEXT
  5
1000302
330
1A
100
AcDbEntity
  8
osie_dobrze
370
    18
100
AcDbText
 39
0.18
 10
7565502.048330252
 20
5722380.185418103
 30
0.0
 40
0.9
  1
B
 41
0.6600000000000001
 11
7565502.048330252
 21
5722379.885418103
 31
0.0
100
AcDbText
 73
     1
  0
TEXT
  5
1000303
330
1A
100
AcDbEntity
  8
osie_dobrze
370
    18
100
AcDbText
 39
0.18
 10
7565499.719478823
 20
5722385.985801248
 30
0.0
 40
0.9
  1
A
 41
0.6600000000000001
 11
7565499.719478823
 21
5722385.685801249
 31
0.0
100
AcDbText
 73
     1
  0
TEXT
  5
1000304
330
1A
100
AcDbEntity
  8
osie_dobrze
370
    18
100
AcDbText
 39
0.18
 10
7565488.763290264
 20
5722382.283620158
 30
0.0
 40
0.9
  1
1
 41
0.6600000000000001
 11
7565488.763290264
 21
5722381.983620157
 31
0.0
100
AcDbText
 73
     1
  0
TEXT
  5
1000305
330
1A
100
AcDbEntity
  8
osie_dobrze
370
    18
100
AcDbText
 39
0.18
 10
7565492.574138001
 20
5722373.768603875
 30
0.0
 40
0.9
  1
1
 41
0.6600000000000001
 11
7565492.574138001
 21
5722373.468603876
 31
0.0
100
AcDbText
 73
     1
  0
TEXT
  5
1000306
330
1A
100
AcDbEntity
  8
osie_dobrze
370
    18
100
AcDbText
 39
0.18
 10
7565501.571974363
 20
5722378.211221033
 30
0.0
 40
0.9
  1
2
 41
0.6600000000000001
 11
7565501.571974363
 21
5722377.911221033
 31
0.0
100
AcDbText
 73
     1
  0
TEXT
  5
1000307
330
1A
100
AcDbEntity
  8
osie_dobrze
370
    18
100
AcDbText
 39
0.18
 10
7565497.761126007
 20
5722386.567572478
 30
0.0
 40
0.9
  1
2
 41
0.6600000000000001
 11
7565497.761126007
 21
5722386.267572479
 31
0.0
100
AcDbText
 73
     1
  0
LWPOLYLINE
  5
1000308
330
1A
100
AcDbEntity
  8
0
  6
Continuous
100
AcDbPolyline
 90
        4
 70
     1
 43
0.0
 10
7565489.196180632
 20
5722381.264571782
 10
7565498.733280112
 20
5722385.633067525
 10
7565501.435977867
 20
5722379.732661787
 10
7565491.898902301
 20
5722375.364113826
  0
LWPOLYLINE
  5
1000309
330
1A
100
AcDbEntity
  8
0
  6
Continuous
100
AcDbPolyline
 90
        4
 70
     1
 43
0.0
 10
7565489.514325919
 20
5722381.146319605
 10
7565498.615027935
 20
5722385.314922238
 10
7565501.117833129
 20
5722379.850912768
 10
7565492.017153933
 20
5722375.682260307
  0
LINE
  5
100030A
102
{ACAD_REACTORS
330
100035A
102
}
330
1A
100
AcDbEntity
  8
osie_dobrze
370
    25
100
AcDbLine
 10
7565498.674130652
 20
5722385.474045906
 30
0.0
 11
7565489.355253276
 21
5722381.205445693
 31
0.0
  0
LINE
  5
100030B
102
{ACAD_REACTORS
330
1000340
330
100035A
102
}
330
1A
100
AcDbEntity
  8
osie_dobrze
370
    25
100
AcDbLine
 10
7565489.355253276
 20
5722381.205445693
 30
0.0
 11
7565491.958028117
 21
5722375.523187066
 31
0.0
  0
LINE
  5
100030C
102
{ACAD_REACTORS
330
1000340
330
1000374
102
}
330
1A
100
AcDbEntity
  8
osie_dobrze
370
    25
100
AcDbLine
 10
7565491.958028117
 20
5722375.523187066
 30
0.0
 11
7565501.276905497
 21
5722379.791787278
 31
0.0
  0
DIMENSION
  5
1000327
102
{ACAD_XDICTIONARY
360
1000335
102
}
102
{ACAD_REACTORS
330
1000340
102
}
330
1A
100
AcDbEntity
  8
PRZEKATNE
  6
Continuous
100
AcDbDimension
  2
*D12
 10
7565502.40044885
 20
5722377.338954312
 30
0.0
 11
7565497.741010117
 21
5722375.204654301
 31
0.0
 70
    33
 71
     5
 42
10.24999626353383
  3
Standard
100
AcDbAlignedDimension
 13
7565491.958028029
 23
5722375.523187256
 33
0.0
 14
7565501.276905497
 24
5722379.791787278
 34
0.0
1001
ACAD
1000
DSTYLE
1002
{
1070
    40
1040
0.25
1070
    41
1040
2.5
1070
    42
1040
0.625
1070
    44
1040
1.25
1070
   140
1040
2.5
1070
   147
1040
0.625
1002
}
  0
DIMENSION
  5
1000341
102
{ACAD_XDICTIONARY
360
100034F
102
}
102
{ACAD_REACTORS
330
100035A
102
}
330
1A
100
AcDbEntity
  8
PRZEKATNE
  6
Continuous
100
AcDbDimension
  2
*D13
 10
7565497.603864596
 20
5722387.810567864
 30
0.0
 11
7565492.944425908
 21
5722385.676267759
 31
0.0
 70
    33
 71
     5
 42
10.24999625794589
  3
Standard
100
AcDbAlignedDimension
 13
7565489.355253276
 23
5722381.205445693
 33
0.0
 14
7565498.674130652
 24
5722385.474045906
 34
0.0
1001
ACAD
1000
DSTYLE
1002
{
1070
    40
1040
0.25
1070
    41
1040
2.5
1070
    42
1040
0.625
1070
    44
1040
1.25
1070
   140
1040
2.5
1070
   147
1040
0.625
1002
}
  0
DIMENSION
  5
100035B
102
{ACAD_XDICTIONARY
360
1000369
102
}
102
{ACAD_REACTORS
330
1000374
102
}
330
1A
100
AcDbEntity
  8
PRZEKATNE
  6
Continuous
100
AcDbDimension
  2
*D14
 10
7565489.27594274
 20
5722374.294650177
 30
0.0
 11
7565487.974555321
 21
5722377.135779489
 31
0.0
 70
    33
 71
     5
 42
6.249999998603016
  3
Standard
100
AcDbAlignedDimension
 13
7565489.355253276
 23
5722381.205445693
 33
0.0
 14
7565491.958028117
 24
5722375.523187066
 34
0.0
1001
ACAD
1000
DSTYLE
1002
{
1070
    40
1040
0.25
1070
    41
1040
2.5
1070
    42
1040
0.625
1070
    44
1040
1.25
1070
   140
1040
2.5
1070
   147
1040
0.625
1002
}
  0
DIMENSION
  5
1000375
330
1A
100
AcDbEntity
  8
PRZEKATNE
  6
Continuous
100
AcDbDimension
  2
*D15
 10
7565503.712151715
 20
5722380.907258784
 30
0.0
 11
7565502.410764293
 21
5722383.748388099
 31
0.0
 70
    33
 71
     5
 42
6.250000001396983
  3
Standard
100
AcDbAlignedDimension
 13
7565498.674130652
 23
5722385.474045906
 33
0.0
 14
7565501.276905497
 24
5722379.791787278
 34
0.0
1001
ACAD
1000
DSTYLE
1002
{
1070
    40
1040
0.25
1070
    41
1040
2.5
1070
    42
1040
0.625
1070
    44
1040
1.25
1070
   140
1040
2.5
1070
   147
1040
0.625
1002
}
  0
DIMENSION
  5
1000383
330
1A
100
AcDbEntity
  8
PRZEKATNE
  6
Continuous
100
AcDbDimension
  2
*D16
 10
7565492.058888072
 20
5722375.455113968
 30
0.0
 11
7565495.41693934
 21
5722380.430543388
 31
0.0
 70
    33
 71
     5
 42
12.00523323193192
  3
Standard
100
AcDbAlignedDimension
 13
7565498.674130652
 23
5722385.474045906
 33
0.0
 14
7565491.958028117
 24
5722375.523187066
 34
0.0
1001
ACAD
1000
DSTYLE
1002
{
1070
    40
1040
0.25
1070
    41
1040
2.5
1070
    42
1040
0.625
1070
    44
1040
1.25
1070
   140
1040
2.5
1070
   147
1040
0.625
1002
}
  0
DIMENSION
  5
1000391
330
1A
100
AcDbEntity
  8
PRZEKATNE
  6
Continuous
100
AcDbDimension
  2
*D17
 10
7565501.364504474
 20
5722380.530526232
 30
0.0
 11
7565495.403678363
 21
5722381.237355439
 31
0.0
 70
    33
 71
     5
 42
12.00517479423433
  3
Standard
100
AcDbAlignedDimension
 13
7565489.355253276
 23
5722381.205445693
 33
0.0
 14
7565501.276905497
 24
5722379.791787278
 34
0.0
1001
ACAD
1000
DSTYLE
1002
{
1070
    40
1040
0.25
1070
    41
1040
2.5
1070
    42
1040
0.625
1070
    44
1040
1.25
1070
   140
1040
2.5
1070
   147
1040
0.625
1002
}
  0
ENDSEC
  0
SECTION
  2
OBJECTS
  0
DICTIONARY
  5
74
330
0
100
AcDbDictionary
281
     1
  3
ACAD_CIP_PREVIOUS_PRODUCT_INFO
350
1000040
  3
ACAD_COLOR
350
100001C
  3
ACAD_DETAILVIEWSTYLE
350
100003E
  3
ACAD_GROUP
350
75
  3
ACAD_LAYOUT
350
76
  3
ACAD_MATERIAL
350
FFFFFF
  3
ACAD_MLEADERSTYLE
350
100001F
  3
ACAD_MLINESTYLE
350
77
  3
ACAD_PLOTSETTINGS
350
78
  3
ACAD_PLOTSTYLENAME
350
79
  3
ACAD_SCALELIST
350
1000021
  3
ACAD_SECTIONVIEWSTYLE
350
100003C
  3
ACAD_TABLESTYLE
350
100001D
  3
ACAD_VISUALSTYLE
350
1000003
  3
ACDB_RECOMPOSE_DATA
350
1000494
  3
AcDbVariableDictionary
350
1000034
  0
DICTIONARY
  5
10001DB
330
1A
100
AcDbDictionary
280
     1
281
     1
  3
ACAD_SORTENTS
360
10001DC
  0
DICTIONARY
  5
10002F1
330
10002DF
100
AcDbDictionary
280
     1
281
     1
  3
ACAD_SORTENTS
360
10002F2
  0
DICTIONARY
  5
1000335
330
1000327
100
AcDbDictionary
280
     1
281
     1
  3
ACAD_DIMASSOC
360
1000340
  0
DICTIONARY
  5
100034F
330
1000341
100
AcDbDictionary
280
     1
281
     1
  3
ACAD_DIMASSOC
360
100035A
  0
DICTIONARY
  5
1000369
330
100035B
100
AcDbDictionary
280
     1
281
     1
  3
ACAD_DIMASSOC
360
1000374
  0
XRECORD
  5
1000040
102
{ACAD_REACTORS
330
74
102
}
330
74
100
AcDbXrecord
280
     1
300
CIV3D
300
2013
300
CIV3D_F_S
  0
DICTIONARY
  5
100001C
102
{ACAD_REACTORS
330
74
102
}
330
74
100
AcDbDictionary
281
     1
  0
DICTIONARY
  5
100003E
102
{ACAD_REACTORS
330
74
102
}
330
74
100
AcDbDictionary
281
     1
  3
Metric50
350
100003F
  0
DICTIONARY
  5
75
102
{ACAD_REACTORS
330
74
102
}
330
74
100
AcDbDictionary
281
     1
  0
DICTIONARY
  5
76
102
{ACAD_REACTORS
330
74
102
}
330
74
100
AcDbDictionary
281
     1
  3
Layout
350
1D
  3
Model
350
1B
  0
DICTIONARY
  5
FFFFFF
102
{ACAD_REACTORS
330
74
102
}
330
74
100
AcDbDictionary
281
     1
  3
ByBlock
350
1000001
  3
ByLayer
350
1000000
  3
Global
350
1000002
  0
DICTIONARY
  5
100001F
102
{ACAD_REACTORS
330
74
102
}
330
74
100
AcDbDictionary
281
     1
  3
Standard
350
1000020
  0
DICTIONARY
  5
77
102
{ACAD_REACTORS
330
74
102
}
330
74
100
AcDbDictionary
281
     1
  3
Standard
350
7A
  0
DICTIONARY
  5
78
102
{ACAD_REACTORS
330
74
102
}
330
74
100
AcDbDictionary
281
     1
  0
ACDBDICTIONARYWDFLT
  5
79
102
{ACAD_REACTORS
330
74
102
}
330
74
100
AcDbDictionary
281
     1
  3
Normal
350
B
100
AcDbDictionaryWithDefault
340
B
  0
DICTIONARY
  5
1000021
102
{ACAD_REACTORS
330
74
102
}
330
74
100
AcDbDictionary
281
     1
  3
A0
350
1000022
  3
A1
350
1000023
  3
A2
350
1000024
  3
A3
350
1000025
  3
A4
350
1000026
  3
A5
350
1000027
  3
A6
350
1000028
  3
A7
350
1000029
  3
A8
350
100002A
  3
A9
350
100002B
  3
B0
350
100002C
  3
B1
350
100002D
  3
B2
350
100002E
  3
B3
350
100002F
  3
B4
350
1000030
  3
B5
350
1000031
  3
B6
350
1000032
  0
DICTIONARY
  5
100003C
102
{ACAD_REACTORS
330
74
102
}
330
74
100
AcDbDictionary
281
     1
  3
Metric50
350
100003D
  0
DICTIONARY
  5
100001D
102
{ACAD_REACTORS
330
74
102
}
330
74
100
AcDbDictionary
281
     1
  3
Standard
350
100001E
  0
DICTIONARY
  5
1000003
102
{ACAD_REACTORS
330
74
102
}
330
74
100
AcDbDictionary
281
     1
  3
2dWireframe
350
1000008
  3
Basic
350
100000B
  3
Brighten
350
100000F
  3
ColorChange
350
1000013
  3
Conceptual
350
100000D
  3
Dim
350
100000E
  3
EdgeColorOff
350
1000016
  3
Facepattern
350
1000012
  3
Flat
350
1000004
  3
FlatWithEdges
350
1000005
  3
Gouraud
350
1000006
  3
GouraudWithEdges
350
1000007
  3
Hidden
350
100000A
  3
JitterOff
350
1000014
  3
Linepattern
350
1000011
  3
OverhangOff
350
1000015
  3
Realistic
350
100000C
  3
Shaded
350
100001B
  3
Shaded with edges
350
100001A
  3
Shades of Gray
350
1000017
  3
Sketchy
350
1000018
  3
Thicken
350
1000010
  3
Wireframe
350
1000009
  3
X-Ray
350
1000019
  0
XRECORD
  5
1000494
102
{ACAD_REACTORS
330
74
102
}
330
74
100
AcDbXrecord
280
     1
 90
        1
330
100001E
  0
DICTIONARY
  5
1000034
102
{ACAD_REACTORS
330
74
102
}
330
74
100
AcDbDictionary
281
     1
  3
CANNOSCALE
350
1000038
  3
CMLEADERSTYLE
350
1000036
  3
CTABLESTYLE
350
1000035
  3
CVIEWDETAILSTYLE
350
1000487
  3
CVIEWSECTIONSTYLE
350
1000488
  3
LATITUDE
350
100048F
  3
LAYEREVAL
350
100048A
  3
LAYERNOTIFY
350
100048B
  3
LIGHTINGUNITS
350
1000489
  3
LOFTANG1
350
100048D
  3
LOFTANG2
350
100048E
  3
LONGITUDE
350
1000490
  3
MSLTSCALE
350
1000037
  3
SOLIDHIST
350
100048C
  3
XCLIPFRAME
350
1000491
  0
SORTENTSTABLE
  5
10001DC
102
{ACAD_REACTORS
330
10001DB
102
}
330
10001DB
100
AcDbSortentsTable
330
1A
331
100030C
  5
1000302
331
6C
  5
70
331
6D
  5
71
331
5C
  5
6E
331
6E
  5
72
331
4C
  5
5C
331
6F
  5
73
331
3C
  5
4C
331
70
  5
10000A6
331
1000300
  5
1000303
331
71
  5
10000AC
331
60
  5
6F
331
72
  5
10000C0
331
1000301
  5
1000304
331
10002CE
  5
3C
331
1000302
  5
1000305
331
73
  5
10000C4
331
40
  5
50
331
1000303
  5
1000306
331
1000304
  5
1000307
331
1000305
  5
1000308
331
54
  5
6C
331
1000306
  5
1000309
331
44
  5
54
331
34
  5
44
331
1000307
  5
100030A
331
10002D4
  5
34
331
1000308
  5
100030B
331
1000309
  5
100030C
331
58
  5
6D
331
100030A
  5
1000300
331
10002F9
  5
10002F9
331
48
  5
58
331
100030B
  5
1000301
331
38
  5
48
  0
SORTENTSTABLE
  5
10002F2
102
{ACAD_REACTORS
330
10002F1
102
}
330
10002F1
100
AcDbSortentsTable
330
10002DF
  0
DIMASSOC
  5
1000340
102
{ACAD_REACTORS
330
1000335
102
}
330
1000335
100
AcDbDimAssoc
330
1000327
 90
        3
 70
     0
 71
     0
  1
AcDbOsnapPointRef
 72
    11
331
100030B
 73
     2
 91
        0
 40
0.9999999665298082
 10
0.0
 20
0.0
 30
0.0
332
60
332
61
 74
     2
 92
 -5198320
 75
     0
  1
AcDbOsnapPointRef
 72
     1
331
100030C
 73
     2
 91
        0
 40
1.0
 10
0.0
 20
0.0
 30
2.000000000000000E+50
 75
     0
  0
DIMASSOC
  5
100035A
102
{ACAD_REACTORS
330
100034F
102
}
330
100034F
100
AcDbDimAssoc
330
1000341
 90
        3
 70
     0
 71
     0
  1
AcDbOsnapPointRef
 72
    13
331
100030B
 73
     2
 91
        0
 40
0.0
 10
0.0
 20
0.0
 30
2.000000000000000E+50
 75
     0
  1
AcDbOsnapPointRef
 72
    13
331
100030A
 73
     2
 91
        0
 40
0.0
 10
0.0
 20
0.0
 30
2.000000000000000E+50
 75
     0
  0
DIMASSOC
  5
1000374
102
{ACAD_REACTORS
330
1000369
102
}
330
1000369
100
AcDbDimAssoc
330
100035B
 90
        2
 70
     0
 71
     0
  1
AcDbOsnapPointRef
 72
    13
331
100030C
 73
     2
 91
        0
 40
0.0
 10
0.0
 20
0.0
 30
2.000000000000000E+50
 75
     0
  0
ACDBDETAILVIEWSTYLE
  5
100003F
102
{ACAD_REACTORS
330
100003E
102
}
330
100003E
100
AcDbModelDocViewStyle
 70
     0
  3
Metric50
290
     0
100
AcDbDetailViewStyle
 70
     0
 71
     0
 90
        3
 71
     1
340
11
 62
   256
 40
5.0
340
0
 62
   256
 40
5.0
300

 40
0.0
280
     1
 71
     2
340
6
 90
       25
 62
   256
 71
     3
340
11
 62
   256
 40
5.0
 90
        0
 40
15.0
 90
        1
300
%<\AcVar ViewDetailId>% (%<\AcVar ViewScale \f "%sn">%)
 71
     4
340
6
 90
       25
 62
   256
340
6
 90
       25
 62
   256
280
     0
  0
LAYOUT
  5
1D
330
76
100
AcDbPlotSettings
  1

  2

  4

  6

 40
0.0
 41
0.0
 42
0.0
 43
0.0
 44
0.0
 45
0.0
 46
0.0
 47
0.0
 48
0.0
 49
0.0
140
0.0
141
0.0
142
1.0
143
1.0
 70
   688
 72
     1
 73
     0
 74
     5
  7

 75
     0
147
1.0
 76
     0
 77
     2
 78
   300
148
0.0
149
0.0
100
AcDbLayout
  1
Layout
 70
     1
 71
     1
 10
0.0
 20
0.0
 11
210.0
 21
297.0
 12
0.0
 22
0.0
 32
0.0
 14
1.000000000000000E+20
 24
1.000000000000000E+20
 34
1.000000000000000E+20
 15
-1.000000000000000E+20
 25
-1.000000000000000E+20
 35
-1.000000000000000E+20
146
0.0
 13
0.0
 23
0.0
 33
0.0
 16
1.0
 26
0.0
 36
0.0
 17
0.0
 27
1.0
 37
0.0
 76
     0
330
1C
  0
LAYOUT
  5
1B
330
76
100
AcDbPlotSettings
  1

  2

  4

  6

 40
0.0
 41
0.0
 42
0.0
 43
0.0
 44
0.0
 45
0.0
 46
0.0
 47
0.0
 48
0.0
 49
0.0
140
0.0
141
0.0
142
1.0
143
1.0
 70
  1712
 72
     1
 73
     0
 74
     0
  7

 75
     0
147
1.0
 76
     0
 77
     2
 78
   300
148
0.0
149
0.0
100
AcDbLayout
  1
Model
 70
     1
 71
     0
 10
0.0
 20
0.0
 11
12.0
 21
9.0
 12
0.0
 22
0.0
 32
0.0
 14
0.0
 24
0.0
 34
0.0
 15
0.0
 25
0.0
 35
0.0
146
0.0
 13
0.0
 23
0.0
 33
0.0
 16
1.0
 26
0.0
 36
0.0
 17
0.0
 27
1.0
 37
0.0
 76
     0
330
1A
331
2
  0
MATERIAL
  5
1000001
102
{ACAD_XDICTIONARY
360
1000497
102
}
102
{ACAD_REACTORS
330
FFFFFF
102
}
330
FFFFFF
100
AcDbMaterial
  1
ByBlock
 72
     0
 77
     0
171
     0
175
     0
179
     0
  0
MATERIAL
  5
1000000
102
{ACAD_XDICTIONARY
360
1000495
102
}
102
{ACAD_REACTORS
330
FFFFFF
102
}
330
FFFFFF
100
AcDbMaterial
  1
ByLayer
 72
     0
 77
     0
171
     0
175
     0
179
     0
  0
MATERIAL
  5
1000002
102
{ACAD_XDICTIONARY
360
1000499
102
}
102
{ACAD_REACTORS
330
FFFFFF
102
}
330
FFFFFF
100
AcDbMaterial
  1
Global
 72
     0
 77
     0
171
     0
175
     0
179
     0
  0
MLEADERSTYLE
  5
1000020
102
{ACAD_REACTORS
330
100001F
102
}
330
100001F
100
AcDbMLeaderStyle
170
     2
171
     1
172
     0
 90
        2
 40
0.0
 41
0.0
173
     1
 91
-1056964608
340
4
 92
       -2
290
     1
 42
0.4
291
     1
 43
2.0
  3
Standard
 44
0.18
300

342
11
174
     1
178
     1
175
     1
176
     0
 93
-1056964608
 45
0.2
292
     0
297
     0
 46
5.0
 94
-1056964608
 47
1.0
 49
1.0
140
1.0
293
     1
141
0.0
294
     1
177
     0
142
1.0
295
     0
296
     0
143
0.125
1001
ACAD_MLEADERVER
1070
     2
  0
MLINESTYLE
  5
7A
102
{ACAD_REACTORS
330
77
102
}
330
77
100
AcDbMlineStyle
  2
STANDARD
 70
     0
  3

 62
   256
 51
90.0
 52
90.0
 71
     2
 49
0.5
 62
   256
  6
BYLAYER
 49
-0.5
 62
   256
  6
BYLAYER
  0
ACDBPLACEHOLDER
  5
B
330
79
  0
SCALE
  5
1000022
102
{ACAD_REACTORS
330
1000021
102
}
330
1000021
100
AcDbScale
 70
     0
300
1:1
140
1.0
141
1.0
290
     1
  0
SCALE
  5
1000023
102
{ACAD_REACTORS
330
1000021
102
}
330
1000021
100
AcDbScale
 70
     0
300
1:2
140
1.0
141
2.0
290
     0
  0
SCALE
  5
1000024
102
{ACAD_REACTORS
330
1000021
102
}
330
1000021
100
AcDbScale
 70
     0
300
1:4
140
1.0
141
4.0
290
     0
  0
SCALE
  5
1000025
102
{ACAD_REACTORS
330
1000021
102
}
330
1000021
100
AcDbScale
 70
     0
300
1:5
140
1.0
141
5.0
290
     0
  0
SCALE
  5
1000026
102
{ACAD_REACTORS
330
1000021
102
}
330
1000021
100
AcDbScale
 70
     0
300
1:8
140
1.0
141
8.0
290
     0
  0
SCALE
  5
1000027
102
{ACAD_REACTORS
330
1000021
102
}
330
1000021
100
AcDbScale
 70
     0
300
1:10
140
1.0
141
10.0
290
     0
  0
SCALE
  5
1000028
102
{ACAD_REACTORS
330
1000021
102
}
330
1000021
100
AcDbScale
 70
     0
300
1:16
140
1.0
141
16.0
290
     0
  0
SCALE
  5
1000029
102
{ACAD_REACTORS
330
1000021
102
}
330
1000021
100
AcDbScale
 70
     0
300
1:20
140
1.0
141
20.0
290
     0
  0
SCALE
  5
100002A
102
{ACAD_REACTORS
330
1000021
102
}
330
1000021
100
AcDbScale
 70
     0
300
1:30
140
1.0
141
30.0
290
     0
  0
SCALE
  5
100002B
102
{ACAD_REACTORS
330
1000021
102
}
330
1000021
100
AcDbScale
 70
     0
300
1:40
140
1.0
141
40.0
290
     0
  0
SCALE
  5
100002C
102
{ACAD_REACTORS
330
1000021
102
}
330
1000021
100
AcDbScale
 70
     0
300
1:50
140
1.0
141
50.0
290
     0
  0
SCALE
  5
100002D
102
{ACAD_REACTORS
330
1000021
102
}
330
1000021
100
AcDbScale
 70
     0
300
1:100
140
1.0
141
100.0
290
     0
  0
SCALE
  5
100002E
102
{ACAD_REACTORS
330
1000021
102
}
330
1000021
100
AcDbScale
 70
     0
300
2:1
140
2.0
141
1.0
290
     0
  0
SCALE
  5
100002F
102
{ACAD_REACTORS
330
1000021
102
}
330
1000021
100
AcDbScale
 70
     0
300
4:1
140
4.0
141
1.0
290
     0
  0
SCALE
  5
1000030
102
{ACAD_REACTORS
330
1000021
102
}
330
1000021
100
AcDbScale
 70
     0
300
8:1
140
8.0
141
1.0
290
     0
  0
SCALE
  5
1000031
102
{ACAD_REACTORS
330
1000021
102
}
330
1000021
100
AcDbScale
 70
     0
300
10:1
140
10.0
141
1.0
290
     0
  0
SCALE
  5
1000032
102
{ACAD_REACTORS
330
1000021
102
}
330
1000021
100
AcDbScale
 70
     0
300
100:1
140
100.0
141
1.0
290
     0
  0
ACDBSECTIONVIEWSTYLE
  5
100003D
102
{ACAD_REACTORS
330
100003C
102
}
330
100003C
100
AcDbModelDocViewStyle
 70
     0
  3
Metric50
290
     0
100
AcDbSectionViewStyle
 70
     0
 71
     0
 90
      102
 71
     1
340
11
 62
   256
 40
5.0
340
0
340
0
 62
   256
 40
5.0
300
I, O, Q, S, X, Z
 40
10.0
 90
        0
 40
2.5
 90
        0
 71
     2
340
6
 90
       25
 62
   256
340
6
 90
       50
 62
   256
 40
5.0
 40
2.5
 40
5.0
 71
     3
340
11
 62
   256
 40
5.0
 90
        0
 40
15.0
 90
        1
300
%<\AcVar ViewSectionStartId>%-%<\AcVar ViewSectionEndId>% (%<\AcVar ViewScale \f "%sn">%)
 71
     4
 62
   256
 62
   257
300
ANSI31
 40
1.0
 90
        0
290
     0
290
     0
 90
        6
 40
0.0
 40
1.570796326794896
 40
0.2617993877991494
 40
1.308996938995747
 40
-0.2617993877991494
 40
1.832595714594046
  0
TABLESTYLE
  5
100001E
102
{ACAD_XDICTIONARY
360
1000492
102
}
102
{ACAD_REACTORS
330
100001D
102
}
330
100001D
100
AcDbTableStyle
  3
Standard
 70
     0
 71
     0
 40
1.5
 41
1.5
280
     0
281
     0
  7
STANDARD
140
4.5
170
     2
 62
     7
 63
     7
283
     0
274
    -2
284
     1
 64
     0
275
    -2
285
     1
 65
     0
276
    -2
286
     1
 66
     0
277
    -2
287
     1
 67
     0
278
    -2
288
     1
 68
     0
279
    -2
289
     1
 69
     0
  7
STANDARD
140
6.0
170
     5
 62
     7
 63
     7
283
     0
274
    -2
284
     1
 64
     0
275
    -2
285
     1
 65
     0
276
    -2
286
     1
 66
     0
277
    -2
287
     1
 67
     0
278
    -2
288
     1
 68
     0
279
    -2
289
     1
 69
     0
  7
STANDARD
140
4.5
170
     5
 62
     7
 63
     7
283
     0
274
    -2
284
     1
 64
     0
275
    -2
285
     1
 65
     0
276
    -2
286
     1
 66
     0
277
    -2
287
     1
 67
     0
278
    -2
288
     1
 68
     0
279
    -2
289
     1
 69
     0
  0
VISUALSTYLE
  5
1000008
102
{ACAD_XDICTIONARY
360
10004A3
102
}
102
{ACAD_REACTORS
330
1000003
102
}
330
1000003
100
AcDbVisualStyle
  2
2dWireframe
 70
     4
 71
     0
 72
     2
 73
     0
 90
        0
 40
-0.6
 41
-30.0
 62
     5
 63
     7
421
 16777215
 74
     1
 91
        4
 64
     7
 65
   257
 75
     1
175
     1
 42
1.0
 92
        0
 66
   257
 43
1.0
 76
     1
 77
     6
 78
     2
 67
     7
 79
     5
170
     0
171
     0
290
     0
174
     0
 93
        1
 44
0.0
173
     0
291
     0
 45
0.0
1001
ACAD
1000
AcDbSavedByObjectVersion
1070
     0
  0
VISUALSTYLE
  5
100000B
102
{ACAD_XDICTIONARY
360
10004A9
102
}
102
{ACAD_REACTORS
330
1000003
102
}
330
1000003
100
AcDbVisualStyle
  2
Basic
 70
     7
 71
     1
 72
     0
 73
     1
 90
        0
 40
-0.6
 41
-30.0
 62
     5
 63
     7
421
 16777215
 74
     0
 91
        4
 64
     7
 65
   257
 75
     1
175
     1
 42
1.0
 92
        8
 66
     7
 43
1.0
 76
     1
 77
     6
 78
     2
 67
     7
 79
     5
170
     0
171
     0
290
     0
174
     0
 93
        1
 44
0.0
173
     0
291
     1
 45
0.0
1001
ACAD
1000
AcDbSavedByObjectVersion
1070
     0
  0
VISUALSTYLE
  5
100000F
102
{ACAD_XDICTIONARY
360
10004B1
102
}
102
{ACAD_REACTORS
330
1000003
102
}
330
1000003
100
AcDbVisualStyle
  2
Brighten
 70
    12
 71
     2
 72
     2
 73
     0
 90
        0
 40
-0.6
 41
-30.0
 62
     5
 63
     7
421
 16777215
 74
     1
 91
        4
 64
     7
 65
   257
 75
     1
175
     1
 42
1.0
 92
        8
 66
     7
 43
1.0
 76
     1
 77
     6
 78
     2
 67
     7
 79
     5
170
     0
171
     0
290
     0
174
     0
 93
        1
 44
50.0
173
     0
291
     1
 45
0.0
1001
ACAD
1000
AcDbSavedByObjectVersion
1070
     0
  0
VISUALSTYLE
  5
1000013
102
{ACAD_XDICTIONARY
360
10004B9
102
}
102
{ACAD_REACTORS
330
1000003
102
}
330
1000003
100
AcDbVisualStyle
  2
ColorChange
 70
    16
 71
     2
 72
     2
 73
     3
 90
        0
 40
-0.6
 41
-30.0
 62
     5
 63
     8
421
  8421504
 74
     1
 91
        4
 64
     7
 65
   257
 75
     1
175
     1
 42
1.0
 92
        8
 66
     8
424
  8421504
 43
1.0
 76
     1
 77
     6
 78
     2
 67
     7
 79
     5
170
     0
171
     0
290
     0
174
     0
 93
        1
 44
0.0
173
     0
291
     1
 45
0.0
1001
ACAD
1000
AcDbSavedByObjectVersion
1070
     0
  0
VISUALSTYLE
  5
100000D
102
{ACAD_XDICTIONARY
360
10004AD
102
}
102
{ACAD_REACTORS
330
1000003
102
}
330
1000003
100
AcDbVisualStyle
  2
Conceptual
 70
     9
 71
     3
 72
     2
 73
     0
 90
        0
 40
-0.6
 41
-30.0
 62
     5
 63
     7
421
 16777215
 74
     2
 91
        2
 64
     7
 65
   257
 75
     1
175
     1
 42
179.0
 92
        8
 66
     7
 43
1.0
 76
     1
 77
     6
 78
     2
 67
     7
 79
     3
170
     0
171
     0
290
     0
174
     0
 93
        1
 44
0.0
173
     0
291
     0
 45
0.0
1001
ACAD
1000
AcDbSavedByObjectVersion
1070
     0
  0
VISUALSTYLE
  5
100000E
102
{ACAD_XDICTIONARY
360
10004AF
102
}
102
{ACAD_REACTORS
330
1000003
102
}
330
1000003
100
AcDbVisualStyle
  2
Dim
 70
    11
 71
     2
 72
     2
 73
     0
 90
        0
 40
-0.6
 41
-30.0
 62
     5
 63
     7
421
 16777215
 74
     1
 91
        4
 64
     7
 65
   257
 75
     1
175
     1
 42
1.0
 92
        8
 66
     7
 43
1.0
 76
     1
 77
     6
 78
     2
 67
     7
 79
     5
170
     0
171
     0
290
     0
174
     0
 93
        1
 44
-50.0
173
     0
291
     1
 45
0.0
1001
ACAD
1000
AcDbSavedByObjectVersion
1070
     0
  0
VISUALSTYLE
  5
1000016
102
{ACAD_XDICTIONARY
360
10004BF
102
}
102
{ACAD_REACTORS
330
1000003
102
}
330
1000003
100
AcDbVisualStyle
  2
EdgeColorOff
 70
    22
 71
     2
 72
     2
 73
     0
 90
        0
 40
-0.6
 41
-30.0
 62
     5
 63
     7
421
 16777215
 74
     1
 91
        4
 64
     7
 65
   257
 75
     1
175
     1
 42
1.0
 92
        8
 66
     7
 43
1.0
 76
     1
 77
     6
 78
     2
 67
     7
 79
     5
170
     0
171
     0
290
     0
174
     0
 93
        1
 44
0.0
173
     0
291
     1
 45
0.0
1001
ACAD
1000
AcDbSavedByObjectVersion
1070
     0
  0
VISUALSTYLE
  5
1000012
102
{ACAD_XDICTIONARY
360
10004B7
102
}
102
{ACAD_REACTORS
330
1000003
102
}
330
1000003
100
AcDbVisualStyle
  2
Facepattern
 70
    15
 71
     2
 72
     2
 73
     0
 90
        0
 40
-0.6
 41
-30.0
 62
     5
 63
     7
421
 16777215
 74
     1
 91
        4
 64
     7
 65
   257
 75
     1
175
     1
 42
1.0
 92
        8
 66
     7
 43
1.0
 76
     1
 77
     6
 78
     2
 67
     7
 79
     5
170
     0
171
     0
290
     0
174
     0
 93
        1
 44
0.0
173
     0
291
     1
 45
0.0
1001
ACAD
1000
AcDbSavedByObjectVersion
1070
     0
  0
VISUALSTYLE
  5
1000004
102
{ACAD_XDICTIONARY
360
100049B
102
}
102
{ACAD_REACTORS
330
1000003
102
}
330
1000003
100
AcDbVisualStyle
  2
Flat
 70
     0
 71
     2
 72
     1
 73
     1
 90
        2
 40
-0.6
 41
30.0
 62
     5
 63
     7
421
 16777215
 74
     0
 91
        0
 64
     7
 65
   257
 75
     1
175
     1
 42
1.0
 92
        8
 66
     7
 43
1.0
 76
     1
 77
     6
 78
     2
 67
     7
 79
     5
170
     0
171
     0
290
     0
174
     0
 93
       13
 44
0.0
173
     0
291
     1
 45
0.0
1001
ACAD
1000
AcDbSavedByObjectVersion
1070
     0
  0
VISUALSTYLE
  5
1000005
102
{ACAD_XDICTIONARY
360
100049D
102
}
102
{ACAD_REACTORS
330
1000003
102
}
330
1000003
100
AcDbVisualStyle
  2
FlatWithEdges
 70
     1
 71
     2
 72
     1
 73
     1
 90
        2
 40
-0.6
 41
30.0
 62
     5
 63
     7
421
 16777215
 74
     1
 91
        0
 64
     7
 65
   257
 75
     1
175
     1
 42
1.0
 92
        0
 66
   257
 43
1.0
 76
     1
 77
     6
 78
     2
 67
     7
 79
     5
170
     0
171
     0
290
     0
174
     0
 93
       13
 44
0.0
173
     0
291
     1
 45
0.0
1001
ACAD
1000
AcDbSavedByObjectVersion
1070
     0
  0
VISUALSTYLE
  5
1000006
102
{ACAD_XDICTIONARY
360
100049F
102
}
102
{ACAD_REACTORS
330
1000003
102
}
330
1000003
100
AcDbVisualStyle
  2
Gouraud
 70
     2
 71
     2
 72
     2
 73
     1
 90
        2
 40
-0.6
 41
30.0
 62
     5
 63
     7
421
 16777215
 74
     0
 91
        0
 64
     7
 65
   257
 75
     1
175
     1
 42
1.0
 92
        0
 66
     7
 43
1.0
 76
     1
 77
     6
 78
     2
 67
     7
 79
     5
170
     0
171
     0
290
     0
174
     0
 93
       13
 44
0.0
173
     0
291
     1
 45
0.0
1001
ACAD
1000
AcDbSavedByObjectVersion
1070
     0
  0
VISUALSTYLE
  5
1000007
102
{ACAD_XDICTIONARY
360
10004A1
102
}
102
{ACAD_REACTORS
330
1000003
102
}
330
1000003
100
AcDbVisualStyle
  2
GouraudWithEdges
 70
     3
 71
     2
 72
     2
 73
     1
 90
        2
 40
-0.6
 41
30.0
 62
     5
 63
     7
421
 16777215
 74
     1
 91
        0
 64
     7
 65
   257
 75
     1
175
     1
 42
1.0
 92
        0
 66
   257
 43
1.0
 76
     1
 77
     6
 78
     2
 67
     7
 79
     5
170
     0
171
     0
290
     0
174
     0
 93
       13
 44
0.0
173
     0
291
     1
 45
0.0
1001
ACAD
1000
AcDbSavedByObjectVersion
1070
     0
  0
VISUALSTYLE
  5
100000A
102
{ACAD_XDICTIONARY
360
10004A7
102
}
102
{ACAD_REACTORS
330
1000003
102
}
330
1000003
100
AcDbVisualStyle
  2
Hidden
 70
     6
 71
     1
 72
     2
 73
     2
 90
        0
 40
-0.6
 41
-30.0
 62
     5
 63
     7
421
 16777215
 74
     2
 91
        2
 64
     7
 65
   257
 75
     2
175
     1
 42
40.0
 92
        0
 66
   257
 43
1.0
 76
     1
 77
     6
 78
     2
 67
     7
 79
     3
170
     0
171
     0
290
     0
174
     0
 93
        1
 44
0.0
173
     0
291
     0
 45
0.0
1001
ACAD
1000
AcDbSavedByObjectVersion
1070
     0
  0
VISUALSTYLE
  5
1000014
102
{ACAD_XDICTIONARY
360
10004BB
102
}
102
{ACAD_REACTORS
330
1000003
102
}
330
1000003
100
AcDbVisualStyle
  2
JitterOff
 70
    20
 71
     2
 72
     2
 73
     0
 90
        0
 40
-0.6
 41
-30.0
 62
     5
 63
     7
421
 16777215
 74
     1
 91
        4
 64
     7
 65
   257
 75
     1
175
     1
 42
1.0
 92
       10
 66
     7
 43
1.0
 76
     1
 77
     6
 78
     2
 67
     7
 79
     5
170
     0
171
     0
290
     0
174
     0
 93
        1
 44
0.0
173
     0
291
     1
 45
0.0
1001
ACAD
1000
AcDbSavedByObjectVersion
1070
     0
  0
VISUALSTYLE
  5
1000011
102
{ACAD_XDICTIONARY
360
10004B5
102
}
102
{ACAD_REACTORS
330
1000003
102
}
330
1000003
100
AcDbVisualStyle
  2
Linepattern
 70
    14
 71
     2
 72
     2
 73
     0
 90
        0
 40
-0.6
 41
-30.0
 62
     5
 63
     7
421
 16777215
 74
     1
 91
        4
 64
     7
 65
   257
 75
     7
175
     7
 42
1.0
 92
        8
 66
     7
 43
1.0
 76
     1
 77
     6
 78
     2
 67
     7
 79
     5
170
     0
171
     0
290
     0
174
     0
 93
        1
 44
0.0
173
     0
291
     1
 45
0.0
1001
ACAD
1000
AcDbSavedByObjectVersion
1070
     0
  0
VISUALSTYLE
  5
1000015
102
{ACAD_XDICTIONARY
360
10004BD
102
}
102
{ACAD_REACTORS
330
1000003
102
}
330
1000003
100
AcDbVisualStyle
  2
OverhangOff
 70
    21
 71
     2
 72
     2
 73
     0
 90
        0
 40
-0.6
 41
-30.0
 62
     5
 63
     7
421
 16777215
 74
     1
 91
        4
 64
     7
 65
   257
 75
     1
175
     1
 42
1.0
 92
        9
 66
     7
 43
1.0
 76
     1
 77
     6
 78
     2
 67
     7
 79
     5
170
     0
171
     0
290
     0
174
     0
 93
        1
 44
0.0
173
     0
291
     1
 45
0.0
1001
ACAD
1000
AcDbSavedByObjectVersion
1070
     0
  0
VISUALSTYLE
  5
100000C
102
{ACAD_XDICTIONARY
360
10004AB
102
}
102
{ACAD_REACTORS
330
1000003
102
}
330
1000003
100
AcDbVisualStyle
  2
Realistic
 70
     8
 71
     2
 72
     3
 73
     0
 90
        2
 40
-0.6
 41
30.0
 62
     5
 63
     7
421
 16777215
 74
     0
 91
        0
 64
     7
 65
   257
 75
     1
175
     1
 42
1.0
 92
        8
 66
   257
 43
1.0
 76
     1
 77
     6
 78
     2
 67
     7
 79
     3
170
     0
171
     0
290
     0
174
     0
 93
       13
 44
0.0
173
     0
291
     0
 45
0.0
1001
ACAD
1000
AcDbSavedByObjectVersion
1070
     0
  0
VISUALSTYLE
  5
100001B
102
{ACAD_XDICTIONARY
360
10004C9
102
}
102
{ACAD_REACTORS
330
1000003
102
}
330
1000003
100
AcDbVisualStyle
  2
Shaded
 70
    27
 71
     2
 72
     2
 73
     1
 90
        2
 40
-0.6
 41
30.0
 62
     5
 63
     7
421
 16777215
 74
     0
 91
        4
 64
     7
 65
   257
 75
     1
175
     1
 42
1.0
 92
        8
 66
   257
 43
1.0
 76
     1
 77
     6
 78
     2
 67
     8
425
  7895160
 79
     3
170
     0
171
     0
290
     0
174
     0
 93
        5
 44
0.0
173
     0
291
     0
 45
0.0
1001
ACAD
1000
AcDbSavedByObjectVersion
1070
     0
  0
VISUALSTYLE
  5
100001A
102
{ACAD_XDICTIONARY
360
10004C7
102
}
102
{ACAD_REACTORS
330
1000003
102
}
330
1000003
100
AcDbVisualStyle
  2
Shaded with edges
 70
    26
 71
     2
 72
     2
 73
     1
 90
        2
 40
-0.6
 41
30.0
 62
     5
 63
     7
421
 16777215
 74
     1
 91
       10
 64
     7
 65
   257
 75
     2
175
     1
 42
1.0
 92
        8
 66
   257
 43
1.0
 76
     1
 77
     6
 78
     2
 67
     7
 79
     3
170
     0
171
     0
290
     0
174
     0
 93
        5
 44
0.0
173
     0
291
     0
 45
0.0
1001
ACAD
1000
AcDbSavedByObjectVersion
1070
     0
  0
VISUALSTYLE
  5
1000017
102
{ACAD_XDICTIONARY
360
10004C1
102
}
102
{ACAD_REACTORS
330
1000003
102
}
330
1000003
100
AcDbVisualStyle
  2
Shades of Gray
 70
    23
 71
     2
 72
     2
 73
     3
 90
        0
 40
-0.6
 41
-30.0
 62
     5
 63
     7
421
 16777215
 74
     2
 91
        2
 64
     7
 65
     7
 75
     1
175
     1
 42
40.0
 92
        8
 66
     7
 43
1.0
 76
     1
 77
     6
 78
     2
 67
     7
 79
     3
170
     0
171
     0
290
     0
174
     0
 93
        1
 44
0.0
173
     0
291
     0
 45
0.0
1001
ACAD
1000
AcDbSavedByObjectVersion
1070
     0
  0
VISUALSTYLE
  5
1000018
102
{ACAD_XDICTIONARY
360
10004C3
102
}
102
{ACAD_REACTORS
330
1000003
102
}
330
1000003
100
AcDbVisualStyle
  2
Sketchy
 70
    24
 71
     1
 72
     2
 73
     2
 90
        0
 40
-0.6
 41
-30.0
 62
     5
 63
     7
421
 16777215
 74
     2
 91
        2
 64
     7
 65
     7
 75
     1
175
     1
 42
40.0
 92
       11
 66
     7
 43
1.0
 76
     1
 77
     6
 78
     2
 67
     7
 79
     6
170
     0
171
     0
290
     0
174
     0
 93
        1
 44
0.0
173
     0
291
     0
 45
0.0
1001
ACAD
1000
AcDbSavedByObjectVersion
1070
     0
  0
VISUALSTYLE
  5
1000010
102
{ACAD_XDICTIONARY
360
10004B3
102
}
102
{ACAD_REACTORS
330
1000003
102
}
330
1000003
100
AcDbVisualStyle
  2
Thicken
 70
    13
 71
     2
 72
     2
 73
     0
 90
        0
 40
-0.6
 41
-30.0
 62
     5
 63
     7
421
 16777215
 74
     1
 91
        4
 64
     7
 65
   257
 75
     1
175
     1
 42
1.0
 92
       12
 66
     7
 43
1.0
 76
     1
 77
     6
 78
     2
 67
     7
 79
     5
170
     0
171
     0
290
     0
174
     0
 93
        1
 44
0.0
173
     0
291
     1
 45
0.0
1001
ACAD
1000
AcDbSavedByObjectVersion
1070
     0
  0
VISUALSTYLE
  5
1000009
102
{ACAD_XDICTIONARY
360
10004A5
102
}
102
{ACAD_REACTORS
330
1000003
102
}
330
1000003
100
AcDbVisualStyle
  2
Wireframe
 70
     5
 71
     0
 72
     2
 73
     0
 90
        0
 40
-0.6
 41
-30.0
 62
     5
 63
     7
421
 16777215
 74
     1
 91
        4
 64
     7
 65
   257
 75
     1
175
     1
 42
1.0
 92
        0
 66
   257
 43
1.0
 76
     1
 77
     6
 78
     2
 67
     7
 79
     3
170
     0
171
     0
290
     0
174
     0
 93
        1
 44
0.0
173
     0
291
     0
 45
0.0
1001
ACAD
1000
AcDbSavedByObjectVersion
1070
     0
  0
VISUALSTYLE
  5
1000019
102
{ACAD_XDICTIONARY
360
10004C5
102
}
102
{ACAD_REACTORS
330
1000003
102
}
330
1000003
100
AcDbVisualStyle
  2
X-Ray
 70
    25
 71
     2
 72
     2
 73
     1
 90
        1
 40
0.5
 41
-30.0
 62
     5
 63
     7
421
 16777215
 74
     1
 91
        0
 64
     7
 65
   257
 75
     1
175
     1
 42
1.0
 92
        8
 66
     7
 43
1.0
 76
     1
 77
     6
 78
     2
 67
     7
 79
     3
170
     0
171
     0
290
     0
174
     0
 93
       13
 44
0.0
173
     0
291
     0
 45
0.0
1001
ACAD
1000
AcDbSavedByObjectVersion
1070
     0
  0
DICTIONARYVAR
  5
1000038
102
{ACAD_REACTORS
330
1000034
102
}
330
1000034
100
DictionaryVariables
280
     0
  1
1:1
  0
DICTIONARYVAR
  5
1000036
102
{ACAD_REACTORS
330
1000034
102
}
330
1000034
100
DictionaryVariables
280
     0
  1
STANDARD
  0
DICTIONARYVAR
  5
1000035
102
{ACAD_REACTORS
330
1000034
102
}
330
1000034
100
DictionaryVariables
280
     0
  1
STANDARD
  0
DICTIONARYVAR
  5
1000487
102
{ACAD_REACTORS
330
1000034
102
}
330
1000034
100
DictionaryVariables
280
     0
  1
Metric50
  0
DICTIONARYVAR
  5
1000488
102
{ACAD_REACTORS
330
1000034
102
}
330
1000034
100
DictionaryVariables
280
     0
  1
Metric50
  0
DICTIONARYVAR
  5
100048F
102
{ACAD_REACTORS
330
1000034
102
}
330
1000034
100
DictionaryVariables
280
     0
  1
0.000000
  0
DICTIONARYVAR
  5
100048A
102
{ACAD_REACTORS
330
1000034
102
}
330
1000034
100
DictionaryVariables
280
     0
  1
0
  0
DICTIONARYVAR
  5
100048B
102
{ACAD_REACTORS
330
1000034
102
}
330
1000034
100
DictionaryVariables
280
     0
  1
0
  0
DICTIONARYVAR
  5
1000489
102
{ACAD_REACTORS
330
1000034
102
}
330
1000034
100
DictionaryVariables
280
     0
  1
2
  0
DICTIONARYVAR
  5
100048D
102
{ACAD_REACTORS
330
1000034
102
}
330
1000034
100
DictionaryVariables
280
     0
  1
1.570796
  0
DICTIONARYVAR
  5
100048E
102
{ACAD_REACTORS
330
1000034
102
}
330
1000034
100
DictionaryVariables
280
     0
  1
1.570796
  0
DICTIONARYVAR
  5
1000490
102
{ACAD_REACTORS
330
1000034
102
}
330
1000034
100
DictionaryVariables
280
     0
  1
0.000000
  0
DICTIONARYVAR
  5
1000037
102
{ACAD_REACTORS
330
1000034
102
}
330
1000034
100
DictionaryVariables
280
     0
  1
0
  0
DICTIONARYVAR
  5
100048C
102
{ACAD_REACTORS
330
1000034
102
}
330
1000034
100
DictionaryVariables
280
     0
  1
1
  0
DICTIONARYVAR
  5
1000491
102
{ACAD_REACTORS
330
1000034
102
}
330
1000034
100
DictionaryVariables
280
     0
  1
2
  0
DICTIONARY
  5
1000497
330
1000001
100
AcDbDictionary
280
     1
281
     1
  3
ACAD_XREC_ROUNDTRIP
360
1000498
  0
DICTIONARY
  5
1000495
330
1000000
100
AcDbDictionary
280
     1
281
     1
  3
ACAD_XREC_ROUNDTRIP
360
1000496
  0
DICTIONARY
  5
1000499
330
1000002
100
AcDbDictionary
280
     1
281
     1
  3
ACAD_XREC_ROUNDTRIP
360
100049A
  0
DICTIONARY
  5
1000492
330
100001E
100
AcDbDictionary
280
     1
281
     1
  3
ACAD_ROUNDTRIP_2008_TABLESTYLE_CELLSTYLEMAP
360
1000493
  3
ACAD_XREC_ROUNDTRIP
360
10004CB
  0
DICTIONARY
  5
10004A3
330
1000008
100
AcDbDictionary
280
     1
281
     1
  3
ACAD_XREC_ROUNDTRIP
360
10004A4
  0
DICTIONARY
  5
10004A9
330
100000B
100
AcDbDictionary
280
     1
281
     1
  3
ACAD_XREC_ROUNDTRIP
360
10004AA
  0
DICTIONARY
  5
10004B1
330
100000F
100
AcDbDictionary
280
     1
281
     1
  3
ACAD_XREC_ROUNDTRIP
360
10004B2
  0
DICTIONARY
  5
10004B9
330
1000013
100
AcDbDictionary
280
     1
281
     1
  3
ACAD_XREC_ROUNDTRIP
360
10004BA
  0
DICTIONARY
  5
10004AD
330
100000D
100
AcDbDictionary
280
     1
281
     1
  3
ACAD_XREC_ROUNDTRIP
360
10004AE
  0
DICTIONARY
  5
10004AF
330
100000E
100
AcDbDictionary
280
     1
281
     1
  3
ACAD_XREC_ROUNDTRIP
360
10004B0
  0
DICTIONARY
  5
10004BF
330
1000016
100
AcDbDictionary
280
     1
281
     1
  3
ACAD_XREC_ROUNDTRIP
360
10004C0
  0
DICTIONARY
  5
10004B7
330
1000012
100
AcDbDictionary
280
     1
281
     1
  3
ACAD_XREC_ROUNDTRIP
360
10004B8
  0
DICTIONARY
  5
100049B
330
1000004
100
AcDbDictionary
280
     1
281
     1
  3
ACAD_XREC_ROUNDTRIP
360
100049C
  0
DICTIONARY
  5
100049D
330
1000005
100
AcDbDictionary
280
     1
281
     1
  3
ACAD_XREC_ROUNDTRIP
360
100049E
  0
DICTIONARY
  5
100049F
330
1000006
100
AcDbDictionary
280
     1
281
     1
  3
ACAD_XREC_ROUNDTRIP
360
10004A0
  0
DICTIONARY
  5
10004A1
330
1000007
100
AcDbDictionary
280
     1
281
     1
  3
ACAD_XREC_ROUNDTRIP
360
10004A2
  0
DICTIONARY
  5
10004A7
330
100000A
100
AcDbDictionary
280
     1
281
     1
  3
ACAD_XREC_ROUNDTRIP
360
10004A8
  0
DICTIONARY
  5
10004BB
330
1000014
100
AcDbDictionary
280
     1
281
     1
  3
ACAD_XREC_ROUNDTRIP
360
10004BC
  0
DICTIONARY
  5
10004B5
330
1000011
100
AcDbDictionary
280
     1
281
     1
  3
ACAD_XREC_ROUNDTRIP
360
10004B6
  0
DICTIONARY
  5
10004BD
330
1000015
100
AcDbDictionary
280
     1
281
     1
  3
ACAD_XREC_ROUNDTRIP
360
10004BE
  0
DICTIONARY
  5
10004AB
330
100000C
100
AcDbDictionary
280
     1
281
     1
  3
ACAD_XREC_ROUNDTRIP
360
10004AC
  0
DICTIONARY
  5
10004C9
330
100001B
100
AcDbDictionary
280
     1
281
     1
  3
ACAD_XREC_ROUNDTRIP
360
10004CA
  0
DICTIONARY
  5
10004C7
330
100001A
100
AcDbDictionary
280
     1
281
     1
  3
ACAD_XREC_ROUNDTRIP
360
10004C8
  0
DICTIONARY
  5
10004C1
330
1000017
100
AcDbDictionary
280
     1
281
     1
  3
ACAD_XREC_ROUNDTRIP
360
10004C2
  0
DICTIONARY
  5
10004C3
330
1000018
100
AcDbDictionary
280
     1
281
     1
  3
ACAD_XREC_ROUNDTRIP
360
10004C4
  0
DICTIONARY
  5
10004B3
330
1000010
100
AcDbDictionary
280
     1
281
     1
  3
ACAD_XREC_ROUNDTRIP
360
10004B4
  0
DICTIONARY
  5
10004A5
330
1000009
100
AcDbDictionary
280
     1
281
     1
  3
ACAD_XREC_ROUNDTRIP
360
10004A6
  0
DICTIONARY
  5
10004C5
330
1000019
100
AcDbDictionary
280
     1
281
     1
  3
ACAD_XREC_ROUNDTRIP
360
10004C6
  0
XRECORD
  5
1000498
102
{ACAD_REACTORS
330
1000497
102
}
330
1000497
100
AcDbXrecord
280
     1
102
MATERIAL
148
0.0
149
0.0
149
0.0
 93
        0
 94
      127
282
     0
 72
     0
 77
     0
171
     0
175
     0
179
     0
273
     0
  0
XRECORD
  5
1000496
102
{ACAD_REACTORS
330
1000495
102
}
330
1000495
100
AcDbXrecord
280
     1
102
MATERIAL
148
0.0
149
0.0
149
0.0
 93
        0
 94
      127
282
     0
 72
     0
 77
     0
171
     0
175
     0
179
     0
273
     0
  0
XRECORD
  5
100049A
102
{ACAD_REACTORS
330
1000499
102
}
330
1000499
100
AcDbXrecord
280
     1
102
MATERIAL
148
0.0
149
0.0
149
0.0
 93
        0
 94
      127
282
     0
 72
     0
 77
     0
171
     0
175
     0
179
     0
273
     0
  0
CELLSTYLEMAP
  5
1000493
102
{ACAD_REACTORS
330
1000492
102
}
330
1000492
100
AcDbCellStyleMap
 90
        3
300
CELLSTYLE
  1
TABLEFORMAT_BEGIN
 90
        5
170
     1
 91
        0
 92
    32768
 62
   257
 93
        1
300
CONTENTFORMAT
  1
CONTENTFORMAT_BEGIN
 90
        0
 91
        0
 92
        4
 93
        0
300

 40
0.0
140
1.0
 94
        5
 62
     7
340
11
144
6.0
309
CONTENTFORMAT_END
171
     1
301
MARGIN
  1
CELLMARGIN_BEGIN
 40
1.5
 40
1.5
 40
1.5
 40
1.5
 40
0.18
 40
0.18
309
CELLMARGIN_END
 94
        6
 95
        1
302
GRIDFORMAT
  1
GRIDFORMAT_BEGIN
 90
        0
 91
        1
 62
     0
 92
       -2
340
0
 93
        0
 40
0.045
309
GRIDFORMAT_END
 95
        2
302
GRIDFORMAT
  1
GRIDFORMAT_BEGIN
 90
        0
 91
        1
 62
     0
 92
       -2
340
0
 93
        0
 40
0.045
309
GRIDFORMAT_END
 95
        4
302
GRIDFORMAT
  1
GRIDFORMAT_BEGIN
 90
        0
 91
        1
 62
     0
 92
       -2
340
0
 93
        0
 40
0.045
309
GRIDFORMAT_END
 95
        8
302
GRIDFORMAT
  1
GRIDFORMAT_BEGIN
 90
        0
 91
        1
 62
     0
 92
       -2
340
0
 93
        0
 40
0.045
309
GRIDFORMAT_END
 95
       16
302
GRIDFORMAT
  1
GRIDFORMAT_BEGIN
 90
        0
 91
        1
 62
     0
 92
       -2
340
0
 93
        0
 40
0.045
309
GRIDFORMAT_END
 95
       32
302
GRIDFORMAT
  1
GRIDFORMAT_BEGIN
 90
        0
 91
        1
 62
     0
 92
       -2
340
0
 93
        0
 40
0.045
309
GRIDFORMAT_END
309
TABLEFORMAT_END
  1
CELLSTYLE_BEGIN
 90
        1
 91
        1
300
_TITLE
309
CELLSTYLE_END
300
CELLSTYLE
  1
TABLEFORMAT_BEGIN
 90
        5
170
     1
 91
        0
 92
        0
 62
   257
 93
        1
300
CONTENTFORMAT
  1
CONTENTFORMAT_BEGIN
 90
        0
 91
        0
 92
        4
 93
        0
300

 40
0.0
140
1.0
 94
        5
 62
     7
340
11
144
4.5
309
CONTENTFORMAT_END
171
     1
301
MARGIN
  1
CELLMARGIN_BEGIN
 40
1.5
 40
1.5
 40
1.5
 40
1.5
 40
0.18
 40
0.18
309
CELLMARGIN_END
 94
        6
 95
        1
302
GRIDFORMAT
  1
GRIDFORMAT_BEGIN
 90
        0
 91
        1
 62
     0
 92
       -2
340
0
 93
        0
 40
0.045
309
GRIDFORMAT_END
 95
        2
302
GRIDFORMAT
  1
GRIDFORMAT_BEGIN
 90
        0
 91
        1
 62
     0
 92
       -2
340
0
 93
        0
 40
0.045
309
GRIDFORMAT_END
 95
        4
302
GRIDFORMAT
  1
GRIDFORMAT_BEGIN
 90
        0
 91
        1
 62
     0
 92
       -2
340
0
 93
        0
 40
0.045
309
GRIDFORMAT_END
 95
        8
302
GRIDFORMAT
  1
GRIDFORMAT_BEGIN
 90
        0
 91
        1
 62
     0
 92
       -2
340
0
 93
        0
 40
0.045
309
GRIDFORMAT_END
 95
       16
302
GRIDFORMAT
  1
GRIDFORMAT_BEGIN
 90
        0
 91
        1
 62
     0
 92
       -2
340
0
 93
        0
 40
0.045
309
GRIDFORMAT_END
 95
       32
302
GRIDFORMAT
  1
GRIDFORMAT_BEGIN
 90
        0
 91
        1
 62
     0
 92
       -2
340
0
 93
        0
 40
0.045
309
GRIDFORMAT_END
309
TABLEFORMAT_END
  1
CELLSTYLE_BEGIN
 90
        2
 91
        1
300
_HEADER
309
CELLSTYLE_END
300
CELLSTYLE
  1
TABLEFORMAT_BEGIN
 90
        5
170
     1
 91
        0
 92
        0
 62
   257
 93
        1
300
CONTENTFORMAT
  1
CONTENTFORMAT_BEGIN
 90
        0
 91
        0
 92
        4
 93
        0
300

 40
0.0
140
1.0
 94
        2
 62
     7
340
11
144
4.5
309
CONTENTFORMAT_END
171
     1
301
MARGIN
  1
CELLMARGIN_BEGIN
 40
1.5
 40
1.5
 40
1.5
 40
1.5
 40
0.18
 40
0.18
309
CELLMARGIN_END
 94
        6
 95
        1
302
GRIDFORMAT
  1
GRIDFORMAT_BEGIN
 90
        0
 91
        1
 62
     0
 92
       -2
340
0
 93
        0
 40
0.045
309
GRIDFORMAT_END
 95
        2
302
GRIDFORMAT
  1
GRIDFORMAT_BEGIN
 90
        0
 91
        1
 62
     0
 92
       -2
340
0
 93
        0
 40
0.045
309
GRIDFORMAT_END
 95
        4
302
GRIDFORMAT
  1
GRIDFORMAT_BEGIN
 90
        0
 91
        1
 62
     0
 92
       -2
340
0
 93
        0
 40
0.045
309
GRIDFORMAT_END
 95
        8
302
GRIDFORMAT
  1
GRIDFORMAT_BEGIN
 90
        0
 91
        1
 62
     0
 92
       -2
340
0
 93
        0
 40
0.045
309
GRIDFORMAT_END
 95
       16
302
GRIDFORMAT
  1
GRIDFORMAT_BEGIN
 90
        0
 91
        1
 62
     0
 92
       -2
340
0
 93
        0
 40
0.045
309
GRIDFORMAT_END
 95
       32
302
GRIDFORMAT
  1
GRIDFORMAT_BEGIN
 90
        0
 91
        1
 62
     0
 92
       -2
340
0
 93
        0
 40
0.045
309
GRIDFORMAT_END
309
TABLEFORMAT_END
  1
CELLSTYLE_BEGIN
 90
        3
 91
        2
300
_DATA
309
CELLSTYLE_END
  0
XRECORD
  5
10004CB
102
{ACAD_REACTORS
330
1000492
102
}
330
1000492
100
AcDbXrecord
280
     1
102
ACAD_ROUNDTRIP_PRE2007_TABLESTYLE
 90
        4
 91
        0
  1

 92
        4
 93
        0
  2

 94
        4
 95
        0
  3

  0
XRECORD
  5
10004A4
102
{ACAD_REACTORS
330
10004A3
102
}
330
10004A3
100
AcDbXrecord
280
     1
102
RTVSPost2010Prop28
280
     1
102
RTVSPost2010PropOp28
 70
     1
102
RTVSPost2010Prop29
280
     1
102
RTVSPost2010PropOp29
 70
     1
102
RTVSPost2010Prop30
280
     0
102
RTVSPost2010PropOp30
 70
     1
102
RTVSPost2010Prop31
280
     0
102
RTVSPost2010PropOp31
 70
     1
102
RTVSPost2010Prop32
280
     0
102
RTVSPost2010PropOp32
 70
     1
102
RTVSPost2010Prop33
280
     0
102
RTVSPost2010PropOp33
 70
     1
102
RTVSPost2010Prop34
280
     0
102
RTVSPost2010PropOp34
 70
     1
102
RTVSPost2010Prop35
280
     0
102
RTVSPost2010PropOp35
 70
     1
102
RTVSPost2010Prop36
280
     0
102
RTVSPost2010PropOp36
 70
     1
102
RTVSPost2010Prop37
 90
       50
102
RTVSPost2010PropOp37
 70
     1
102
RTVSPost2010Prop38
140
0.0
102
RTVSPost2010PropOp38
 70
     1
102
RTVSPost2010Prop39
140
1.0
102
RTVSPost2010PropOp39
 70
     1
102
RTVSPost2010Prop40
 90
        0
102
RTVSPost2010PropOp40
 70
     1
102
RTVSPost2010Prop41ColorIndex
 90
       18
102
RTVSPost2010Prop41ColorRGB
 90
-16777216
102
RTVSPost2010PropOp41
 70
     1
102
RTVSPost2010Prop42
 90
       50
102
RTVSPost2010PropOp42
 70
     1
102
RTVSPost2010Prop43
 90
        3
102
RTVSPost2010PropOp43
 70
     1
102
RTVSPost2010Prop44ColorIndex
 90
        5
102
RTVSPost2010Prop44ColorRGB
 90
      255
102
RTVSPost2010PropOp44
 70
     1
102
RTVSPost2010Prop45
280
     0
102
RTVSPost2010PropOp45
 70
     1
102
RTVSPost2010Prop46
 90
       50
102
RTVSPost2010PropOp46
 70
     1
102
RTVSPost2010Prop47
 90
       50
102
RTVSPost2010PropOp47
 70
     1
102
RTVSPost2010Prop48
 90
       50
102
RTVSPost2010PropOp48
 70
     1
102
RTVSPost2010Prop49
280
     0
102
RTVSPost2010PropOp49
 70
     1
102
RTVSPost2010Prop50
 90
       50
102
RTVSPost2010PropOp50
 70
     1
102
RTVSPost2010Prop51ColorIndex
 90
      256
102
RTVSPost2010Prop51ColorRGB
 90
-16777216
102
RTVSPost2010PropOp51
 70
     0
102
RTVSPost2010Prop52
140
1.0
102
RTVSPost2010PropOp52
 70
     0
102
RTVSPost2010Prop53
 90
        2
102
RTVSPost2010PropOp53
 70
     1
102
RTVSPost2010Prop54
  1
strokes_ogs.tif
102
RTVSPost2010PropOp54
 70
     1
102
RTVSPost2010Prop55
280
     0
102
RTVSPost2010PropOp55
 70
     1
102
RTVSPost2010Prop56
140
1.0
102
RTVSPost2010PropOp56
 70
     1
102
RTVSPost2010Prop57
140
1.0
102
RTVSPost2010PropOp57
 70
     1
102
RTVSPropertyOp0
 70
     1
102
RTVSPropertyOp1
 70
     1
102
RTVSPropertyOp2
 70
     1
102
RTVSPropertyOp3
 70
     1
102
RTVSPropertyOp4
 70
     1
102
RTVSPropertyOp5
 70
     1
102
RTVSPropertyOp6
 70
     1
102
RTVSPropertyOp7
 70
     1
102
RTVSPropertyOp8
 70
     1
102
RTVSPropertyOp9
 70
     1
102
RTVSPropertyOp10
 70
     1
102
RTVSPropertyOp11
 70
     1
102
RTVSPropertyOp12
 70
     1
102
RTVSPropertyOp13
 70
     1
102
RTVSPropertyOp14
 70
     1
102
RTVSPropertyOp15
 70
     1
102
RTVSPropertyOp16
 70
     1
102
RTVSPropertyOp17
 70
     1
102
RTVSPropertyOp18
 70
     1
102
RTVSPropertyOp19
 70
     1
102
RTVSPropertyOp20
 70
     1
102
RTVSPropertyOp21
 70
     1
102
RTVSPropertyOp22
 70
     1
102
RTVSPropertyOp23
 70
     1
102
RTVSPropertyOp24
 70
     1
102
RTVSPropertyOp25
 70
     1
102
RTVSPropertyOp26
 70
     1
102
RTVSPropertyOp27
 70
     1
102
RTVSPropertyOp28
 70
     1
102
RTVSPropertyOp29
 70
     1
102
RTVSPropertyOp30
 70
     1
102
RTVSPropertyOp31
 70
     1
102
RTVSPropertyOp32
 70
     1
102
RTVSPropertyOp33
 70
     1
102
RTVSPropertyOp34
 70
     1
102
RTVSPropertyOp35
 70
     1
102
RTVSPropertyOp36
 70
     1
102
RTVSPropertyOp37
 70
     1
102
RTVSPropertyOp38
 70
     1
102
RTVSPropertyOp39
 70
     1
102
RTVSPropertyOp40
 70
     1
102
RTVSPropertyOp41
 70
     1
102
RTVSPropertyOp42
 70
     1
102
RTVSPropertyOp43
 70
     1
102
RTVSPropertyOp44
 70
     1
102
RTVSPropertyOp45
 70
     1
102
RTVSPropertyOp46
 70
     1
102
RTVSPropertyOp47
 70
     1
102
RTVSPropertyOp48
 70
     1
102
RTVSPropertyOp49
 70
     1
102
RTVSPropertyOp50
 70
     1
102
RTVSPropertyOp51
 70
     0
102
RTVSPropertyOp52
 70
     0
102
RTVSPropertyOp53
 70
     1
102
RTVSPropertyOp54
 70
     1
102
RTVSPropertyOp55
 70
     1
102
RTVSPropertyOp56
 70
     1
102
RTVSPropertyOp57
 70
     1
102
RTVSPropertyOp58
 70
     1
102
RTVSPropertyOp59
 70
     1
102
RTVSPropertyOp60
 70
     1
102
RTVSPropertyOp61
 70
     1
102
RTVSPropertyOp62
 70
     1
  0
XRECORD
  5
10004AA
102
{ACAD_REACTORS
330
10004A9
102
}
330
10004A9
100
AcDbXrecord
280
     1
102
RTVSPost2010Prop28
280
     0
102
RTVSPost2010PropOp28
 70
     1
102
RTVSPost2010Prop29
280
     1
102
RTVSPost2010PropOp29
 70
     1
102
RTVSPost2010Prop30
280
     1
102
RTVSPost2010PropOp30
 70
     1
102
RTVSPost2010Prop31
280
     0
102
RTVSPost2010PropOp31
 70
     1
102
RTVSPost2010Prop32
280
     0
102
RTVSPost2010PropOp32
 70
     1
102
RTVSPost2010Prop33
280
     0
102
RTVSPost2010PropOp33
 70
     1
102
RTVSPost2010Prop34
280
     0
102
RTVSPost2010PropOp34
 70
     1
102
RTVSPost2010Prop35
280
     0
102
RTVSPost2010PropOp35
 70
     1
102
RTVSPost2010Prop36
280
     0
102
RTVSPost2010PropOp36
 70
     1
102
RTVSPost2010Prop37
 90
       50
102
RTVSPost2010PropOp37
 70
     1
102
RTVSPost2010Prop38
140
0.0
102
RTVSPost2010PropOp38
 70
     1
102
RTVSPost2010Prop39
140
1.0
102
RTVSPost2010PropOp39
 70
     1
102
RTVSPost2010Prop40
 90
        0
102
RTVSPost2010PropOp40
 70
     1
102
RTVSPost2010Prop41ColorIndex
 90
       18
102
RTVSPost2010Prop41ColorRGB
 90
-16777216
102
RTVSPost2010PropOp41
 70
     1
102
RTVSPost2010Prop42
 90
       50
102
RTVSPost2010PropOp42
 70
     1
102
RTVSPost2010Prop43
 90
        3
102
RTVSPost2010PropOp43
 70
     1
102
RTVSPost2010Prop44ColorIndex
 90
        5
102
RTVSPost2010Prop44ColorRGB
 90
      255
102
RTVSPost2010PropOp44
 70
     1
102
RTVSPost2010Prop45
280
     0
102
RTVSPost2010PropOp45
 70
     1
102
RTVSPost2010Prop46
 90
       50
102
RTVSPost2010PropOp46
 70
     1
102
RTVSPost2010Prop47
 90
       50
102
RTVSPost2010PropOp47
 70
     1
102
RTVSPost2010Prop48
 90
       50
102
RTVSPost2010PropOp48
 70
     1
102
RTVSPost2010Prop49
280
     0
102
RTVSPost2010PropOp49
 70
     1
102
RTVSPost2010Prop50
 90
       50
102
RTVSPost2010PropOp50
 70
     1
102
RTVSPost2010Prop51ColorIndex
 90
      256
102
RTVSPost2010Prop51ColorRGB
 90
-16777216
102
RTVSPost2010PropOp51
 70
     0
102
RTVSPost2010Prop52
140
1.0
102
RTVSPost2010PropOp52
 70
     0
102
RTVSPost2010Prop53
 90
        2
102
RTVSPost2010PropOp53
 70
     1
102
RTVSPost2010Prop54
  1
strokes_ogs.tif
102
RTVSPost2010PropOp54
 70
     1
102
RTVSPost2010Prop55
280
     0
102
RTVSPost2010PropOp55
 70
     1
102
RTVSPost2010Prop56
140
1.0
102
RTVSPost2010PropOp56
 70
     1
102
RTVSPost2010Prop57
140
1.0
102
RTVSPost2010PropOp57
 70
     1
102
RTVSPropertyOp0
 70
     1
102
RTVSPropertyOp1
 70
     1
102
RTVSPropertyOp2
 70
     1
102
RTVSPropertyOp3
 70
     1
102
RTVSPropertyOp4
 70
     1
102
RTVSPropertyOp5
 70
     1
102
RTVSPropertyOp6
 70
     1
102
RTVSPropertyOp7
 70
     1
102
RTVSPropertyOp8
 70
     1
102
RTVSPropertyOp9
 70
     1
102
RTVSPropertyOp10
 70
     1
102
RTVSPropertyOp11
 70
     1
102
RTVSPropertyOp12
 70
     1
102
RTVSPropertyOp13
 70
     1
102
RTVSPropertyOp14
 70
     1
102
RTVSPropertyOp15
 70
     1
102
RTVSPropertyOp16
 70
     1
102
RTVSPropertyOp17
 70
     1
102
RTVSPropertyOp18
 70
     1
102
RTVSPropertyOp19
 70
     1
102
RTVSPropertyOp20
 70
     1
102
RTVSPropertyOp21
 70
     1
102
RTVSPropertyOp22
 70
     1
102
RTVSPropertyOp23
 70
     1
102
RTVSPropertyOp24
 70
     1
102
RTVSPropertyOp25
 70
     1
102
RTVSPropertyOp26
 70
     1
102
RTVSPropertyOp27
 70
     1
102
RTVSPropertyOp28
 70
     1
102
RTVSPropertyOp29
 70
     1
102
RTVSPropertyOp30
 70
     1
102
RTVSPropertyOp31
 70
     1
102
RTVSPropertyOp32
 70
     1
102
RTVSPropertyOp33
 70
     1
102
RTVSPropertyOp34
 70
     1
102
RTVSPropertyOp35
 70
     1
102
RTVSPropertyOp36
 70
     1
102
RTVSPropertyOp37
 70
     1
102
RTVSPropertyOp38
 70
     1
102
RTVSPropertyOp39
 70
     1
102
RTVSPropertyOp40
 70
     1
102
RTVSPropertyOp41
 70
     1
102
RTVSPropertyOp42
 70
     1
102
RTVSPropertyOp43
 70
     1
102
RTVSPropertyOp44
 70
     1
102
RTVSPropertyOp45
 70
     1
102
RTVSPropertyOp46
 70
     1
102
RTVSPropertyOp47
 70
     1
102
RTVSPropertyOp48
 70
     1
102
RTVSPropertyOp49
 70
     1
102
RTVSPropertyOp50
 70
     1
102
RTVSPropertyOp51
 70
     0
102
RTVSPropertyOp52
 70
     0
102
RTVSPropertyOp53
 70
     1
102
RTVSPropertyOp54
 70
     1
102
RTVSPropertyOp55
 70
     1
102
RTVSPropertyOp56
 70
     1
102
RTVSPropertyOp57
 70
     1
102
RTVSPropertyOp58
 70
     1
102
RTVSPropertyOp59
 70
     1
102
RTVSPropertyOp60
 70
     1
102
RTVSPropertyOp61
 70
     1
102
RTVSPropertyOp62
 70
     1
  0
XRECORD
  5
10004B2
102
{ACAD_REACTORS
330
10004B1
102
}
330
10004B1
100
AcDbXrecord
280
     1
102
RTVSPost2010Prop28
280
     0
102
RTVSPost2010PropOp28
 70
     1
102
RTVSPost2010Prop29
280
     1
102
RTVSPost2010PropOp29
 70
     1
102
RTVSPost2010Prop30
280
     1
102
RTVSPost2010PropOp30
 70
     1
102
RTVSPost2010Prop31
280
     0
102
RTVSPost2010PropOp31
 70
     1
102
RTVSPost2010Prop32
280
     0
102
RTVSPost2010PropOp32
 70
     1
102
RTVSPost2010Prop33
280
     0
102
RTVSPost2010PropOp33
 70
     1
102
RTVSPost2010Prop34
280
     0
102
RTVSPost2010PropOp34
 70
     1
102
RTVSPost2010Prop35
280
     0
102
RTVSPost2010PropOp35
 70
     1
102
RTVSPost2010Prop36
280
     0
102
RTVSPost2010PropOp36
 70
     1
102
RTVSPost2010Prop37
 90
       50
102
RTVSPost2010PropOp37
 70
     1
102
RTVSPost2010Prop38
140
0.0
102
RTVSPost2010PropOp38
 70
     1
102
RTVSPost2010Prop39
140
1.0
102
RTVSPost2010PropOp39
 70
     1
102
RTVSPost2010Prop40
 90
        0
102
RTVSPost2010PropOp40
 70
     1
102
RTVSPost2010Prop41ColorIndex
 90
       18
102
RTVSPost2010Prop41ColorRGB
 90
-16777216
102
RTVSPost2010PropOp41
 70
     1
102
RTVSPost2010Prop42
 90
       50
102
RTVSPost2010PropOp42
 70
     1
102
RTVSPost2010Prop43
 90
        3
102
RTVSPost2010PropOp43
 70
     1
102
RTVSPost2010Prop44ColorIndex
 90
        5
102
RTVSPost2010Prop44ColorRGB
 90
      255
102
RTVSPost2010PropOp44
 70
     1
102
RTVSPost2010Prop45
280
     0
102
RTVSPost2010PropOp45
 70
     1
102
RTVSPost2010Prop46
 90
       50
102
RTVSPost2010PropOp46
 70
     1
102
RTVSPost2010Prop47
 90
       50
102
RTVSPost2010PropOp47
 70
     1
102
RTVSPost2010Prop48
 90
       50
102
RTVSPost2010PropOp48
 70
     1
102
RTVSPost2010Prop49
280
     0
102
RTVSPost2010PropOp49
 70
     1
102
RTVSPost2010Prop50
 90
       50
102
RTVSPost2010PropOp50
 70
     1
102
RTVSPost2010Prop51ColorIndex
 90
      256
102
RTVSPost2010Prop51ColorRGB
 90
-16777216
102
RTVSPost2010PropOp51
 70
     0
102
RTVSPost2010Prop52
140
1.0
102
RTVSPost2010PropOp52
 70
     0
102
RTVSPost2010Prop53
 90
        2
102
RTVSPost2010PropOp53
 70
     1
102
RTVSPost2010Prop54
  1
strokes_ogs.tif
102
RTVSPost2010PropOp54
 70
     1
102
RTVSPost2010Prop55
280
     0
102
RTVSPost2010PropOp55
 70
     1
102
RTVSPost2010Prop56
140
1.0
102
RTVSPost2010PropOp56
 70
     1
102
RTVSPost2010Prop57
140
1.0
102
RTVSPost2010PropOp57
 70
     1
102
RTVSPropertyOp0
 70
     1
102
RTVSPropertyOp1
 70
     1
102
RTVSPropertyOp2
 70
     1
102
RTVSPropertyOp3
 70
     1
102
RTVSPropertyOp4
 70
     1
102
RTVSPropertyOp5
 70
     1
102
RTVSPropertyOp6
 70
     1
102
RTVSPropertyOp7
 70
     1
102
RTVSPropertyOp8
 70
     1
102
RTVSPropertyOp9
 70
     1
102
RTVSPropertyOp10
 70
     1
102
RTVSPropertyOp11
 70
     1
102
RTVSPropertyOp12
 70
     1
102
RTVSPropertyOp13
 70
     1
102
RTVSPropertyOp14
 70
     1
102
RTVSPropertyOp15
 70
     1
102
RTVSPropertyOp16
 70
     1
102
RTVSPropertyOp17
 70
     1
102
RTVSPropertyOp18
 70
     1
102
RTVSPropertyOp19
 70
     1
102
RTVSPropertyOp20
 70
     1
102
RTVSPropertyOp21
 70
     1
102
RTVSPropertyOp22
 70
     1
102
RTVSPropertyOp23
 70
     1
102
RTVSPropertyOp24
 70
     1
102
RTVSPropertyOp25
 70
     1
102
RTVSPropertyOp26
 70
     1
102
RTVSPropertyOp27
 70
     1
102
RTVSPropertyOp28
 70
     1
102
RTVSPropertyOp29
 70
     1
102
RTVSPropertyOp30
 70
     1
102
RTVSPropertyOp31
 70
     1
102
RTVSPropertyOp32
 70
     1
102
RTVSPropertyOp33
 70
     1
102
RTVSPropertyOp34
 70
     1
102
RTVSPropertyOp35
 70
     1
102
RTVSPropertyOp36
 70
     1
102
RTVSPropertyOp37
 70
     1
102
RTVSPropertyOp38
 70
     1
102
RTVSPropertyOp39
 70
     1
102
RTVSPropertyOp40
 70
     1
102
RTVSPropertyOp41
 70
     1
102
RTVSPropertyOp42
 70
     1
102
RTVSPropertyOp43
 70
     1
102
RTVSPropertyOp44
 70
     1
102
RTVSPropertyOp45
 70
     1
102
RTVSPropertyOp46
 70
     1
102
RTVSPropertyOp47
 70
     1
102
RTVSPropertyOp48
 70
     1
102
RTVSPropertyOp49
 70
     1
102
RTVSPropertyOp50
 70
     1
102
RTVSPropertyOp51
 70
     0
102
RTVSPropertyOp52
 70
     0
102
RTVSPropertyOp53
 70
     1
102
RTVSPropertyOp54
 70
     1
102
RTVSPropertyOp55
 70
     1
102
RTVSPropertyOp56
 70
     1
102
RTVSPropertyOp57
 70
     1
102
RTVSPropertyOp58
 70
     1
102
RTVSPropertyOp59
 70
     1
102
RTVSPropertyOp60
 70
     1
102
RTVSPropertyOp61
 70
     1
102
RTVSPropertyOp62
 70
     1
  0
XRECORD
  5
10004BA
102
{ACAD_REACTORS
330
10004B9
102
}
330
10004B9
100
AcDbXrecord
280
     1
102
RTVSPost2010Prop28
280
     0
102
RTVSPost2010PropOp28
 70
     1
102
RTVSPost2010Prop29
280
     1
102
RTVSPost2010PropOp29
 70
     1
102
RTVSPost2010Prop30
280
     1
102
RTVSPost2010PropOp30
 70
     1
102
RTVSPost2010Prop31
280
     0
102
RTVSPost2010PropOp31
 70
     1
102
RTVSPost2010Prop32
280
     0
102
RTVSPost2010PropOp32
 70
     1
102
RTVSPost2010Prop33
280
     0
102
RTVSPost2010PropOp33
 70
     1
102
RTVSPost2010Prop34
280
     0
102
RTVSPost2010PropOp34
 70
     1
102
RTVSPost2010Prop35
280
     0
102
RTVSPost2010PropOp35
 70
     1
102
RTVSPost2010Prop36
280
     0
102
RTVSPost2010PropOp36
 70
     1
102
RTVSPost2010Prop37
 90
       50
102
RTVSPost2010PropOp37
 70
     1
102
RTVSPost2010Prop38
140
0.0
102
RTVSPost2010PropOp38
 70
     1
102
RTVSPost2010Prop39
140
1.0
102
RTVSPost2010PropOp39
 70
     1
102
RTVSPost2010Prop40
 90
        0
102
RTVSPost2010PropOp40
 70
     1
102
RTVSPost2010Prop41ColorIndex
 90
       18
102
RTVSPost2010Prop41ColorRGB
 90
-16777216
102
RTVSPost2010PropOp41
 70
     1
102
RTVSPost2010Prop42
 90
       50
102
RTVSPost2010PropOp42
 70
     1
102
RTVSPost2010Prop43
 90
        3
102
RTVSPost2010PropOp43
 70
     1
102
RTVSPost2010Prop44ColorIndex
 90
        5
102
RTVSPost2010Prop44ColorRGB
 90
      255
102
RTVSPost2010PropOp44
 70
     1
102
RTVSPost2010Prop45
280
     0
102
RTVSPost2010PropOp45
 70
     1
102
RTVSPost2010Prop46
 90
       50
102
RTVSPost2010PropOp46
 70
     1
102
RTVSPost2010Prop47
 90
       50
102
RTVSPost2010PropOp47
 70
     1
102
RTVSPost2010Prop48
 90
       50
102
RTVSPost2010PropOp48
 70
     1
102
RTVSPost2010Prop49
280
     0
102
RTVSPost2010PropOp49
 70
     1
102
RTVSPost2010Prop50
 90
       50
102
RTVSPost2010PropOp50
 70
     1
102
RTVSPost2010Prop51ColorIndex
 90
      256
102
RTVSPost2010Prop51ColorRGB
 90
-16777216
102
RTVSPost2010PropOp51
 70
     0
102
RTVSPost2010Prop52
140
1.0
102
RTVSPost2010PropOp52
 70
     0
102
RTVSPost2010Prop53
 90
        2
102
RTVSPost2010PropOp53
 70
     1
102
RTVSPost2010Prop54
  1
strokes_ogs.tif
102
RTVSPost2010PropOp54
 70
     1
102
RTVSPost2010Prop55
280
     0
102
RTVSPost2010PropOp55
 70
     1
102
RTVSPost2010Prop56
140
1.0
102
RTVSPost2010PropOp56
 70
     1
102
RTVSPost2010Prop57
140
1.0
102
RTVSPost2010PropOp57
 70
     1
102
RTVSPropertyOp0
 70
     1
102
RTVSPropertyOp1
 70
     1
102
RTVSPropertyOp2
 70
     1
102
RTVSPropertyOp3
 70
     1
102
RTVSPropertyOp4
 70
     1
102
RTVSPropertyOp5
 70
     1
102
RTVSPropertyOp6
 70
     1
102
RTVSPropertyOp7
 70
     1
102
RTVSPropertyOp8
 70
     1
102
RTVSPropertyOp9
 70
     1
102
RTVSPropertyOp10
 70
     1
102
RTVSPropertyOp11
 70
     1
102
RTVSPropertyOp12
 70
     1
102
RTVSPropertyOp13
 70
     1
102
RTVSPropertyOp14
 70
     1
102
RTVSPropertyOp15
 70
     1
102
RTVSPropertyOp16
 70
     1
102
RTVSPropertyOp17
 70
     1
102
RTVSPropertyOp18
 70
     1
102
RTVSPropertyOp19
 70
     1
102
RTVSPropertyOp20
 70
     1
102
RTVSPropertyOp21
 70
     1
102
RTVSPropertyOp22
 70
     1
102
RTVSPropertyOp23
 70
     1
102
RTVSPropertyOp24
 70
     1
102
RTVSPropertyOp25
 70
     1
102
RTVSPropertyOp26
 70
     1
102
RTVSPropertyOp27
 70
     1
102
RTVSPropertyOp28
 70
     1
102
RTVSPropertyOp29
 70
     1
102
RTVSPropertyOp30
 70
     1
102
RTVSPropertyOp31
 70
     1
102
RTVSPropertyOp32
 70
     1
102
RTVSPropertyOp33
 70
     1
102
RTVSPropertyOp34
 70
     1
102
RTVSPropertyOp35
 70
     1
102
RTVSPropertyOp36
 70
     1
102
RTVSPropertyOp37
 70
     1
102
RTVSPropertyOp38
 70
     1
102
RTVSPropertyOp39
 70
     1
102
RTVSPropertyOp40
 70
     1
102
RTVSPropertyOp41
 70
     1
102
RTVSPropertyOp42
 70
     1
102
RTVSPropertyOp43
 70
     1
102
RTVSPropertyOp44
 70
     1
102
RTVSPropertyOp45
 70
     1
102
RTVSPropertyOp46
 70
     1
102
RTVSPropertyOp47
 70
     1
102
RTVSPropertyOp48
 70
     1
102
RTVSPropertyOp49
 70
     1
102
RTVSPropertyOp50
 70
     1
102
RTVSPropertyOp51
 70
     0
102
RTVSPropertyOp52
 70
     0
102
RTVSPropertyOp53
 70
     1
102
RTVSPropertyOp54
 70
     1
102
RTVSPropertyOp55
 70
     1
102
RTVSPropertyOp56
 70
     1
102
RTVSPropertyOp57
 70
     1
102
RTVSPropertyOp58
 70
     1
102
RTVSPropertyOp59
 70
     1
102
RTVSPropertyOp60
 70
     1
102
RTVSPropertyOp61
 70
     1
102
RTVSPropertyOp62
 70
     1
  0
XRECORD
  5
10004AE
102
{ACAD_REACTORS
330
10004AD
102
}
330
10004AD
100
AcDbXrecord
280
     1
102
RTVSPost2010Prop28
280
     0
102
RTVSPost2010PropOp28
 70
     1
102
RTVSPost2010Prop29
280
     1
102
RTVSPost2010PropOp29
 70
     1
102
RTVSPost2010Prop30
280
     1
102
RTVSPost2010PropOp30
 70
     1
102
RTVSPost2010Prop31
280
     0
102
RTVSPost2010PropOp31
 70
     1
102
RTVSPost2010Prop32
280
     0
102
RTVSPost2010PropOp32
 70
     1
102
RTVSPost2010Prop33
280
     0
102
RTVSPost2010PropOp33
 70
     1
102
RTVSPost2010Prop34
280
     0
102
RTVSPost2010PropOp34
 70
     1
102
RTVSPost2010Prop35
280
     0
102
RTVSPost2010PropOp35
 70
     1
102
RTVSPost2010Prop36
280
     0
102
RTVSPost2010PropOp36
 70
     1
102
RTVSPost2010Prop37
 90
       50
102
RTVSPost2010PropOp37
 70
     1
102
RTVSPost2010Prop38
140
0.0
102
RTVSPost2010PropOp38
 70
     1
102
RTVSPost2010Prop39
140
1.0
102
RTVSPost2010PropOp39
 70
     1
102
RTVSPost2010Prop40
 90
        0
102
RTVSPost2010PropOp40
 70
     1
102
RTVSPost2010Prop41ColorIndex
 90
       18
102
RTVSPost2010Prop41ColorRGB
 90
-16777216
102
RTVSPost2010PropOp41
 70
     1
102
RTVSPost2010Prop42
 90
       50
102
RTVSPost2010PropOp42
 70
     1
102
RTVSPost2010Prop43
 90
        3
102
RTVSPost2010PropOp43
 70
     1
102
RTVSPost2010Prop44ColorIndex
 90
        5
102
RTVSPost2010Prop44ColorRGB
 90
      255
102
RTVSPost2010PropOp44
 70
     1
102
RTVSPost2010Prop45
280
     0
102
RTVSPost2010PropOp45
 70
     1
102
RTVSPost2010Prop46
 90
       50
102
RTVSPost2010PropOp46
 70
     1
102
RTVSPost2010Prop47
 90
       50
102
RTVSPost2010PropOp47
 70
     1
102
RTVSPost2010Prop48
 90
       50
102
RTVSPost2010PropOp48
 70
     1
102
RTVSPost2010Prop49
280
     0
102
RTVSPost2010PropOp49
 70
     1
102
RTVSPost2010Prop50
 90
       50
102
RTVSPost2010PropOp50
 70
     1
102
RTVSPost2010Prop51ColorIndex
 90
      256
102
RTVSPost2010Prop51ColorRGB
 90
-16777216
102
RTVSPost2010PropOp51
 70
     0
102
RTVSPost2010Prop52
140
1.0
102
RTVSPost2010PropOp52
 70
     0
102
RTVSPost2010Prop53
 90
        2
102
RTVSPost2010PropOp53
 70
     1
102
RTVSPost2010Prop54
  1
strokes_ogs.tif
102
RTVSPost2010PropOp54
 70
     1
102
RTVSPost2010Prop55
280
     0
102
RTVSPost2010PropOp55
 70
     1
102
RTVSPost2010Prop56
140
1.0
102
RTVSPost2010PropOp56
 70
     1
102
RTVSPost2010Prop57
140
1.0
102
RTVSPost2010PropOp57
 70
     1
102
RTVSPropertyOp0
 70
     1
102
RTVSPropertyOp1
 70
     1
102
RTVSPropertyOp2
 70
     1
102
RTVSPropertyOp3
 70
     1
102
RTVSPropertyOp4
 70
     1
102
RTVSPropertyOp5
 70
     1
102
RTVSPropertyOp6
 70
     1
102
RTVSPropertyOp7
 70
     1
102
RTVSPropertyOp8
 70
     1
102
RTVSPropertyOp9
 70
     1
102
RTVSPropertyOp10
 70
     1
102
RTVSPropertyOp11
 70
     1
102
RTVSPropertyOp12
 70
     1
102
RTVSPropertyOp13
 70
     1
102
RTVSPropertyOp14
 70
     1
102
RTVSPropertyOp15
 70
     1
102
RTVSPropertyOp16
 70
     1
102
RTVSPropertyOp17
 70
     1
102
RTVSPropertyOp18
 70
     1
102
RTVSPropertyOp19
 70
     1
102
RTVSPropertyOp20
 70
     1
102
RTVSPropertyOp21
 70
     1
102
RTVSPropertyOp22
 70
     1
102
RTVSPropertyOp23
 70
     1
102
RTVSPropertyOp24
 70
     1
102
RTVSPropertyOp25
 70
     1
102
RTVSPropertyOp26
 70
     1
102
RTVSPropertyOp27
 70
     1
102
RTVSPropertyOp28
 70
     1
102
RTVSPropertyOp29
 70
     1
102
RTVSPropertyOp30
 70
     1
102
RTVSPropertyOp31
 70
     1
102
RTVSPropertyOp32
 70
     1
102
RTVSPropertyOp33
 70
     1
102
RTVSPropertyOp34
 70
     1
102
RTVSPropertyOp35
 70
     1
102
RTVSPropertyOp36
 70
     1
102
RTVSPropertyOp37
 70
     1
102
RTVSPropertyOp38
 70
     1
102
RTVSPropertyOp39
 70
     1
102
RTVSPropertyOp40
 70
     1
102
RTVSPropertyOp41
 70
     1
102
RTVSPropertyOp42
 70
     1
102
RTVSPropertyOp43
 70
     1
102
RTVSPropertyOp44
 70
     1
102
RTVSPropertyOp45
 70
     1
102
RTVSPropertyOp46
 70
     1
102
RTVSPropertyOp47
 70
     1
102
RTVSPropertyOp48
 70
     1
102
RTVSPropertyOp49
 70
     1
102
RTVSPropertyOp50
 70
     1
102
RTVSPropertyOp51
 70
     0
102
RTVSPropertyOp52
 70
     0
102
RTVSPropertyOp53
 70
     1
102
RTVSPropertyOp54
 70
     1
102
RTVSPropertyOp55
 70
     1
102
RTVSPropertyOp56
 70
     1
102
RTVSPropertyOp57
 70
     1
102
RTVSPropertyOp58
 70
     1
102
RTVSPropertyOp59
 70
     1
102
RTVSPropertyOp60
 70
     1
102
RTVSPropertyOp61
 70
     1
102
RTVSPropertyOp62
 70
     1
  0
XRECORD
  5
10004B0
102
{ACAD_REACTORS
330
10004AF
102
}
330
10004AF
100
AcDbXrecord
280
     1
102
RTVSPost2010Prop28
280
     0
102
RTVSPost2010PropOp28
 70
     1
102
RTVSPost2010Prop29
280
     1
102
RTVSPost2010PropOp29
 70
     1
102
RTVSPost2010Prop30
280
     1
102
RTVSPost2010PropOp30
 70
     1
102
RTVSPost2010Prop31
280
     0
102
RTVSPost2010PropOp31
 70
     1
102
RTVSPost2010Prop32
280
     0
102
RTVSPost2010PropOp32
 70
     1
102
RTVSPost2010Prop33
280
     0
102
RTVSPost2010PropOp33
 70
     1
102
RTVSPost2010Prop34
280
     0
102
RTVSPost2010PropOp34
 70
     1
102
RTVSPost2010Prop35
280
     0
102
RTVSPost2010PropOp35
 70
     1
102
RTVSPost2010Prop36
280
     0
102
RTVSPost2010PropOp36
 70
     1
102
RTVSPost2010Prop37
 90
       50
102
RTVSPost2010PropOp37
 70
     1
102
RTVSPost2010Prop38
140
0.0
102
RTVSPost2010PropOp38
 70
     1
102
RTVSPost2010Prop39
140
1.0
102
RTVSPost2010PropOp39
 70
     1
102
RTVSPost2010Prop40
 90
        0
102
RTVSPost2010PropOp40
 70
     1
102
RTVSPost2010Prop41ColorIndex
 90
       18
102
RTVSPost2010Prop41ColorRGB
 90
-16777216
102
RTVSPost2010PropOp41
 70
     1
102
RTVSPost2010Prop42
 90
       50
102
RTVSPost2010PropOp42
 70
     1
102
RTVSPost2010Prop43
 90
        3
102
RTVSPost2010PropOp43
 70
     1
102
RTVSPost2010Prop44ColorIndex
 90
        5
102
RTVSPost2010Prop44ColorRGB
 90
      255
102
RTVSPost2010PropOp44
 70
     1
102
RTVSPost2010Prop45
280
     0
102
RTVSPost2010PropOp45
 70
     1
102
RTVSPost2010Prop46
 90
       50
102
RTVSPost2010PropOp46
 70
     1
102
RTVSPost2010Prop47
 90
       50
102
RTVSPost2010PropOp47
 70
     1
102
RTVSPost2010Prop48
 90
       50
102
RTVSPost2010PropOp48
 70
     1
102
RTVSPost2010Prop49
280
     0
102
RTVSPost2010PropOp49
 70
     1
102
RTVSPost2010Prop50
 90
       50
102
RTVSPost2010PropOp50
 70
     1
102
RTVSPost2010Prop51ColorIndex
 90
      256
102
RTVSPost2010Prop51ColorRGB
 90
-16777216
102
RTVSPost2010PropOp51
 70
     0
102
RTVSPost2010Prop52
140
1.0
102
RTVSPost2010PropOp52
 70
     0
102
RTVSPost2010Prop53
 90
        2
102
RTVSPost2010PropOp53
 70
     1
102
RTVSPost2010Prop54
  1
strokes_ogs.tif
102
RTVSPost2010PropOp54
 70
     1
102
RTVSPost2010Prop55
280
     0
102
RTVSPost2010PropOp55
 70
     1
102
RTVSPost2010Prop56
140
1.0
102
RTVSPost2010PropOp56
 70
     1
102
RTVSPost2010Prop57
140
1.0
102
RTVSPost2010PropOp57
 70
     1
102
RTVSPropertyOp0
 70
     1
102
RTVSPropertyOp1
 70
     1
102
RTVSPropertyOp2
 70
     1
102
RTVSPropertyOp3
 70
     1
102
RTVSPropertyOp4
 70
     1
102
RTVSPropertyOp5
 70
     1
102
RTVSPropertyOp6
 70
     1
102
RTVSPropertyOp7
 70
     1
102
RTVSPropertyOp8
 70
     1
102
RTVSPropertyOp9
 70
     1
102
RTVSPropertyOp10
 70
     1
102
RTVSPropertyOp11
 70
     1
102
RTVSPropertyOp12
 70
     1
102
RTVSPropertyOp13
 70
     1
102
RTVSPropertyOp14
 70
     1
102
RTVSPropertyOp15
 70
     1
102
RTVSPropertyOp16
 70
     1
102
RTVSPropertyOp17
 70
     1
102
RTVSPropertyOp18
 70
     1
102
RTVSPropertyOp19
 70
     1
102
RTVSPropertyOp20
 70
     1
102
RTVSPropertyOp21
 70
     1
102
RTVSPropertyOp22
 70
     1
102
RTVSPropertyOp23
 70
     1
102
RTVSPropertyOp24
 70
     1
102
RTVSPropertyOp25
 70
     1
102
RTVSPropertyOp26
 70
     1
102
RTVSPropertyOp27
 70
     1
102
RTVSPropertyOp28
 70
     1
102
RTVSPropertyOp29
 70
     1
102
RTVSPropertyOp30
 70
     1
102
RTVSPropertyOp31
 70
     1
102
RTVSPropertyOp32
 70
     1
102
RTVSPropertyOp33
 70
     1
102
RTVSPropertyOp34
 70
     1
102
RTVSPropertyOp35
 70
     1
102
RTVSPropertyOp36
 70
     1
102
RTVSPropertyOp37
 70
     1
102
RTVSPropertyOp38
 70
     1
102
RTVSPropertyOp39
 70
     1
102
RTVSPropertyOp40
 70
     1
102
RTVSPropertyOp41
 70
     1
102
RTVSPropertyOp42
 70
     1
102
RTVSPropertyOp43
 70
     1
102
RTVSPropertyOp44
 70
     1
102
RTVSPropertyOp45
 70
     1
102
RTVSPropertyOp46
 70
     1
102
RTVSPropertyOp47
 70
     1
102
RTVSPropertyOp48
 70
     1
102
RTVSPropertyOp49
 70
     1
102
RTVSPropertyOp50
 70
     1
102
RTVSPropertyOp51
 70
     0
102
RTVSPropertyOp52
 70
     0
102
RTVSPropertyOp53
 70
     1
102
RTVSPropertyOp54
 70
     1
102
RTVSPropertyOp55
 70
     1
102
RTVSPropertyOp56
 70
     1
102
RTVSPropertyOp57
 70
     1
102
RTVSPropertyOp58
 70
     1
102
RTVSPropertyOp59
 70
     1
102
RTVSPropertyOp60
 70
     1
102
RTVSPropertyOp61
 70
     1
102
RTVSPropertyOp62
 70
     1
  0
XRECORD
  5
10004C0
102
{ACAD_REACTORS
330
10004BF
102
}
330
10004BF
100
AcDbXrecord
280
     1
102
RTVSPost2010Prop28
280
     0
102
RTVSPost2010PropOp28
 70
     0
102
RTVSPost2010Prop29
280
     1
102
RTVSPost2010PropOp29
 70
     0
102
RTVSPost2010Prop30
280
     1
102
RTVSPost2010PropOp30
 70
     0
102
RTVSPost2010Prop31
280
     0
102
RTVSPost2010PropOp31
 70
     0
102
RTVSPost2010Prop32
280
     0
102
RTVSPost2010PropOp32
 70
     0
102
RTVSPost2010Prop33
280
     0
102
RTVSPost2010PropOp33
 70
     0
102
RTVSPost2010Prop34
280
     0
102
RTVSPost2010PropOp34
 70
     0
102
RTVSPost2010Prop35
280
     0
102
RTVSPost2010PropOp35
 70
     0
102
RTVSPost2010Prop36
280
     0
102
RTVSPost2010PropOp36
 70
     0
102
RTVSPost2010Prop37
 90
       50
102
RTVSPost2010PropOp37
 70
     0
102
RTVSPost2010Prop38
140
0.0
102
RTVSPost2010PropOp38
 70
     0
102
RTVSPost2010Prop39
140
1.0
102
RTVSPost2010PropOp39
 70
     0
102
RTVSPost2010Prop40
 90
        0
102
RTVSPost2010PropOp40
 70
     0
102
RTVSPost2010Prop41ColorIndex
 90
       18
102
RTVSPost2010Prop41ColorRGB
 90
-16777216
102
RTVSPost2010PropOp41
 70
     0
102
RTVSPost2010Prop42
 90
       50
102
RTVSPost2010PropOp42
 70
     0
102
RTVSPost2010Prop43
 90
        3
102
RTVSPost2010PropOp43
 70
     0
102
RTVSPost2010Prop44ColorIndex
 90
        5
102
RTVSPost2010Prop44ColorRGB
 90
      255
102
RTVSPost2010PropOp44
 70
     0
102
RTVSPost2010Prop45
280
     0
102
RTVSPost2010PropOp45
 70
     0
102
RTVSPost2010Prop46
 90
       50
102
RTVSPost2010PropOp46
 70
     0
102
RTVSPost2010Prop47
 90
       50
102
RTVSPost2010PropOp47
 70
     0
102
RTVSPost2010Prop48
 90
       50
102
RTVSPost2010PropOp48
 70
     0
102
RTVSPost2010Prop49
280
     0
102
RTVSPost2010PropOp49
 70
     0
102
RTVSPost2010Prop50
 90
       50
102
RTVSPost2010PropOp50
 70
     0
102
RTVSPost2010Prop51ColorIndex
 90
      256
102
RTVSPost2010Prop51ColorRGB
 90
-16777216
102
RTVSPost2010PropOp51
 70
     0
102
RTVSPost2010Prop52
140
1.0
102
RTVSPost2010PropOp52
 70
     0
102
RTVSPost2010Prop53
 90
        2
102
RTVSPost2010PropOp53
 70
     0
102
RTVSPost2010Prop54
  1
strokes_ogs.tif
102
RTVSPost2010PropOp54
 70
     0
102
RTVSPost2010Prop55
280
     0
102
RTVSPost2010PropOp55
 70
     0
102
RTVSPost2010Prop56
140
1.0
102
RTVSPost2010PropOp56
 70
     0
102
RTVSPost2010Prop57
140
1.0
102
RTVSPost2010PropOp57
 70
     0
102
RTVSPropertyOp0
 70
     0
102
RTVSPropertyOp1
 70
     0
102
RTVSPropertyOp2
 70
     0
102
RTVSPropertyOp3
 70
     0
102
RTVSPropertyOp4
 70
     0
102
RTVSPropertyOp5
 70
     0
102
RTVSPropertyOp6
 70
     0
102
RTVSPropertyOp7
 70
     0
102
RTVSPropertyOp8
 70
     0
102
RTVSPropertyOp9
 70
     0
102
RTVSPropertyOp10
 70
     0
102
RTVSPropertyOp11
 70
     0
102
RTVSPropertyOp12
 70
     0
102
RTVSPropertyOp13
 70
     0
102
RTVSPropertyOp14
 70
     2
102
RTVSPropertyOp15
 70
     0
102
RTVSPropertyOp16
 70
     0
102
RTVSPropertyOp17
 70
     0
102
RTVSPropertyOp18
 70
     0
102
RTVSPropertyOp19
 70
     0
102
RTVSPropertyOp20
 70
     0
102
RTVSPropertyOp21
 70
     0
102
RTVSPropertyOp22
 70
     0
102
RTVSPropertyOp23
 70
     0
102
RTVSPropertyOp24
 70
     0
102
RTVSPropertyOp25
 70
     0
102
RTVSPropertyOp26
 70
     0
102
RTVSPropertyOp27
 70
     0
102
RTVSPropertyOp28
 70
     0
102
RTVSPropertyOp29
 70
     0
102
RTVSPropertyOp30
 70
     0
102
RTVSPropertyOp31
 70
     0
102
RTVSPropertyOp32
 70
     0
102
RTVSPropertyOp33
 70
     0
102
RTVSPropertyOp34
 70
     0
102
RTVSPropertyOp35
 70
     0
102
RTVSPropertyOp36
 70
     0
102
RTVSPropertyOp37
 70
     0
102
RTVSPropertyOp38
 70
     0
102
RTVSPropertyOp39
 70
     0
102
RTVSPropertyOp40
 70
     0
102
RTVSPropertyOp41
 70
     0
102
RTVSPropertyOp42
 70
     0
102
RTVSPropertyOp43
 70
     0
102
RTVSPropertyOp44
 70
     0
102
RTVSPropertyOp45
 70
     0
102
RTVSPropertyOp46
 70
     0
102
RTVSPropertyOp47
 70
     0
102
RTVSPropertyOp48
 70
     0
102
RTVSPropertyOp49
 70
     0
102
RTVSPropertyOp50
 70
     0
102
RTVSPropertyOp51
 70
     0
102
RTVSPropertyOp52
 70
     0
102
RTVSPropertyOp53
 70
     0
102
RTVSPropertyOp54
 70
     0
102
RTVSPropertyOp55
 70
     0
102
RTVSPropertyOp56
 70
     0
102
RTVSPropertyOp57
 70
     0
102
RTVSPropertyOp58
 70
     1
102
RTVSPropertyOp59
 70
     1
102
RTVSPropertyOp60
 70
     1
102
RTVSPropertyOp61
 70
     1
102
RTVSPropertyOp62
 70
     1
  0
XRECORD
  5
10004B8
102
{ACAD_REACTORS
330
10004B7
102
}
330
10004B7
100
AcDbXrecord
280
     1
102
RTVSPost2010Prop28
280
     0
102
RTVSPost2010PropOp28
 70
     1
102
RTVSPost2010Prop29
280
     1
102
RTVSPost2010PropOp29
 70
     1
102
RTVSPost2010Prop30
280
     1
102
RTVSPost2010PropOp30
 70
     1
102
RTVSPost2010Prop31
280
     0
102
RTVSPost2010PropOp31
 70
     1
102
RTVSPost2010Prop32
280
     0
102
RTVSPost2010PropOp32
 70
     1
102
RTVSPost2010Prop33
280
     0
102
RTVSPost2010PropOp33
 70
     1
102
RTVSPost2010Prop34
280
     0
102
RTVSPost2010PropOp34
 70
     1
102
RTVSPost2010Prop35
280
     0
102
RTVSPost2010PropOp35
 70
     1
102
RTVSPost2010Prop36
280
     0
102
RTVSPost2010PropOp36
 70
     1
102
RTVSPost2010Prop37
 90
       50
102
RTVSPost2010PropOp37
 70
     1
102
RTVSPost2010Prop38
140
0.0
102
RTVSPost2010PropOp38
 70
     1
102
RTVSPost2010Prop39
140
1.0
102
RTVSPost2010PropOp39
 70
     1
102
RTVSPost2010Prop40
 90
        0
102
RTVSPost2010PropOp40
 70
     1
102
RTVSPost2010Prop41ColorIndex
 90
       18
102
RTVSPost2010Prop41ColorRGB
 90
-16777216
102
RTVSPost2010PropOp41
 70
     1
102
RTVSPost2010Prop42
 90
       50
102
RTVSPost2010PropOp42
 70
     1
102
RTVSPost2010Prop43
 90
        3
102
RTVSPost2010PropOp43
 70
     1
102
RTVSPost2010Prop44ColorIndex
 90
        5
102
RTVSPost2010Prop44ColorRGB
 90
      255
102
RTVSPost2010PropOp44
 70
     1
102
RTVSPost2010Prop45
280
     0
102
RTVSPost2010PropOp45
 70
     1
102
RTVSPost2010Prop46
 90
       50
102
RTVSPost2010PropOp46
 70
     1
102
RTVSPost2010Prop47
 90
       50
102
RTVSPost2010PropOp47
 70
     1
102
RTVSPost2010Prop48
 90
       50
102
RTVSPost2010PropOp48
 70
     1
102
RTVSPost2010Prop49
280
     0
102
RTVSPost2010PropOp49
 70
     1
102
RTVSPost2010Prop50
 90
       50
102
RTVSPost2010PropOp50
 70
     1
102
RTVSPost2010Prop51ColorIndex
 90
      256
102
RTVSPost2010Prop51ColorRGB
 90
-16777216
102
RTVSPost2010PropOp51
 70
     0
102
RTVSPost2010Prop52
140
1.0
102
RTVSPost2010PropOp52
 70
     0
102
RTVSPost2010Prop53
 90
        2
102
RTVSPost2010PropOp53
 70
     1
102
RTVSPost2010Prop54
  1
strokes_ogs.tif
102
RTVSPost2010PropOp54
 70
     1
102
RTVSPost2010Prop55
280
     0
102
RTVSPost2010PropOp55
 70
     1
102
RTVSPost2010Prop56
140
1.0
102
RTVSPost2010PropOp56
 70
     1
102
RTVSPost2010Prop57
140
1.0
102
RTVSPost2010PropOp57
 70
     1
102
RTVSPropertyOp0
 70
     1
102
RTVSPropertyOp1
 70
     1
102
RTVSPropertyOp2
 70
     1
102
RTVSPropertyOp3
 70
     1
102
RTVSPropertyOp4
 70
     1
102
RTVSPropertyOp5
 70
     1
102
RTVSPropertyOp6
 70
     1
102
RTVSPropertyOp7
 70
     1
102
RTVSPropertyOp8
 70
     1
102
RTVSPropertyOp9
 70
     1
102
RTVSPropertyOp10
 70
     1
102
RTVSPropertyOp11
 70
     1
102
RTVSPropertyOp12
 70
     1
102
RTVSPropertyOp13
 70
     1
102
RTVSPropertyOp14
 70
     1
102
RTVSPropertyOp15
 70
     1
102
RTVSPropertyOp16
 70
     1
102
RTVSPropertyOp17
 70
     1
102
RTVSPropertyOp18
 70
     1
102
RTVSPropertyOp19
 70
     1
102
RTVSPropertyOp20
 70
     1
102
RTVSPropertyOp21
 70
     1
102
RTVSPropertyOp22
 70
     1
102
RTVSPropertyOp23
 70
     1
102
RTVSPropertyOp24
 70
     1
102
RTVSPropertyOp25
 70
     1
102
RTVSPropertyOp26
 70
     1
102
RTVSPropertyOp27
 70
     1
102
RTVSPropertyOp28
 70
     1
102
RTVSPropertyOp29
 70
     1
102
RTVSPropertyOp30
 70
     1
102
RTVSPropertyOp31
 70
     1
102
RTVSPropertyOp32
 70
     1
102
RTVSPropertyOp33
 70
     1
102
RTVSPropertyOp34
 70
     1
102
RTVSPropertyOp35
 70
     1
102
RTVSPropertyOp36
 70
     1
102
RTVSPropertyOp37
 70
     1
102
RTVSPropertyOp38
 70
     1
102
RTVSPropertyOp39
 70
     1
102
RTVSPropertyOp40
 70
     1
102
RTVSPropertyOp41
 70
     1
102
RTVSPropertyOp42
 70
     1
102
RTVSPropertyOp43
 70
     1
102
RTVSPropertyOp44
 70
     1
102
RTVSPropertyOp45
 70
     1
102
RTVSPropertyOp46
 70
     1
102
RTVSPropertyOp47
 70
     1
102
RTVSPropertyOp48
 70
     1
102
RTVSPropertyOp49
 70
     1
102
RTVSPropertyOp50
 70
     1
102
RTVSPropertyOp51
 70
     0
102
RTVSPropertyOp52
 70
     0
102
RTVSPropertyOp53
 70
     1
102
RTVSPropertyOp54
 70
     1
102
RTVSPropertyOp55
 70
     1
102
RTVSPropertyOp56
 70
     1
102
RTVSPropertyOp57
 70
     1
102
RTVSPropertyOp58
 70
     1
102
RTVSPropertyOp59
 70
     1
102
RTVSPropertyOp60
 70
     1
102
RTVSPropertyOp61
 70
     1
102
RTVSPropertyOp62
 70
     1
  0
XRECORD
  5
100049C
102
{ACAD_REACTORS
330
100049B
102
}
330
100049B
100
AcDbXrecord
280
     1
102
RTVSPost2010Prop28
280
     0
102
RTVSPost2010PropOp28
 70
     1
102
RTVSPost2010Prop29
280
     1
102
RTVSPost2010PropOp29
 70
     1
102
RTVSPost2010Prop30
280
     1
102
RTVSPost2010PropOp30
 70
     1
102
RTVSPost2010Prop31
280
     0
102
RTVSPost2010PropOp31
 70
     1
102
RTVSPost2010Prop32
280
     0
102
RTVSPost2010PropOp32
 70
     1
102
RTVSPost2010Prop33
280
     0
102
RTVSPost2010PropOp33
 70
     1
102
RTVSPost2010Prop34
280
     0
102
RTVSPost2010PropOp34
 70
     1
102
RTVSPost2010Prop35
280
     0
102
RTVSPost2010PropOp35
 70
     1
102
RTVSPost2010Prop36
280
     0
102
RTVSPost2010PropOp36
 70
     1
102
RTVSPost2010Prop37
 90
       50
102
RTVSPost2010PropOp37
 70
     1
102
RTVSPost2010Prop38
140
0.0
102
RTVSPost2010PropOp38
 70
     1
102
RTVSPost2010Prop39
140
1.0
102
RTVSPost2010PropOp39
 70
     1
102
RTVSPost2010Prop40
 90
        0
102
RTVSPost2010PropOp40
 70
     1
102
RTVSPost2010Prop41ColorIndex
 90
       18
102
RTVSPost2010Prop41ColorRGB
 90
-16777216
102
RTVSPost2010PropOp41
 70
     1
102
RTVSPost2010Prop42
 90
       50
102
RTVSPost2010PropOp42
 70
     1
102
RTVSPost2010Prop43
 90
        3
102
RTVSPost2010PropOp43
 70
     1
102
RTVSPost2010Prop44ColorIndex
 90
        5
102
RTVSPost2010Prop44ColorRGB
 90
      255
102
RTVSPost2010PropOp44
 70
     1
102
RTVSPost2010Prop45
280
     0
102
RTVSPost2010PropOp45
 70
     1
102
RTVSPost2010Prop46
 90
       50
102
RTVSPost2010PropOp46
 70
     1
102
RTVSPost2010Prop47
 90
       50
102
RTVSPost2010PropOp47
 70
     1
102
RTVSPost2010Prop48
 90
       50
102
RTVSPost2010PropOp48
 70
     1
102
RTVSPost2010Prop49
280
     0
102
RTVSPost2010PropOp49
 70
     1
102
RTVSPost2010Prop50
 90
       50
102
RTVSPost2010PropOp50
 70
     1
102
RTVSPost2010Prop51ColorIndex
 90
      256
102
RTVSPost2010Prop51ColorRGB
 90
-16777216
102
RTVSPost2010PropOp51
 70
     0
102
RTVSPost2010Prop52
140
1.0
102
RTVSPost2010PropOp52
 70
     0
102
RTVSPost2010Prop53
 90
        2
102
RTVSPost2010PropOp53
 70
     1
102
RTVSPost2010Prop54
  1
strokes_ogs.tif
102
RTVSPost2010PropOp54
 70
     1
102
RTVSPost2010Prop55
280
     0
102
RTVSPost2010PropOp55
 70
     1
102
RTVSPost2010Prop56
140
1.0
102
RTVSPost2010PropOp56
 70
     1
102
RTVSPost2010Prop57
140
1.0
102
RTVSPost2010PropOp57
 70
     1
102
RTVSPropertyOp0
 70
     1
102
RTVSPropertyOp1
 70
     1
102
RTVSPropertyOp2
 70
     1
102
RTVSPropertyOp3
 70
     1
102
RTVSPropertyOp4
 70
     1
102
RTVSPropertyOp5
 70
     1
102
RTVSPropertyOp6
 70
     1
102
RTVSPropertyOp7
 70
     1
102
RTVSPropertyOp8
 70
     1
102
RTVSPropertyOp9
 70
     1
102
RTVSPropertyOp10
 70
     1
102
RTVSPropertyOp11
 70
     1
102
RTVSPropertyOp12
 70
     1
102
RTVSPropertyOp13
 70
     1
102
RTVSPropertyOp14
 70
     1
102
RTVSPropertyOp15
 70
     1
102
RTVSPropertyOp16
 70
     1
102
RTVSPropertyOp17
 70
     1
102
RTVSPropertyOp18
 70
     1
102
RTVSPropertyOp19
 70
     1
102
RTVSPropertyOp20
 70
     1
102
RTVSPropertyOp21
 70
     1
102
RTVSPropertyOp22
 70
     1
102
RTVSPropertyOp23
 70
     1
102
RTVSPropertyOp24
 70
     1
102
RTVSPropertyOp25
 70
     1
102
RTVSPropertyOp26
 70
     1
102
RTVSPropertyOp27
 70
     1
102
RTVSPropertyOp28
 70
     1
102
RTVSPropertyOp29
 70
     1
102
RTVSPropertyOp30
 70
     1
102
RTVSPropertyOp31
 70
     1
102
RTVSPropertyOp32
 70
     1
102
RTVSPropertyOp33
 70
     1
102
RTVSPropertyOp34
 70
     1
102
RTVSPropertyOp35
 70
     1
102
RTVSPropertyOp36
 70
     1
102
RTVSPropertyOp37
 70
     1
102
RTVSPropertyOp38
 70
     1
102
RTVSPropertyOp39
 70
     1
102
RTVSPropertyOp40
 70
     1
102
RTVSPropertyOp41
 70
     1
102
RTVSPropertyOp42
 70
     1
102
RTVSPropertyOp43
 70
     1
102
RTVSPropertyOp44
 70
     1
102
RTVSPropertyOp45
 70
     1
102
RTVSPropertyOp46
 70
     1
102
RTVSPropertyOp47
 70
     1
102
RTVSPropertyOp48
 70
     1
102
RTVSPropertyOp49
 70
     1
102
RTVSPropertyOp50
 70
     1
102
RTVSPropertyOp51
 70
     0
102
RTVSPropertyOp52
 70
     0
102
RTVSPropertyOp53
 70
     1
102
RTVSPropertyOp54
 70
     1
102
RTVSPropertyOp55
 70
     1
102
RTVSPropertyOp56
 70
     1
102
RTVSPropertyOp57
 70
     1
102
RTVSPropertyOp58
 70
     1
102
RTVSPropertyOp59
 70
     1
102
RTVSPropertyOp60
 70
     1
102
RTVSPropertyOp61
 70
     1
102
RTVSPropertyOp62
 70
     1
  0
XRECORD
  5
100049E
102
{ACAD_REACTORS
330
100049D
102
}
330
100049D
100
AcDbXrecord
280
     1
102
RTVSPost2010Prop28
280
     0
102
RTVSPost2010PropOp28
 70
     1
102
RTVSPost2010Prop29
280
     1
102
RTVSPost2010PropOp29
 70
     1
102
RTVSPost2010Prop30
280
     1
102
RTVSPost2010PropOp30
 70
     1
102
RTVSPost2010Prop31
280
     0
102
RTVSPost2010PropOp31
 70
     1
102
RTVSPost2010Prop32
280
     0
102
RTVSPost2010PropOp32
 70
     1
102
RTVSPost2010Prop33
280
     0
102
RTVSPost2010PropOp33
 70
     1
102
RTVSPost2010Prop34
280
     0
102
RTVSPost2010PropOp34
 70
     1
102
RTVSPost2010Prop35
280
     0
102
RTVSPost2010PropOp35
 70
     1
102
RTVSPost2010Prop36
280
     0
102
RTVSPost2010PropOp36
 70
     1
102
RTVSPost2010Prop37
 90
       50
102
RTVSPost2010PropOp37
 70
     1
102
RTVSPost2010Prop38
140
0.0
102
RTVSPost2010PropOp38
 70
     1
102
RTVSPost2010Prop39
140
1.0
102
RTVSPost2010PropOp39
 70
     1
102
RTVSPost2010Prop40
 90
        0
102
RTVSPost2010PropOp40
 70
     1
102
RTVSPost2010Prop41ColorIndex
 90
       18
102
RTVSPost2010Prop41ColorRGB
 90
-16777216
102
RTVSPost2010PropOp41
 70
     1
102
RTVSPost2010Prop42
 90
       50
102
RTVSPost2010PropOp42
 70
     1
102
RTVSPost2010Prop43
 90
        3
102
RTVSPost2010PropOp43
 70
     1
102
RTVSPost2010Prop44ColorIndex
 90
        5
102
RTVSPost2010Prop44ColorRGB
 90
      255
102
RTVSPost2010PropOp44
 70
     1
102
RTVSPost2010Prop45
280
     0
102
RTVSPost2010PropOp45
 70
     1
102
RTVSPost2010Prop46
 90
       50
102
RTVSPost2010PropOp46
 70
     1
102
RTVSPost2010Prop47
 90
       50
102
RTVSPost2010PropOp47
 70
     1
102
RTVSPost2010Prop48
 90
       50
102
RTVSPost2010PropOp48
 70
     1
102
RTVSPost2010Prop49
280
     0
102
RTVSPost2010PropOp49
 70
     1
102
RTVSPost2010Prop50
 90
       50
102
RTVSPost2010PropOp50
 70
     1
102
RTVSPost2010Prop51ColorIndex
 90
      256
102
RTVSPost2010Prop51ColorRGB
 90
-16777216
102
RTVSPost2010PropOp51
 70
     0
102
RTVSPost2010Prop52
140
1.0
102
RTVSPost2010PropOp52
 70
     0
102
RTVSPost2010Prop53
 90
        2
102
RTVSPost2010PropOp53
 70
     1
102
RTVSPost2010Prop54
  1
strokes_ogs.tif
102
RTVSPost2010PropOp54
 70
     1
102
RTVSPost2010Prop55
280
     0
102
RTVSPost2010PropOp55
 70
     1
102
RTVSPost2010Prop56
140
1.0
102
RTVSPost2010PropOp56
 70
     1
102
RTVSPost2010Prop57
140
1.0
102
RTVSPost2010PropOp57
 70
     1
102
RTVSPropertyOp0
 70
     1
102
RTVSPropertyOp1
 70
     1
102
RTVSPropertyOp2
 70
     1
102
RTVSPropertyOp3
 70
     1
102
RTVSPropertyOp4
 70
     1
102
RTVSPropertyOp5
 70
     1
102
RTVSPropertyOp6
 70
     1
102
RTVSPropertyOp7
 70
     1
102
RTVSPropertyOp8
 70
     1
102
RTVSPropertyOp9
 70
     1
102
RTVSPropertyOp10
 70
     1
102
RTVSPropertyOp11
 70
     1
102
RTVSPropertyOp12
 70
     1
102
RTVSPropertyOp13
 70
     1
102
RTVSPropertyOp14
 70
     1
102
RTVSPropertyOp15
 70
     1
102
RTVSPropertyOp16
 70
     1
102
RTVSPropertyOp17
 70
     1
102
RTVSPropertyOp18
 70
     1
102
RTVSPropertyOp19
 70
     1
102
RTVSPropertyOp20
 70
     1
102
RTVSPropertyOp21
 70
     1
102
RTVSPropertyOp22
 70
     1
102
RTVSPropertyOp23
 70
     1
102
RTVSPropertyOp24
 70
     1
102
RTVSPropertyOp25
 70
     1
102
RTVSPropertyOp26
 70
     1
102
RTVSPropertyOp27
 70
     1
102
RTVSPropertyOp28
 70
     1
102
RTVSPropertyOp29
 70
     1
102
RTVSPropertyOp30
 70
     1
102
RTVSPropertyOp31
 70
     1
102
RTVSPropertyOp32
 70
     1
102
RTVSPropertyOp33
 70
     1
102
RTVSPropertyOp34
 70
     1
102
RTVSPropertyOp35
 70
     1
102
RTVSPropertyOp36
 70
     1
102
RTVSPropertyOp37
 70
     1
102
RTVSPropertyOp38
 70
     1
102
RTVSPropertyOp39
 70
     1
102
RTVSPropertyOp40
 70
     1
102
RTVSPropertyOp41
 70
     1
102
RTVSPropertyOp42
 70
     1
102
RTVSPropertyOp43
 70
     1
102
RTVSPropertyOp44
 70
     1
102
RTVSPropertyOp45
 70
     1
102
RTVSPropertyOp46
 70
     1
102
RTVSPropertyOp47
 70
     1
102
RTVSPropertyOp48
 70
     1
102
RTVSPropertyOp49
 70
     1
102
RTVSPropertyOp50
 70
     1
102
RTVSPropertyOp51
 70
     0
102
RTVSPropertyOp52
 70
     0
102
RTVSPropertyOp53
 70
     1
102
RTVSPropertyOp54
 70
     1
102
RTVSPropertyOp55
 70
     1
102
RTVSPropertyOp56
 70
     1
102
RTVSPropertyOp57
 70
     1
102
RTVSPropertyOp58
 70
     1
102
RTVSPropertyOp59
 70
     1
102
RTVSPropertyOp60
 70
     1
102
RTVSPropertyOp61
 70
     1
102
RTVSPropertyOp62
 70
     1
  0
XRECORD
  5
10004A0
102
{ACAD_REACTORS
330
100049F
102
}
330
100049F
100
AcDbXrecord
280
     1
102
RTVSPost2010Prop28
280
     0
102
RTVSPost2010PropOp28
 70
     1
102
RTVSPost2010Prop29
280
     1
102
RTVSPost2010PropOp29
 70
     1
102
RTVSPost2010Prop30
280
     1
102
RTVSPost2010PropOp30
 70
     1
102
RTVSPost2010Prop31
280
     0
102
RTVSPost2010PropOp31
 70
     1
102
RTVSPost2010Prop32
280
     0
102
RTVSPost2010PropOp32
 70
     1
102
RTVSPost2010Prop33
280
     0
102
RTVSPost2010PropOp33
 70
     1
102
RTVSPost2010Prop34
280
     0
102
RTVSPost2010PropOp34
 70
     1
102
RTVSPost2010Prop35
280
     0
102
RTVSPost2010PropOp35
 70
     1
102
RTVSPost2010Prop36
280
     0
102
RTVSPost2010PropOp36
 70
     1
102
RTVSPost2010Prop37
 90
       50
102
RTVSPost2010PropOp37
 70
     1
102
RTVSPost2010Prop38
140
0.0
102
RTVSPost2010PropOp38
 70
     1
102
RTVSPost2010Prop39
140
1.0
102
RTVSPost2010PropOp39
 70
     1
102
RTVSPost2010Prop40
 90
        0
102
RTVSPost2010PropOp40
 70
     1
102
RTVSPost2010Prop41ColorIndex
 90
       18
102
RTVSPost2010Prop41ColorRGB
 90
-16777216
102
RTVSPost2010PropOp41
 70
     1
102
RTVSPost2010Prop42
 90
       50
102
RTVSPost2010PropOp42
 70
     1
102
RTVSPost2010Prop43
 90
        3
102
RTVSPost2010PropOp43
 70
     1
102
RTVSPost2010Prop44ColorIndex
 90
        5
102
RTVSPost2010Prop44ColorRGB
 90
      255
102
RTVSPost2010PropOp44
 70
     1
102
RTVSPost2010Prop45
280
     0
102
RTVSPost2010PropOp45
 70
     1
102
RTVSPost2010Prop46
 90
       50
102
RTVSPost2010PropOp46
 70
     1
102
RTVSPost2010Prop47
 90
       50
102
RTVSPost2010PropOp47
 70
     1
102
RTVSPost2010Prop48
 90
       50
102
RTVSPost2010PropOp48
 70
     1
102
RTVSPost2010Prop49
280
     0
102
RTVSPost2010PropOp49
 70
     1
102
RTVSPost2010Prop50
 90
       50
102
RTVSPost2010PropOp50
 70
     1
102
RTVSPost2010Prop51ColorIndex
 90
      256
102
RTVSPost2010Prop51ColorRGB
 90
-16777216
102
RTVSPost2010PropOp51
 70
     0
102
RTVSPost2010Prop52
140
1.0
102
RTVSPost2010PropOp52
 70
     0
102
RTVSPost2010Prop53
 90
        2
102
RTVSPost2010PropOp53
 70
     1
102
RTVSPost2010Prop54
  1
strokes_ogs.tif
102
RTVSPost2010PropOp54
 70
     1
102
RTVSPost2010Prop55
280
     0
102
RTVSPost2010PropOp55
 70
     1
102
RTVSPost2010Prop56
140
1.0
102
RTVSPost2010PropOp56
 70
     1
102
RTVSPost2010Prop57
140
1.0
102
RTVSPost2010PropOp57
 70
     1
102
RTVSPropertyOp0
 70
     1
102
RTVSPropertyOp1
 70
     1
102
RTVSPropertyOp2
 70
     1
102
RTVSPropertyOp3
 70
     1
102
RTVSPropertyOp4
 70
     1
102
RTVSPropertyOp5
 70
     1
102
RTVSPropertyOp6
 70
     1
102
RTVSPropertyOp7
 70
     1
102
RTVSPropertyOp8
 70
     1
102
RTVSPropertyOp9
 70
     1
102
RTVSPropertyOp10
 70
     1
102
RTVSPropertyOp11
 70
     1
102
RTVSPropertyOp12
 70
     1
102
RTVSPropertyOp13
 70
     1
102
RTVSPropertyOp14
 70
     1
102
RTVSPropertyOp15
 70
     1
102
RTVSPropertyOp16
 70
     1
102
RTVSPropertyOp17
 70
     1
102
RTVSPropertyOp18
 70
     1
102
RTVSPropertyOp19
 70
     1
102
RTVSPropertyOp20
 70
     1
102
RTVSPropertyOp21
 70
     1
102
RTVSPropertyOp22
 70
     1
102
RTVSPropertyOp23
 70
     1
102
RTVSPropertyOp24
 70
     1
102
RTVSPropertyOp25
 70
     1
102
RTVSPropertyOp26
 70
     1
102
RTVSPropertyOp27
 70
     1
102
RTVSPropertyOp28
 70
     1
102
RTVSPropertyOp29
 70
     1
102
RTVSPropertyOp30
 70
     1
102
RTVSPropertyOp31
 70
     1
102
RTVSPropertyOp32
 70
     1
102
RTVSPropertyOp33
 70
     1
102
RTVSPropertyOp34
 70
     1
102
RTVSPropertyOp35
 70
     1
102
RTVSPropertyOp36
 70
     1
102
RTVSPropertyOp37
 70
     1
102
RTVSPropertyOp38
 70
     1
102
RTVSPropertyOp39
 70
     1
102
RTVSPropertyOp40
 70
     1
102
RTVSPropertyOp41
 70
     1
102
RTVSPropertyOp42
 70
     1
102
RTVSPropertyOp43
 70
     1
102
RTVSPropertyOp44
 70
     1
102
RTVSPropertyOp45
 70
     1
102
RTVSPropertyOp46
 70
     1
102
RTVSPropertyOp47
 70
     1
102
RTVSPropertyOp48
 70
     1
102
RTVSPropertyOp49
 70
     1
102
RTVSPropertyOp50
 70
     1
102
RTVSPropertyOp51
 70
     0
102
RTVSPropertyOp52
 70
     0
102
RTVSPropertyOp53
 70
     1
102
RTVSPropertyOp54
 70
     1
102
RTVSPropertyOp55
 70
     1
102
RTVSPropertyOp56
 70
     1
102
RTVSPropertyOp57
 70
     1
102
RTVSPropertyOp58
 70
     1
102
RTVSPropertyOp59
 70
     1
102
RTVSPropertyOp60
 70
     1
102
RTVSPropertyOp61
 70
     1
102
RTVSPropertyOp62
 70
     1
  0
XRECORD
  5
10004A2
102
{ACAD_REACTORS
330
10004A1
102
}
330
10004A1
100
AcDbXrecord
280
     1
102
RTVSPost2010Prop28
280
     0
102
RTVSPost2010PropOp28
 70
     1
102
RTVSPost2010Prop29
280
     1
102
RTVSPost2010PropOp29
 70
     1
102
RTVSPost2010Prop30
280
     1
102
RTVSPost2010PropOp30
 70
     1
102
RTVSPost2010Prop31
280
     0
102
RTVSPost2010PropOp31
 70
     1
102
RTVSPost2010Prop32
280
     0
102
RTVSPost2010PropOp32
 70
     1
102
RTVSPost2010Prop33
280
     0
102
RTVSPost2010PropOp33
 70
     1
102
RTVSPost2010Prop34
280
     0
102
RTVSPost2010PropOp34
 70
     1
102
RTVSPost2010Prop35
280
     0
102
RTVSPost2010PropOp35
 70
     1
102
RTVSPost2010Prop36
280
     0
102
RTVSPost2010PropOp36
 70
     1
102
RTVSPost2010Prop37
 90
       50
102
RTVSPost2010PropOp37
 70
     1
102
RTVSPost2010Prop38
140
0.0
102
RTVSPost2010PropOp38
 70
     1
102
RTVSPost2010Prop39
140
1.0
102
RTVSPost2010PropOp39
 70
     1
102
RTVSPost2010Prop40
 90
        0
102
RTVSPost2010PropOp40
 70
     1
102
RTVSPost2010Prop41ColorIndex
 90
       18
102
RTVSPost2010Prop41ColorRGB
 90
-16777216
102
RTVSPost2010PropOp41
 70
     1
102
RTVSPost2010Prop42
 90
       50
102
RTVSPost2010PropOp42
 70
     1
102
RTVSPost2010Prop43
 90
        3
102
RTVSPost2010PropOp43
 70
     1
102
RTVSPost2010Prop44ColorIndex
 90
        5
102
RTVSPost2010Prop44ColorRGB
 90
      255
102
RTVSPost2010PropOp44
 70
     1
102
RTVSPost2010Prop45
280
     0
102
RTVSPost2010PropOp45
 70
     1
102
RTVSPost2010Prop46
 90
       50
102
RTVSPost2010PropOp46
 70
     1
102
RTVSPost2010Prop47
 90
       50
102
RTVSPost2010PropOp47
 70
     1
102
RTVSPost2010Prop48
 90
       50
102
RTVSPost2010PropOp48
 70
     1
102
RTVSPost2010Prop49
280
     0
102
RTVSPost2010PropOp49
 70
     1
102
RTVSPost2010Prop50
 90
       50
102
RTVSPost2010PropOp50
 70
     1
102
RTVSPost2010Prop51ColorIndex
 90
      256
102
RTVSPost2010Prop51ColorRGB
 90
-16777216
102
RTVSPost2010PropOp51
 70
     0
102
RTVSPost2010Prop52
140
1.0
102
RTVSPost2010PropOp52
 70
     0
102
RTVSPost2010Prop53
 90
        2
102
RTVSPost2010PropOp53
 70
     1
102
RTVSPost2010Prop54
  1
strokes_ogs.tif
102
RTVSPost2010PropOp54
 70
     1
102
RTVSPost2010Prop55
280
     0
102
RTVSPost2010PropOp55
 70
     1
102
RTVSPost2010Prop56
140
1.0
102
RTVSPost2010PropOp56
 70
     1
102
RTVSPost2010Prop57
140
1.0
102
RTVSPost2010PropOp57
 70
     1
102
RTVSPropertyOp0
 70
     1
102
RTVSPropertyOp1
 70
     1
102
RTVSPropertyOp2
 70
     1
102
RTVSPropertyOp3
 70
     1
102
RTVSPropertyOp4
 70
     1
102
RTVSPropertyOp5
 70
     1
102
RTVSPropertyOp6
 70
     1
102
RTVSPropertyOp7
 70
     1
102
RTVSPropertyOp8
 70
     1
102
RTVSPropertyOp9
 70
     1
102
RTVSPropertyOp10
 70
     1
102
RTVSPropertyOp11
 70
     1
102
RTVSPropertyOp12
 70
     1
102
RTVSPropertyOp13
 70
     1
102
RTVSPropertyOp14
 70
     1
102
RTVSPropertyOp15
 70
     1
102
RTVSPropertyOp16
 70
     1
102
RTVSPropertyOp17
 70
     1
102
RTVSPropertyOp18
 70
     1
102
RTVSPropertyOp19
 70
     1
102
RTVSPropertyOp20
 70
     1
102
RTVSPropertyOp21
 70
     1
102
RTVSPropertyOp22
 70
     1
102
RTVSPropertyOp23
 70
     1
102
RTVSPropertyOp24
 70
     1
102
RTVSPropertyOp25
 70
     1
102
RTVSPropertyOp26
 70
     1
102
RTVSPropertyOp27
 70
     1
102
RTVSPropertyOp28
 70
     1
102
RTVSPropertyOp29
 70
     1
102
RTVSPropertyOp30
 70
     1
102
RTVSPropertyOp31
 70
     1
102
RTVSPropertyOp32
 70
     1
102
RTVSPropertyOp33
 70
     1
102
RTVSPropertyOp34
 70
     1
102
RTVSPropertyOp35
 70
     1
102
RTVSPropertyOp36
 70
     1
102
RTVSPropertyOp37
 70
     1
102
RTVSPropertyOp38
 70
     1
102
RTVSPropertyOp39
 70
     1
102
RTVSPropertyOp40
 70
     1
102
RTVSPropertyOp41
 70
     1
102
RTVSPropertyOp42
 70
     1
102
RTVSPropertyOp43
 70
     1
102
RTVSPropertyOp44
 70
     1
102
RTVSPropertyOp45
 70
     1
102
RTVSPropertyOp46
 70
     1
102
RTVSPropertyOp47
 70
     1
102
RTVSPropertyOp48
 70
     1
102
RTVSPropertyOp49
 70
     1
102
RTVSPropertyOp50
 70
     1
102
RTVSPropertyOp51
 70
     0
102
RTVSPropertyOp52
 70
     0
102
RTVSPropertyOp53
 70
     1
102
RTVSPropertyOp54
 70
     1
102
RTVSPropertyOp55
 70
     1
102
RTVSPropertyOp56
 70
     1
102
RTVSPropertyOp57
 70
     1
102
RTVSPropertyOp58
 70
     1
102
RTVSPropertyOp59
 70
     1
102
RTVSPropertyOp60
 70
     1
102
RTVSPropertyOp61
 70
     1
102
RTVSPropertyOp62
 70
     1
  0
XRECORD
  5
10004A8
102
{ACAD_REACTORS
330
10004A7
102
}
330
10004A7
100
AcDbXrecord
280
     1
102
RTVSPost2010Prop28
280
     0
102
RTVSPost2010PropOp28
 70
     1
102
RTVSPost2010Prop29
280
     1
102
RTVSPost2010PropOp29
 70
     1
102
RTVSPost2010Prop30
280
     1
102
RTVSPost2010PropOp30
 70
     1
102
RTVSPost2010Prop31
280
     0
102
RTVSPost2010PropOp31
 70
     1
102
RTVSPost2010Prop32
280
     0
102
RTVSPost2010PropOp32
 70
     1
102
RTVSPost2010Prop33
280
     0
102
RTVSPost2010PropOp33
 70
     1
102
RTVSPost2010Prop34
280
     0
102
RTVSPost2010PropOp34
 70
     1
102
RTVSPost2010Prop35
280
     0
102
RTVSPost2010PropOp35
 70
     1
102
RTVSPost2010Prop36
280
     0
102
RTVSPost2010PropOp36
 70
     1
102
RTVSPost2010Prop37
 90
       50
102
RTVSPost2010PropOp37
 70
     1
102
RTVSPost2010Prop38
140
0.0
102
RTVSPost2010PropOp38
 70
     1
102
RTVSPost2010Prop39
140
1.0
102
RTVSPost2010PropOp39
 70
     1
102
RTVSPost2010Prop40
 90
        0
102
RTVSPost2010PropOp40
 70
     1
102
RTVSPost2010Prop41ColorIndex
 90
       18
102
RTVSPost2010Prop41ColorRGB
 90
-16777216
102
RTVSPost2010PropOp41
 70
     1
102
RTVSPost2010Prop42
 90
       50
102
RTVSPost2010PropOp42
 70
     1
102
RTVSPost2010Prop43
 90
        3
102
RTVSPost2010PropOp43
 70
     1
102
RTVSPost2010Prop44ColorIndex
 90
        5
102
RTVSPost2010Prop44ColorRGB
 90
      255
102
RTVSPost2010PropOp44
 70
     1
102
RTVSPost2010Prop45
280
     0
102
RTVSPost2010PropOp45
 70
     1
102
RTVSPost2010Prop46
 90
       50
102
RTVSPost2010PropOp46
 70
     1
102
RTVSPost2010Prop47
 90
       50
102
RTVSPost2010PropOp47
 70
     1
102
RTVSPost2010Prop48
 90
       50
102
RTVSPost2010PropOp48
 70
     1
102
RTVSPost2010Prop49
280
     0
102
RTVSPost2010PropOp49
 70
     1
102
RTVSPost2010Prop50
 90
       50
102
RTVSPost2010PropOp50
 70
     1
102
RTVSPost2010Prop51ColorIndex
 90
      256
102
RTVSPost2010Prop51ColorRGB
 90
-16777216
102
RTVSPost2010PropOp51
 70
     0
102
RTVSPost2010Prop52
140
1.0
102
RTVSPost2010PropOp52
 70
     0
102
RTVSPost2010Prop53
 90
        2
102
RTVSPost2010PropOp53
 70
     1
102
RTVSPost2010Prop54
  1
strokes_ogs.tif
102
RTVSPost2010PropOp54
 70
     1
102
RTVSPost2010Prop55
280
     0
102
RTVSPost2010PropOp55
 70
     1
102
RTVSPost2010Prop56
140
1.0
102
RTVSPost2010PropOp56
 70
     1
102
RTVSPost2010Prop57
140
1.0
102
RTVSPost2010PropOp57
 70
     1
102
RTVSPropertyOp0
 70
     1
102
RTVSPropertyOp1
 70
     1
102
RTVSPropertyOp2
 70
     1
102
RTVSPropertyOp3
 70
     1
102
RTVSPropertyOp4
 70
     1
102
RTVSPropertyOp5
 70
     1
102
RTVSPropertyOp6
 70
     1
102
RTVSPropertyOp7
 70
     1
102
RTVSPropertyOp8
 70
     1
102
RTVSPropertyOp9
 70
     1
102
RTVSPropertyOp10
 70
     1
102
RTVSPropertyOp11
 70
     1
102
RTVSPropertyOp12
 70
     1
102
RTVSPropertyOp13
 70
     1
102
RTVSPropertyOp14
 70
     1
102
RTVSPropertyOp15
 70
     1
102
RTVSPropertyOp16
 70
     1
102
RTVSPropertyOp17
 70
     1
102
RTVSPropertyOp18
 70
     1
102
RTVSPropertyOp19
 70
     1
102
RTVSPropertyOp20
 70
     1
102
RTVSPropertyOp21
 70
     1
102
RTVSPropertyOp22
 70
     1
102
RTVSPropertyOp23
 70
     1
102
RTVSPropertyOp24
 70
     1
102
RTVSPropertyOp25
 70
     1
102
RTVSPropertyOp26
 70
     1
102
RTVSPropertyOp27
 70
     1
102
RTVSPropertyOp28
 70
     1
102
RTVSPropertyOp29
 70
     1
102
RTVSPropertyOp30
 70
     1
102
RTVSPropertyOp31
 70
     1
102
RTVSPropertyOp32
 70
     1
102
RTVSPropertyOp33
 70
     1
102
RTVSPropertyOp34
 70
     1
102
RTVSPropertyOp35
 70
     1
102
RTVSPropertyOp36
 70
     1
102
RTVSPropertyOp37
 70
     1
102
RTVSPropertyOp38
 70
     1
102
RTVSPropertyOp39
 70
     1
102
RTVSPropertyOp40
 70
     1
102
RTVSPropertyOp41
 70
     1
102
RTVSPropertyOp42
 70
     1
102
RTVSPropertyOp43
 70
     1
102
RTVSPropertyOp44
 70
     1
102
RTVSPropertyOp45
 70
     1
102
RTVSPropertyOp46
 70
     1
102
RTVSPropertyOp47
 70
     1
102
RTVSPropertyOp48
 70
     1
102
RTVSPropertyOp49
 70
     1
102
RTVSPropertyOp50
 70
     1
102
RTVSPropertyOp51
 70
     0
102
RTVSPropertyOp52
 70
     0
102
RTVSPropertyOp53
 70
     1
102
RTVSPropertyOp54
 70
     1
102
RTVSPropertyOp55
 70
     1
102
RTVSPropertyOp56
 70
     1
102
RTVSPropertyOp57
 70
     1
102
RTVSPropertyOp58
 70
     1
102
RTVSPropertyOp59
 70
     1
102
RTVSPropertyOp60
 70
     1
102
RTVSPropertyOp61
 70
     1
102
RTVSPropertyOp62
 70
     1
  0
XRECORD
  5
10004BC
102
{ACAD_REACTORS
330
10004BB
102
}
330
10004BB
100
AcDbXrecord
280
     1
102
RTVSPost2010Prop28
280
     0
102
RTVSPost2010PropOp28
 70
     0
102
RTVSPost2010Prop29
280
     1
102
RTVSPost2010PropOp29
 70
     0
102
RTVSPost2010Prop30
280
     1
102
RTVSPost2010PropOp30
 70
     0
102
RTVSPost2010Prop31
280
     0
102
RTVSPost2010PropOp31
 70
     0
102
RTVSPost2010Prop32
280
     0
102
RTVSPost2010PropOp32
 70
     0
102
RTVSPost2010Prop33
280
     0
102
RTVSPost2010PropOp33
 70
     0
102
RTVSPost2010Prop34
280
     0
102
RTVSPost2010PropOp34
 70
     0
102
RTVSPost2010Prop35
280
     0
102
RTVSPost2010PropOp35
 70
     0
102
RTVSPost2010Prop36
280
     0
102
RTVSPost2010PropOp36
 70
     0
102
RTVSPost2010Prop37
 90
       50
102
RTVSPost2010PropOp37
 70
     0
102
RTVSPost2010Prop38
140
0.0
102
RTVSPost2010PropOp38
 70
     0
102
RTVSPost2010Prop39
140
1.0
102
RTVSPost2010PropOp39
 70
     0
102
RTVSPost2010Prop40
 90
        0
102
RTVSPost2010PropOp40
 70
     0
102
RTVSPost2010Prop41ColorIndex
 90
       18
102
RTVSPost2010Prop41ColorRGB
 90
-16777216
102
RTVSPost2010PropOp41
 70
     0
102
RTVSPost2010Prop42
 90
       50
102
RTVSPost2010PropOp42
 70
     0
102
RTVSPost2010Prop43
 90
        3
102
RTVSPost2010PropOp43
 70
     0
102
RTVSPost2010Prop44ColorIndex
 90
        5
102
RTVSPost2010Prop44ColorRGB
 90
      255
102
RTVSPost2010PropOp44
 70
     0
102
RTVSPost2010Prop45
280
     0
102
RTVSPost2010PropOp45
 70
     0
102
RTVSPost2010Prop46
 90
       50
102
RTVSPost2010PropOp46
 70
     0
102
RTVSPost2010Prop47
 90
       50
102
RTVSPost2010PropOp47
 70
     0
102
RTVSPost2010Prop48
 90
       50
102
RTVSPost2010PropOp48
 70
     0
102
RTVSPost2010Prop49
280
     0
102
RTVSPost2010PropOp49
 70
     0
102
RTVSPost2010Prop50
 90
       50
102
RTVSPost2010PropOp50
 70
     0
102
RTVSPost2010Prop51ColorIndex
 90
      256
102
RTVSPost2010Prop51ColorRGB
 90
-16777216
102
RTVSPost2010PropOp51
 70
     0
102
RTVSPost2010Prop52
140
1.0
102
RTVSPost2010PropOp52
 70
     0
102
RTVSPost2010Prop53
 90
        2
102
RTVSPost2010PropOp53
 70
     0
102
RTVSPost2010Prop54
  1
strokes_ogs.tif
102
RTVSPost2010PropOp54
 70
     0
102
RTVSPost2010Prop55
280
     0
102
RTVSPost2010PropOp55
 70
     0
102
RTVSPost2010Prop56
140
1.0
102
RTVSPost2010PropOp56
 70
     0
102
RTVSPost2010Prop57
140
1.0
102
RTVSPost2010PropOp57
 70
     0
102
RTVSPropertyOp0
 70
     0
102
RTVSPropertyOp1
 70
     0
102
RTVSPropertyOp2
 70
     0
102
RTVSPropertyOp3
 70
     0
102
RTVSPropertyOp4
 70
     0
102
RTVSPropertyOp5
 70
     0
102
RTVSPropertyOp6
 70
     0
102
RTVSPropertyOp7
 70
     0
102
RTVSPropertyOp8
 70
     0
102
RTVSPropertyOp9
 70
     0
102
RTVSPropertyOp10
 70
     0
102
RTVSPropertyOp11
 70
     0
102
RTVSPropertyOp12
 70
     0
102
RTVSPropertyOp13
 70
     0
102
RTVSPropertyOp14
 70
     2
102
RTVSPropertyOp15
 70
     0
102
RTVSPropertyOp16
 70
     0
102
RTVSPropertyOp17
 70
     0
102
RTVSPropertyOp18
 70
     0
102
RTVSPropertyOp19
 70
     0
102
RTVSPropertyOp20
 70
     0
102
RTVSPropertyOp21
 70
     0
102
RTVSPropertyOp22
 70
     0
102
RTVSPropertyOp23
 70
     0
102
RTVSPropertyOp24
 70
     0
102
RTVSPropertyOp25
 70
     0
102
RTVSPropertyOp26
 70
     0
102
RTVSPropertyOp27
 70
     0
102
RTVSPropertyOp28
 70
     0
102
RTVSPropertyOp29
 70
     0
102
RTVSPropertyOp30
 70
     0
102
RTVSPropertyOp31
 70
     0
102
RTVSPropertyOp32
 70
     0
102
RTVSPropertyOp33
 70
     0
102
RTVSPropertyOp34
 70
     0
102
RTVSPropertyOp35
 70
     0
102
RTVSPropertyOp36
 70
     0
102
RTVSPropertyOp37
 70
     0
102
RTVSPropertyOp38
 70
     0
102
RTVSPropertyOp39
 70
     0
102
RTVSPropertyOp40
 70
     0
102
RTVSPropertyOp41
 70
     0
102
RTVSPropertyOp42
 70
     0
102
RTVSPropertyOp43
 70
     0
102
RTVSPropertyOp44
 70
     0
102
RTVSPropertyOp45
 70
     0
102
RTVSPropertyOp46
 70
     0
102
RTVSPropertyOp47
 70
     0
102
RTVSPropertyOp48
 70
     0
102
RTVSPropertyOp49
 70
     0
102
RTVSPropertyOp50
 70
     0
102
RTVSPropertyOp51
 70
     0
102
RTVSPropertyOp52
 70
     0
102
RTVSPropertyOp53
 70
     0
102
RTVSPropertyOp54
 70
     0
102
RTVSPropertyOp55
 70
     0
102
RTVSPropertyOp56
 70
     0
102
RTVSPropertyOp57
 70
     0
102
RTVSPropertyOp58
 70
     1
102
RTVSPropertyOp59
 70
     1
102
RTVSPropertyOp60
 70
     1
102
RTVSPropertyOp61
 70
     1
102
RTVSPropertyOp62
 70
     1
  0
XRECORD
  5
10004B6
102
{ACAD_REACTORS
330
10004B5
102
}
330
10004B5
100
AcDbXrecord
280
     1
102
RTVSPost2010Prop28
280
     0
102
RTVSPost2010PropOp28
 70
     1
102
RTVSPost2010Prop29
280
     1
102
RTVSPost2010PropOp29
 70
     1
102
RTVSPost2010Prop30
280
     1
102
RTVSPost2010PropOp30
 70
     1
102
RTVSPost2010Prop31
280
     0
102
RTVSPost2010PropOp31
 70
     1
102
RTVSPost2010Prop32
280
     0
102
RTVSPost2010PropOp32
 70
     1
102
RTVSPost2010Prop33
280
     0
102
RTVSPost2010PropOp33
 70
     1
102
RTVSPost2010Prop34
280
     0
102
RTVSPost2010PropOp34
 70
     1
102
RTVSPost2010Prop35
280
     0
102
RTVSPost2010PropOp35
 70
     1
102
RTVSPost2010Prop36
280
     0
102
RTVSPost2010PropOp36
 70
     1
102
RTVSPost2010Prop37
 90
       50
102
RTVSPost2010PropOp37
 70
     1
102
RTVSPost2010Prop38
140
0.0
102
RTVSPost2010PropOp38
 70
     1
102
RTVSPost2010Prop39
140
1.0
102
RTVSPost2010PropOp39
 70
     1
102
RTVSPost2010Prop40
 90
        0
102
RTVSPost2010PropOp40
 70
     1
102
RTVSPost2010Prop41ColorIndex
 90
       18
102
RTVSPost2010Prop41ColorRGB
 90
-16777216
102
RTVSPost2010PropOp41
 70
     1
102
RTVSPost2010Prop42
 90
       50
102
RTVSPost2010PropOp42
 70
     1
102
RTVSPost2010Prop43
 90
        3
102
RTVSPost2010PropOp43
 70
     1
102
RTVSPost2010Prop44ColorIndex
 90
        5
102
RTVSPost2010Prop44ColorRGB
 90
      255
102
RTVSPost2010PropOp44
 70
     1
102
RTVSPost2010Prop45
280
     0
102
RTVSPost2010PropOp45
 70
     1
102
RTVSPost2010Prop46
 90
       50
102
RTVSPost2010PropOp46
 70
     1
102
RTVSPost2010Prop47
 90
       50
102
RTVSPost2010PropOp47
 70
     1
102
RTVSPost2010Prop48
 90
       50
102
RTVSPost2010PropOp48
 70
     1
102
RTVSPost2010Prop49
280
     0
102
RTVSPost2010PropOp49
 70
     1
102
RTVSPost2010Prop50
 90
       50
102
RTVSPost2010PropOp50
 70
     1
102
RTVSPost2010Prop51ColorIndex
 90
      256
102
RTVSPost2010Prop51ColorRGB
 90
-16777216
102
RTVSPost2010PropOp51
 70
     0
102
RTVSPost2010Prop52
140
1.0
102
RTVSPost2010PropOp52
 70
     0
102
RTVSPost2010Prop53
 90
        2
102
RTVSPost2010PropOp53
 70
     1
102
RTVSPost2010Prop54
  1
strokes_ogs.tif
102
RTVSPost2010PropOp54
 70
     1
102
RTVSPost2010Prop55
280
     0
102
RTVSPost2010PropOp55
 70
     1
102
RTVSPost2010Prop56
140
1.0
102
RTVSPost2010PropOp56
 70
     1
102
RTVSPost2010Prop57
140
1.0
102
RTVSPost2010PropOp57
 70
     1
102
RTVSPropertyOp0
 70
     1
102
RTVSPropertyOp1
 70
     1
102
RTVSPropertyOp2
 70
     1
102
RTVSPropertyOp3
 70
     1
102
RTVSPropertyOp4
 70
     1
102
RTVSPropertyOp5
 70
     1
102
RTVSPropertyOp6
 70
     1
102
RTVSPropertyOp7
 70
     1
102
RTVSPropertyOp8
 70
     1
102
RTVSPropertyOp9
 70
     1
102
RTVSPropertyOp10
 70
     1
102
RTVSPropertyOp11
 70
     1
102
RTVSPropertyOp12
 70
     1
102
RTVSPropertyOp13
 70
     1
102
RTVSPropertyOp14
 70
     1
102
RTVSPropertyOp15
 70
     1
102
RTVSPropertyOp16
 70
     1
102
RTVSPropertyOp17
 70
     1
102
RTVSPropertyOp18
 70
     1
102
RTVSPropertyOp19
 70
     1
102
RTVSPropertyOp20
 70
     1
102
RTVSPropertyOp21
 70
     1
102
RTVSPropertyOp22
 70
     1
102
RTVSPropertyOp23
 70
     1
102
RTVSPropertyOp24
 70
     1
102
RTVSPropertyOp25
 70
     1
102
RTVSPropertyOp26
 70
     1
102
RTVSPropertyOp27
 70
     1
102
RTVSPropertyOp28
 70
     1
102
RTVSPropertyOp29
 70
     1
102
RTVSPropertyOp30
 70
     1
102
RTVSPropertyOp31
 70
     1
102
RTVSPropertyOp32
 70
     1
102
RTVSPropertyOp33
 70
     1
102
RTVSPropertyOp34
 70
     1
102
RTVSPropertyOp35
 70
     1
102
RTVSPropertyOp36
 70
     1
102
RTVSPropertyOp37
 70
     1
102
RTVSPropertyOp38
 70
     1
102
RTVSPropertyOp39
 70
     1
102
RTVSPropertyOp40
 70
     1
102
RTVSPropertyOp41
 70
     1
102
RTVSPropertyOp42
 70
     1
102
RTVSPropertyOp43
 70
     1
102
RTVSPropertyOp44
 70
     1
102
RTVSPropertyOp45
 70
     1
102
RTVSPropertyOp46
 70
     1
102
RTVSPropertyOp47
 70
     1
102
RTVSPropertyOp48
 70
     1
102
RTVSPropertyOp49
 70
     1
102
RTVSPropertyOp50
 70
     1
102
RTVSPropertyOp51
 70
     0
102
RTVSPropertyOp52
 70
     0
102
RTVSPropertyOp53
 70
     1
102
RTVSPropertyOp54
 70
     1
102
RTVSPropertyOp55
 70
     1
102
RTVSPropertyOp56
 70
     1
102
RTVSPropertyOp57
 70
     1
102
RTVSPropertyOp58
 70
     1
102
RTVSPropertyOp59
 70
     1
102
RTVSPropertyOp60
 70
     1
102
RTVSPropertyOp61
 70
     1
102
RTVSPropertyOp62
 70
     1
  0
XRECORD
  5
10004BE
102
{ACAD_REACTORS
330
10004BD
102
}
330
10004BD
100
AcDbXrecord
280
     1
102
RTVSPost2010Prop28
280
     0
102
RTVSPost2010PropOp28
 70
     0
102
RTVSPost2010Prop29
280
     1
102
RTVSPost2010PropOp29
 70
     0
102
RTVSPost2010Prop30
280
     1
102
RTVSPost2010PropOp30
 70
     0
102
RTVSPost2010Prop31
280
     0
102
RTVSPost2010PropOp31
 70
     0
102
RTVSPost2010Prop32
280
     0
102
RTVSPost2010PropOp32
 70
     0
102
RTVSPost2010Prop33
280
     0
102
RTVSPost2010PropOp33
 70
     0
102
RTVSPost2010Prop34
280
     0
102
RTVSPost2010PropOp34
 70
     0
102
RTVSPost2010Prop35
280
     0
102
RTVSPost2010PropOp35
 70
     0
102
RTVSPost2010Prop36
280
     0
102
RTVSPost2010PropOp36
 70
     0
102
RTVSPost2010Prop37
 90
       50
102
RTVSPost2010PropOp37
 70
     0
102
RTVSPost2010Prop38
140
0.0
102
RTVSPost2010PropOp38
 70
     0
102
RTVSPost2010Prop39
140
1.0
102
RTVSPost2010PropOp39
 70
     0
102
RTVSPost2010Prop40
 90
        0
102
RTVSPost2010PropOp40
 70
     0
102
RTVSPost2010Prop41ColorIndex
 90
       18
102
RTVSPost2010Prop41ColorRGB
 90
-16777216
102
RTVSPost2010PropOp41
 70
     0
102
RTVSPost2010Prop42
 90
       50
102
RTVSPost2010PropOp42
 70
     0
102
RTVSPost2010Prop43
 90
        3
102
RTVSPost2010PropOp43
 70
     0
102
RTVSPost2010Prop44ColorIndex
 90
        5
102
RTVSPost2010Prop44ColorRGB
 90
      255
102
RTVSPost2010PropOp44
 70
     0
102
RTVSPost2010Prop45
280
     0
102
RTVSPost2010PropOp45
 70
     0
102
RTVSPost2010Prop46
 90
       50
102
RTVSPost2010PropOp46
 70
     0
102
RTVSPost2010Prop47
 90
       50
102
RTVSPost2010PropOp47
 70
     0
102
RTVSPost2010Prop48
 90
       50
102
RTVSPost2010PropOp48
 70
     0
102
RTVSPost2010Prop49
280
     0
102
RTVSPost2010PropOp49
 70
     0
102
RTVSPost2010Prop50
 90
       50
102
RTVSPost2010PropOp50
 70
     0
102
RTVSPost2010Prop51ColorIndex
 90
      256
102
RTVSPost2010Prop51ColorRGB
 90
-16777216
102
RTVSPost2010PropOp51
 70
     0
102
RTVSPost2010Prop52
140
1.0
102
RTVSPost2010PropOp52
 70
     0
102
RTVSPost2010Prop53
 90
        2
102
RTVSPost2010PropOp53
 70
     0
102
RTVSPost2010Prop54
  1
strokes_ogs.tif
102
RTVSPost2010PropOp54
 70
     0
102
RTVSPost2010Prop55
280
     0
102
RTVSPost2010PropOp55
 70
     0
102
RTVSPost2010Prop56
140
1.0
102
RTVSPost2010PropOp56
 70
     0
102
RTVSPost2010Prop57
140
1.0
102
RTVSPost2010PropOp57
 70
     0
102
RTVSPropertyOp0
 70
     0
102
RTVSPropertyOp1
 70
     0
102
RTVSPropertyOp2
 70
     0
102
RTVSPropertyOp3
 70
     0
102
RTVSPropertyOp4
 70
     0
102
RTVSPropertyOp5
 70
     0
102
RTVSPropertyOp6
 70
     0
102
RTVSPropertyOp7
 70
     0
102
RTVSPropertyOp8
 70
     0
102
RTVSPropertyOp9
 70
     0
102
RTVSPropertyOp10
 70
     0
102
RTVSPropertyOp11
 70
     0
102
RTVSPropertyOp12
 70
     0
102
RTVSPropertyOp13
 70
     0
102
RTVSPropertyOp14
 70
     2
102
RTVSPropertyOp15
 70
     0
102
RTVSPropertyOp16
 70
     0
102
RTVSPropertyOp17
 70
     0
102
RTVSPropertyOp18
 70
     0
102
RTVSPropertyOp19
 70
     0
102
RTVSPropertyOp20
 70
     0
102
RTVSPropertyOp21
 70
     0
102
RTVSPropertyOp22
 70
     0
102
RTVSPropertyOp23
 70
     0
102
RTVSPropertyOp24
 70
     0
102
RTVSPropertyOp25
 70
     0
102
RTVSPropertyOp26
 70
     0
102
RTVSPropertyOp27
 70
     0
102
RTVSPropertyOp28
 70
     0
102
RTVSPropertyOp29
 70
     0
102
RTVSPropertyOp30
 70
     0
102
RTVSPropertyOp31
 70
     0
102
RTVSPropertyOp32
 70
     0
102
RTVSPropertyOp33
 70
     0
102
RTVSPropertyOp34
 70
     0
102
RTVSPropertyOp35
 70
     0
102
RTVSPropertyOp36
 70
     0
102
RTVSPropertyOp37
 70
     0
102
RTVSPropertyOp38
 70
     0
102
RTVSPropertyOp39
 70
     0
102
RTVSPropertyOp40
 70
     0
102
RTVSPropertyOp41
 70
     0
102
RTVSPropertyOp42
 70
     0
102
RTVSPropertyOp43
 70
     0
102
RTVSPropertyOp44
 70
     0
102
RTVSPropertyOp45
 70
     0
102
RTVSPropertyOp46
 70
     0
102
RTVSPropertyOp47
 70
     0
102
RTVSPropertyOp48
 70
     0
102
RTVSPropertyOp49
 70
     0
102
RTVSPropertyOp50
 70
     0
102
RTVSPropertyOp51
 70
     0
102
RTVSPropertyOp52
 70
     0
102
RTVSPropertyOp53
 70
     0
102
RTVSPropertyOp54
 70
     0
102
RTVSPropertyOp55
 70
     0
102
RTVSPropertyOp56
 70
     0
102
RTVSPropertyOp57
 70
     0
102
RTVSPropertyOp58
 70
     1
102
RTVSPropertyOp59
 70
     1
102
RTVSPropertyOp60
 70
     1
102
RTVSPropertyOp61
 70
     1
102
RTVSPropertyOp62
 70
     1
  0
XRECORD
  5
10004AC
102
{ACAD_REACTORS
330
10004AB
102
}
330
10004AB
100
AcDbXrecord
280
     1
102
RTVSPost2010Prop28
280
     0
102
RTVSPost2010PropOp28
 70
     1
102
RTVSPost2010Prop29
280
     1
102
RTVSPost2010PropOp29
 70
     1
102
RTVSPost2010Prop30
280
     1
102
RTVSPost2010PropOp30
 70
     1
102
RTVSPost2010Prop31
280
     0
102
RTVSPost2010PropOp31
 70
     1
102
RTVSPost2010Prop32
280
     0
102
RTVSPost2010PropOp32
 70
     1
102
RTVSPost2010Prop33
280
     0
102
RTVSPost2010PropOp33
 70
     1
102
RTVSPost2010Prop34
280
     0
102
RTVSPost2010PropOp34
 70
     1
102
RTVSPost2010Prop35
280
     0
102
RTVSPost2010PropOp35
 70
     1
102
RTVSPost2010Prop36
280
     0
102
RTVSPost2010PropOp36
 70
     1
102
RTVSPost2010Prop37
 90
       50
102
RTVSPost2010PropOp37
 70
     1
102
RTVSPost2010Prop38
140
0.0
102
RTVSPost2010PropOp38
 70
     1
102
RTVSPost2010Prop39
140
1.0
102
RTVSPost2010PropOp39
 70
     1
102
RTVSPost2010Prop40
 90
        0
102
RTVSPost2010PropOp40
 70
     1
102
RTVSPost2010Prop41ColorIndex
 90
       18
102
RTVSPost2010Prop41ColorRGB
 90
-16777216
102
RTVSPost2010PropOp41
 70
     1
102
RTVSPost2010Prop42
 90
       50
102
RTVSPost2010PropOp42
 70
     1
102
RTVSPost2010Prop43
 90
        3
102
RTVSPost2010PropOp43
 70
     1
102
RTVSPost2010Prop44ColorIndex
 90
        5
102
RTVSPost2010Prop44ColorRGB
 90
      255
102
RTVSPost2010PropOp44
 70
     1
102
RTVSPost2010Prop45
280
     0
102
RTVSPost2010PropOp45
 70
     1
102
RTVSPost2010Prop46
 90
       50
102
RTVSPost2010PropOp46
 70
     1
102
RTVSPost2010Prop47
 90
       50
102
RTVSPost2010PropOp47
 70
     1
102
RTVSPost2010Prop48
 90
       50
102
RTVSPost2010PropOp48
 70
     1
102
RTVSPost2010Prop49
280
     0
102
RTVSPost2010PropOp49
 70
     1
102
RTVSPost2010Prop50
 90
       50
102
RTVSPost2010PropOp50
 70
     1
102
RTVSPost2010Prop51ColorIndex
 90
      256
102
RTVSPost2010Prop51ColorRGB
 90
-16777216
102
RTVSPost2010PropOp51
 70
     0
102
RTVSPost2010Prop52
140
1.0
102
RTVSPost2010PropOp52
 70
     0
102
RTVSPost2010Prop53
 90
        2
102
RTVSPost2010PropOp53
 70
     1
102
RTVSPost2010Prop54
  1
strokes_ogs.tif
102
RTVSPost2010PropOp54
 70
     1
102
RTVSPost2010Prop55
280
     0
102
RTVSPost2010PropOp55
 70
     1
102
RTVSPost2010Prop56
140
1.0
102
RTVSPost2010PropOp56
 70
     1
102
RTVSPost2010Prop57
140
1.0
102
RTVSPost2010PropOp57
 70
     1
102
RTVSPropertyOp0
 70
     1
102
RTVSPropertyOp1
 70
     1
102
RTVSPropertyOp2
 70
     1
102
RTVSPropertyOp3
 70
     1
102
RTVSPropertyOp4
 70
     1
102
RTVSPropertyOp5
 70
     1
102
RTVSPropertyOp6
 70
     1
102
RTVSPropertyOp7
 70
     1
102
RTVSPropertyOp8
 70
     1
102
RTVSPropertyOp9
 70
     1
102
RTVSPropertyOp10
 70
     1
102
RTVSPropertyOp11
 70
     1
102
RTVSPropertyOp12
 70
     1
102
RTVSPropertyOp13
 70
     1
102
RTVSPropertyOp14
 70
     1
102
RTVSPropertyOp15
 70
     1
102
RTVSPropertyOp16
 70
     1
102
RTVSPropertyOp17
 70
     1
102
RTVSPropertyOp18
 70
     1
102
RTVSPropertyOp19
 70
     1
102
RTVSPropertyOp20
 70
     1
102
RTVSPropertyOp21
 70
     1
102
RTVSPropertyOp22
 70
     1
102
RTVSPropertyOp23
 70
     1
102
RTVSPropertyOp24
 70
     1
102
RTVSPropertyOp25
 70
     1
102
RTVSPropertyOp26
 70
     1
102
RTVSPropertyOp27
 70
     1
102
RTVSPropertyOp28
 70
     1
102
RTVSPropertyOp29
 70
     1
102
RTVSPropertyOp30
 70
     1
102
RTVSPropertyOp31
 70
     1
102
RTVSPropertyOp32
 70
     1
102
RTVSPropertyOp33
 70
     1
102
RTVSPropertyOp34
 70
     1
102
RTVSPropertyOp35
 70
     1
102
RTVSPropertyOp36
 70
     1
102
RTVSPropertyOp37
 70
     1
102
RTVSPropertyOp38
 70
     1
102
RTVSPropertyOp39
 70
     1
102
RTVSPropertyOp40
 70
     1
102
RTVSPropertyOp41
 70
     1
102
RTVSPropertyOp42
 70
     1
102
RTVSPropertyOp43
 70
     1
102
RTVSPropertyOp44
 70
     1
102
RTVSPropertyOp45
 70
     1
102
RTVSPropertyOp46
 70
     1
102
RTVSPropertyOp47
 70
     1
102
RTVSPropertyOp48
 70
     1
102
RTVSPropertyOp49
 70
     1
102
RTVSPropertyOp50
 70
     1
102
RTVSPropertyOp51
 70
     0
102
RTVSPropertyOp52
 70
     0
102
RTVSPropertyOp53
 70
     1
102
RTVSPropertyOp54
 70
     1
102
RTVSPropertyOp55
 70
     1
102
RTVSPropertyOp56
 70
     1
102
RTVSPropertyOp57
 70
     1
102
RTVSPropertyOp58
 70
     1
102
RTVSPropertyOp59
 70
     1
102
RTVSPropertyOp60
 70
     1
102
RTVSPropertyOp61
 70
     1
102
RTVSPropertyOp62
 70
     1
  0
XRECORD
  5
10004CA
102
{ACAD_REACTORS
330
10004C9
102
}
330
10004C9
100
AcDbXrecord
280
     1
102
RTVSPost2010Prop28
280
     0
102
RTVSPost2010PropOp28
 70
     1
102
RTVSPost2010Prop29
280
     1
102
RTVSPost2010PropOp29
 70
     1
102
RTVSPost2010Prop30
280
     1
102
RTVSPost2010PropOp30
 70
     1
102
RTVSPost2010Prop31
280
     0
102
RTVSPost2010PropOp31
 70
     1
102
RTVSPost2010Prop32
280
     0
102
RTVSPost2010PropOp32
 70
     1
102
RTVSPost2010Prop33
280
     0
102
RTVSPost2010PropOp33
 70
     1
102
RTVSPost2010Prop34
280
     0
102
RTVSPost2010PropOp34
 70
     1
102
RTVSPost2010Prop35
280
     0
102
RTVSPost2010PropOp35
 70
     1
102
RTVSPost2010Prop36
280
     0
102
RTVSPost2010PropOp36
 70
     1
102
RTVSPost2010Prop37
 90
       50
102
RTVSPost2010PropOp37
 70
     1
102
RTVSPost2010Prop38
140
0.0
102
RTVSPost2010PropOp38
 70
     1
102
RTVSPost2010Prop39
140
1.0
102
RTVSPost2010PropOp39
 70
     1
102
RTVSPost2010Prop40
 90
        0
102
RTVSPost2010PropOp40
 70
     1
102
RTVSPost2010Prop41ColorIndex
 90
       18
102
RTVSPost2010Prop41ColorRGB
 90
-16777216
102
RTVSPost2010PropOp41
 70
     1
102
RTVSPost2010Prop42
 90
       50
102
RTVSPost2010PropOp42
 70
     1
102
RTVSPost2010Prop43
 90
        3
102
RTVSPost2010PropOp43
 70
     1
102
RTVSPost2010Prop44ColorIndex
 90
        5
102
RTVSPost2010Prop44ColorRGB
 90
      255
102
RTVSPost2010PropOp44
 70
     1
102
RTVSPost2010Prop45
280
     0
102
RTVSPost2010PropOp45
 70
     1
102
RTVSPost2010Prop46
 90
       50
102
RTVSPost2010PropOp46
 70
     1
102
RTVSPost2010Prop47
 90
       50
102
RTVSPost2010PropOp47
 70
     1
102
RTVSPost2010Prop48
 90
       50
102
RTVSPost2010PropOp48
 70
     1
102
RTVSPost2010Prop49
280
     0
102
RTVSPost2010PropOp49
 70
     1
102
RTVSPost2010Prop50
 90
       50
102
RTVSPost2010PropOp50
 70
     1
102
RTVSPost2010Prop51ColorIndex
 90
      256
102
RTVSPost2010Prop51ColorRGB
 90
-16777216
102
RTVSPost2010PropOp51
 70
     0
102
RTVSPost2010Prop52
140
1.0
102
RTVSPost2010PropOp52
 70
     0
102
RTVSPost2010Prop53
 90
        2
102
RTVSPost2010PropOp53
 70
     1
102
RTVSPost2010Prop54
  1
strokes_ogs.tif
102
RTVSPost2010PropOp54
 70
     1
102
RTVSPost2010Prop55
280
     0
102
RTVSPost2010PropOp55
 70
     1
102
RTVSPost2010Prop56
140
1.0
102
RTVSPost2010PropOp56
 70
     1
102
RTVSPost2010Prop57
140
1.0
102
RTVSPost2010PropOp57
 70
     1
102
RTVSPropertyOp0
 70
     1
102
RTVSPropertyOp1
 70
     1
102
RTVSPropertyOp2
 70
     1
102
RTVSPropertyOp3
 70
     1
102
RTVSPropertyOp4
 70
     1
102
RTVSPropertyOp5
 70
     1
102
RTVSPropertyOp6
 70
     1
102
RTVSPropertyOp7
 70
     1
102
RTVSPropertyOp8
 70
     1
102
RTVSPropertyOp9
 70
     1
102
RTVSPropertyOp10
 70
     1
102
RTVSPropertyOp11
 70
     1
102
RTVSPropertyOp12
 70
     1
102
RTVSPropertyOp13
 70
     1
102
RTVSPropertyOp14
 70
     1
102
RTVSPropertyOp15
 70
     1
102
RTVSPropertyOp16
 70
     1
102
RTVSPropertyOp17
 70
     1
102
RTVSPropertyOp18
 70
     1
102
RTVSPropertyOp19
 70
     1
102
RTVSPropertyOp20
 70
     1
102
RTVSPropertyOp21
 70
     1
102
RTVSPropertyOp22
 70
     1
102
RTVSPropertyOp23
 70
     1
102
RTVSPropertyOp24
 70
     1
102
RTVSPropertyOp25
 70
     1
102
RTVSPropertyOp26
 70
     1
102
RTVSPropertyOp27
 70
     1
102
RTVSPropertyOp28
 70
     1
102
RTVSPropertyOp29
 70
     1
102
RTVSPropertyOp30
 70
     1
102
RTVSPropertyOp31
 70
     1
102
RTVSPropertyOp32
 70
     1
102
RTVSPropertyOp33
 70
     1
102
RTVSPropertyOp34
 70
     1
102
RTVSPropertyOp35
 70
     1
102
RTVSPropertyOp36
 70
     1
102
RTVSPropertyOp37
 70
     1
102
RTVSPropertyOp38
 70
     1
102
RTVSPropertyOp39
 70
     1
102
RTVSPropertyOp40
 70
     1
102
RTVSPropertyOp41
 70
     1
102
RTVSPropertyOp42
 70
     1
102
RTVSPropertyOp43
 70
     1
102
RTVSPropertyOp44
 70
     1
102
RTVSPropertyOp45
 70
     1
102
RTVSPropertyOp46
 70
     1
102
RTVSPropertyOp47
 70
     1
102
RTVSPropertyOp48
 70
     1
102
RTVSPropertyOp49
 70
     1
102
RTVSPropertyOp50
 70
     1
102
RTVSPropertyOp51
 70
     0
102
RTVSPropertyOp52
 70
     0
102
RTVSPropertyOp53
 70
     1
102
RTVSPropertyOp54
 70
     1
102
RTVSPropertyOp55
 70
     1
102
RTVSPropertyOp56
 70
     1
102
RTVSPropertyOp57
 70
     1
102
RTVSPropertyOp58
 70
     1
102
RTVSPropertyOp59
 70
     1
102
RTVSPropertyOp60
 70
     1
102
RTVSPropertyOp61
 70
     1
102
RTVSPropertyOp62
 70
     1
  0
XRECORD
  5
10004C8
102
{ACAD_REACTORS
330
10004C7
102
}
330
10004C7
100
AcDbXrecord
280
     1
102
RTVSPost2010Prop28
280
     0
102
RTVSPost2010PropOp28
 70
     1
102
RTVSPost2010Prop29
280
     1
102
RTVSPost2010PropOp29
 70
     1
102
RTVSPost2010Prop30
280
     1
102
RTVSPost2010PropOp30
 70
     1
102
RTVSPost2010Prop31
280
     0
102
RTVSPost2010PropOp31
 70
     1
102
RTVSPost2010Prop32
280
     0
102
RTVSPost2010PropOp32
 70
     1
102
RTVSPost2010Prop33
280
     0
102
RTVSPost2010PropOp33
 70
     1
102
RTVSPost2010Prop34
280
     0
102
RTVSPost2010PropOp34
 70
     1
102
RTVSPost2010Prop35
280
     0
102
RTVSPost2010PropOp35
 70
     1
102
RTVSPost2010Prop36
280
     0
102
RTVSPost2010PropOp36
 70
     1
102
RTVSPost2010Prop37
 90
       50
102
RTVSPost2010PropOp37
 70
     1
102
RTVSPost2010Prop38
140
0.0
102
RTVSPost2010PropOp38
 70
     1
102
RTVSPost2010Prop39
140
1.0
102
RTVSPost2010PropOp39
 70
     1
102
RTVSPost2010Prop40
 90
        0
102
RTVSPost2010PropOp40
 70
     1
102
RTVSPost2010Prop41ColorIndex
 90
       18
102
RTVSPost2010Prop41ColorRGB
 90
-16777216
102
RTVSPost2010PropOp41
 70
     1
102
RTVSPost2010Prop42
 90
       50
102
RTVSPost2010PropOp42
 70
     1
102
RTVSPost2010Prop43
 90
        3
102
RTVSPost2010PropOp43
 70
     1
102
RTVSPost2010Prop44ColorIndex
 90
        5
102
RTVSPost2010Prop44ColorRGB
 90
      255
102
RTVSPost2010PropOp44
 70
     1
102
RTVSPost2010Prop45
280
     0
102
RTVSPost2010PropOp45
 70
     1
102
RTVSPost2010Prop46
 90
       50
102
RTVSPost2010PropOp46
 70
     1
102
RTVSPost2010Prop47
 90
       50
102
RTVSPost2010PropOp47
 70
     1
102
RTVSPost2010Prop48
 90
       50
102
RTVSPost2010PropOp48
 70
     1
102
RTVSPost2010Prop49
280
     0
102
RTVSPost2010PropOp49
 70
     1
102
RTVSPost2010Prop50
 90
       50
102
RTVSPost2010PropOp50
 70
     1
102
RTVSPost2010Prop51ColorIndex
 90
      256
102
RTVSPost2010Prop51ColorRGB
 90
-16777216
102
RTVSPost2010PropOp51
 70
     0
102
RTVSPost2010Prop52
140
1.0
102
RTVSPost2010PropOp52
 70
     0
102
RTVSPost2010Prop53
 90
        2
102
RTVSPost2010PropOp53
 70
     1
102
RTVSPost2010Prop54
  1
strokes_ogs.tif
102
RTVSPost2010PropOp54
 70
     1
102
RTVSPost2010Prop55
280
     0
102
RTVSPost2010PropOp55
 70
     1
102
RTVSPost2010Prop56
140
1.0
102
RTVSPost2010PropOp56
 70
     1
102
RTVSPost2010Prop57
140
1.0
102
RTVSPost2010PropOp57
 70
     1
102
RTVSPropertyOp0
 70
     1
102
RTVSPropertyOp1
 70
     1
102
RTVSPropertyOp2
 70
     1
102
RTVSPropertyOp3
 70
     1
102
RTVSPropertyOp4
 70
     1
102
RTVSPropertyOp5
 70
     1
102
RTVSPropertyOp6
 70
     1
102
RTVSPropertyOp7
 70
     1
102
RTVSPropertyOp8
 70
     1
102
RTVSPropertyOp9
 70
     1
102
RTVSPropertyOp10
 70
     1
102
RTVSPropertyOp11
 70
     1
102
RTVSPropertyOp12
 70
     1
102
RTVSPropertyOp13
 70
     1
102
RTVSPropertyOp14
 70
     1
102
RTVSPropertyOp15
 70
     1
102
RTVSPropertyOp16
 70
     1
102
RTVSPropertyOp17
 70
     1
102
RTVSPropertyOp18
 70
     1
102
RTVSPropertyOp19
 70
     1
102
RTVSPropertyOp20
 70
     1
102
RTVSPropertyOp21
 70
     1
102
RTVSPropertyOp22
 70
     1
102
RTVSPropertyOp23
 70
     1
102
RTVSPropertyOp24
 70
     1
102
RTVSPropertyOp25
 70
     1
102
RTVSPropertyOp26
 70
     1
102
RTVSPropertyOp27
 70
     1
102
RTVSPropertyOp28
 70
     1
102
RTVSPropertyOp29
 70
     1
102
RTVSPropertyOp30
 70
     1
102
RTVSPropertyOp31
 70
     1
102
RTVSPropertyOp32
 70
     1
102
RTVSPropertyOp33
 70
     1
102
RTVSPropertyOp34
 70
     1
102
RTVSPropertyOp35
 70
     1
102
RTVSPropertyOp36
 70
     1
102
RTVSPropertyOp37
 70
     1
102
RTVSPropertyOp38
 70
     1
102
RTVSPropertyOp39
 70
     1
102
RTVSPropertyOp40
 70
     1
102
RTVSPropertyOp41
 70
     1
102
RTVSPropertyOp42
 70
     1
102
RTVSPropertyOp43
 70
     1
102
RTVSPropertyOp44
 70
     1
102
RTVSPropertyOp45
 70
     1
102
RTVSPropertyOp46
 70
     1
102
RTVSPropertyOp47
 70
     1
102
RTVSPropertyOp48
 70
     1
102
RTVSPropertyOp49
 70
     1
102
RTVSPropertyOp50
 70
     1
102
RTVSPropertyOp51
 70
     0
102
RTVSPropertyOp52
 70
     0
102
RTVSPropertyOp53
 70
     1
102
RTVSPropertyOp54
 70
     1
102
RTVSPropertyOp55
 70
     1
102
RTVSPropertyOp56
 70
     1
102
RTVSPropertyOp57
 70
     1
102
RTVSPropertyOp58
 70
     1
102
RTVSPropertyOp59
 70
     1
102
RTVSPropertyOp60
 70
     1
102
RTVSPropertyOp61
 70
     1
102
RTVSPropertyOp62
 70
     1
  0
XRECORD
  5
10004C2
102
{ACAD_REACTORS
330
10004C1
102
}
330
10004C1
100
AcDbXrecord
280
     1
102
RTVSPost2010Prop28
280
     0
102
RTVSPost2010PropOp28
 70
     1
102
RTVSPost2010Prop29
280
     1
102
RTVSPost2010PropOp29
 70
     1
102
RTVSPost2010Prop30
280
     1
102
RTVSPost2010PropOp30
 70
     1
102
RTVSPost2010Prop31
280
     0
102
RTVSPost2010PropOp31
 70
     1
102
RTVSPost2010Prop32
280
     0
102
RTVSPost2010PropOp32
 70
     1
102
RTVSPost2010Prop33
280
     0
102
RTVSPost2010PropOp33
 70
     1
102
RTVSPost2010Prop34
280
     0
102
RTVSPost2010PropOp34
 70
     1
102
RTVSPost2010Prop35
280
     0
102
RTVSPost2010PropOp35
 70
     1
102
RTVSPost2010Prop36
280
     0
102
RTVSPost2010PropOp36
 70
     1
102
RTVSPost2010Prop37
 90
       50
102
RTVSPost2010PropOp37
 70
     1
102
RTVSPost2010Prop38
140
0.0
102
RTVSPost2010PropOp38
 70
     1
102
RTVSPost2010Prop39
140
1.0
102
RTVSPost2010PropOp39
 70
     1
102
RTVSPost2010Prop40
 90
        0
102
RTVSPost2010PropOp40
 70
     1
102
RTVSPost2010Prop41ColorIndex
 90
       18
102
RTVSPost2010Prop41ColorRGB
 90
-16777216
102
RTVSPost2010PropOp41
 70
     1
102
RTVSPost2010Prop42
 90
       50
102
RTVSPost2010PropOp42
 70
     1
102
RTVSPost2010Prop43
 90
        3
102
RTVSPost2010PropOp43
 70
     1
102
RTVSPost2010Prop44ColorIndex
 90
        5
102
RTVSPost2010Prop44ColorRGB
 90
      255
102
RTVSPost2010PropOp44
 70
     1
102
RTVSPost2010Prop45
280
     0
102
RTVSPost2010PropOp45
 70
     1
102
RTVSPost2010Prop46
 90
       50
102
RTVSPost2010PropOp46
 70
     1
102
RTVSPost2010Prop47
 90
       50
102
RTVSPost2010PropOp47
 70
     1
102
RTVSPost2010Prop48
 90
       50
102
RTVSPost2010PropOp48
 70
     1
102
RTVSPost2010Prop49
280
     0
102
RTVSPost2010PropOp49
 70
     1
102
RTVSPost2010Prop50
 90
       50
102
RTVSPost2010PropOp50
 70
     1
102
RTVSPost2010Prop51ColorIndex
 90
      256
102
RTVSPost2010Prop51ColorRGB
 90
-16777216
102
RTVSPost2010PropOp51
 70
     0
102
RTVSPost2010Prop52
140
1.0
102
RTVSPost2010PropOp52
 70
     0
102
RTVSPost2010Prop53
 90
        2
102
RTVSPost2010PropOp53
 70
     1
102
RTVSPost2010Prop54
  1
strokes_ogs.tif
102
RTVSPost2010PropOp54
 70
     1
102
RTVSPost2010Prop55
280
     0
102
RTVSPost2010PropOp55
 70
     1
102
RTVSPost2010Prop56
140
1.0
102
RTVSPost2010PropOp56
 70
     1
102
RTVSPost2010Prop57
140
1.0
102
RTVSPost2010PropOp57
 70
     1
102
RTVSPropertyOp0
 70
     1
102
RTVSPropertyOp1
 70
     1
102
RTVSPropertyOp2
 70
     1
102
RTVSPropertyOp3
 70
     1
102
RTVSPropertyOp4
 70
     1
102
RTVSPropertyOp5
 70
     1
102
RTVSPropertyOp6
 70
     1
102
RTVSPropertyOp7
 70
     1
102
RTVSPropertyOp8
 70
     1
102
RTVSPropertyOp9
 70
     1
102
RTVSPropertyOp10
 70
     1
102
RTVSPropertyOp11
 70
     1
102
RTVSPropertyOp12
 70
     1
102
RTVSPropertyOp13
 70
     1
102
RTVSPropertyOp14
 70
     1
102
RTVSPropertyOp15
 70
     1
102
RTVSPropertyOp16
 70
     1
102
RTVSPropertyOp17
 70
     1
102
RTVSPropertyOp18
 70
     1
102
RTVSPropertyOp19
 70
     1
102
RTVSPropertyOp20
 70
     1
102
RTVSPropertyOp21
 70
     1
102
RTVSPropertyOp22
 70
     1
102
RTVSPropertyOp23
 70
     1
102
RTVSPropertyOp24
 70
     1
102
RTVSPropertyOp25
 70
     1
102
RTVSPropertyOp26
 70
     1
102
RTVSPropertyOp27
 70
     1
102
RTVSPropertyOp28
 70
     1
102
RTVSPropertyOp29
 70
     1
102
RTVSPropertyOp30
 70
     1
102
RTVSPropertyOp31
 70
     1
102
RTVSPropertyOp32
 70
     1
102
RTVSPropertyOp33
 70
     1
102
RTVSPropertyOp34
 70
     1
102
RTVSPropertyOp35
 70
     1
102
RTVSPropertyOp36
 70
     1
102
RTVSPropertyOp37
 70
     1
102
RTVSPropertyOp38
 70
     1
102
RTVSPropertyOp39
 70
     1
102
RTVSPropertyOp40
 70
     1
102
RTVSPropertyOp41
 70
     1
102
RTVSPropertyOp42
 70
     1
102
RTVSPropertyOp43
 70
     1
102
RTVSPropertyOp44
 70
     1
102
RTVSPropertyOp45
 70
     1
102
RTVSPropertyOp46
 70
     1
102
RTVSPropertyOp47
 70
     1
102
RTVSPropertyOp48
 70
     1
102
RTVSPropertyOp49
 70
     1
102
RTVSPropertyOp50
 70
     1
102
RTVSPropertyOp51
 70
     0
102
RTVSPropertyOp52
 70
     0
102
RTVSPropertyOp53
 70
     1
102
RTVSPropertyOp54
 70
     1
102
RTVSPropertyOp55
 70
     1
102
RTVSPropertyOp56
 70
     1
102
RTVSPropertyOp57
 70
     1
102
RTVSPropertyOp58
 70
     1
102
RTVSPropertyOp59
 70
     1
102
RTVSPropertyOp60
 70
     1
102
RTVSPropertyOp61
 70
     1
102
RTVSPropertyOp62
 70
     1
  0
XRECORD
  5
10004C4
102
{ACAD_REACTORS
330
10004C3
102
}
330
10004C3
100
AcDbXrecord
280
     1
102
RTVSPost2010Prop28
280
     0
102
RTVSPost2010PropOp28
 70
     1
102
RTVSPost2010Prop29
280
     1
102
RTVSPost2010PropOp29
 70
     1
102
RTVSPost2010Prop30
280
     1
102
RTVSPost2010PropOp30
 70
     1
102
RTVSPost2010Prop31
280
     0
102
RTVSPost2010PropOp31
 70
     1
102
RTVSPost2010Prop32
280
     0
102
RTVSPost2010PropOp32
 70
     1
102
RTVSPost2010Prop33
280
     0
102
RTVSPost2010PropOp33
 70
     1
102
RTVSPost2010Prop34
280
     0
102
RTVSPost2010PropOp34
 70
     1
102
RTVSPost2010Prop35
280
     0
102
RTVSPost2010PropOp35
 70
     1
102
RTVSPost2010Prop36
280
     0
102
RTVSPost2010PropOp36
 70
     1
102
RTVSPost2010Prop37
 90
       50
102
RTVSPost2010PropOp37
 70
     1
102
RTVSPost2010Prop38
140
0.0
102
RTVSPost2010PropOp38
 70
     1
102
RTVSPost2010Prop39
140
1.0
102
RTVSPost2010PropOp39
 70
     1
102
RTVSPost2010Prop40
 90
        0
102
RTVSPost2010PropOp40
 70
     1
102
RTVSPost2010Prop41ColorIndex
 90
       18
102
RTVSPost2010Prop41ColorRGB
 90
-16777216
102
RTVSPost2010PropOp41
 70
     1
102
RTVSPost2010Prop42
 90
       50
102
RTVSPost2010PropOp42
 70
     1
102
RTVSPost2010Prop43
 90
        3
102
RTVSPost2010PropOp43
 70
     1
102
RTVSPost2010Prop44ColorIndex
 90
        5
102
RTVSPost2010Prop44ColorRGB
 90
      255
102
RTVSPost2010PropOp44
 70
     1
102
RTVSPost2010Prop45
280
     0
102
RTVSPost2010PropOp45
 70
     1
102
RTVSPost2010Prop46
 90
       50
102
RTVSPost2010PropOp46
 70
     1
102
RTVSPost2010Prop47
 90
       50
102
RTVSPost2010PropOp47
 70
     1
102
RTVSPost2010Prop48
 90
       50
102
RTVSPost2010PropOp48
 70
     1
102
RTVSPost2010Prop49
280
     0
102
RTVSPost2010PropOp49
 70
     1
102
RTVSPost2010Prop50
 90
       50
102
RTVSPost2010PropOp50
 70
     1
102
RTVSPost2010Prop51ColorIndex
 90
      256
102
RTVSPost2010Prop51ColorRGB
 90
-16777216
102
RTVSPost2010PropOp51
 70
     0
102
RTVSPost2010Prop52
140
1.0
102
RTVSPost2010PropOp52
 70
     0
102
RTVSPost2010Prop53
 90
        2
102
RTVSPost2010PropOp53
 70
     1
102
RTVSPost2010Prop54
  1
strokes_ogs.tif
102
RTVSPost2010PropOp54
 70
     1
102
RTVSPost2010Prop55
280
     0
102
RTVSPost2010PropOp55
 70
     1
102
RTVSPost2010Prop56
140
1.0
102
RTVSPost2010PropOp56
 70
     1
102
RTVSPost2010Prop57
140
1.0
102
RTVSPost2010PropOp57
 70
     1
102
RTVSPropertyOp0
 70
     1
102
RTVSPropertyOp1
 70
     1
102
RTVSPropertyOp2
 70
     1
102
RTVSPropertyOp3
 70
     1
102
RTVSPropertyOp4
 70
     1
102
RTVSPropertyOp5
 70
     1
102
RTVSPropertyOp6
 70
     1
102
RTVSPropertyOp7
 70
     1
102
RTVSPropertyOp8
 70
     1
102
RTVSPropertyOp9
 70
     1
102
RTVSPropertyOp10
 70
     1
102
RTVSPropertyOp11
 70
     1
102
RTVSPropertyOp12
 70
     1
102
RTVSPropertyOp13
 70
     1
102
RTVSPropertyOp14
 70
     1
102
RTVSPropertyOp15
 70
     1
102
RTVSPropertyOp16
 70
     1
102
RTVSPropertyOp17
 70
     1
102
RTVSPropertyOp18
 70
     1
102
RTVSPropertyOp19
 70
     1
102
RTVSPropertyOp20
 70
     1
102
RTVSPropertyOp21
 70
     1
102
RTVSPropertyOp22
 70
     1
102
RTVSPropertyOp23
 70
     1
102
RTVSPropertyOp24
 70
     1
102
RTVSPropertyOp25
 70
     1
102
RTVSPropertyOp26
 70
     1
102
RTVSPropertyOp27
 70
     1
102
RTVSPropertyOp28
 70
     1
102
RTVSPropertyOp29
 70
     1
102
RTVSPropertyOp30
 70
     1
102
RTVSPropertyOp31
 70
     1
102
RTVSPropertyOp32
 70
     1
102
RTVSPropertyOp33
 70
     1
102
RTVSPropertyOp34
 70
     1
102
RTVSPropertyOp35
 70
     1
102
RTVSPropertyOp36
 70
     1
102
RTVSPropertyOp37
 70
     1
102
RTVSPropertyOp38
 70
     1
102
RTVSPropertyOp39
 70
     1
102
RTVSPropertyOp40
 70
     1
102
RTVSPropertyOp41
 70
     1
102
RTVSPropertyOp42
 70
     1
102
RTVSPropertyOp43
 70
     1
102
RTVSPropertyOp44
 70
     1
102
RTVSPropertyOp45
 70
     1
102
RTVSPropertyOp46
 70
     1
102
RTVSPropertyOp47
 70
     1
102
RTVSPropertyOp48
 70
     1
102
RTVSPropertyOp49
 70
     1
102
RTVSPropertyOp50
 70
     1
102
RTVSPropertyOp51
 70
     0
102
RTVSPropertyOp52
 70
     0
102
RTVSPropertyOp53
 70
     1
102
RTVSPropertyOp54
 70
     1
102
RTVSPropertyOp55
 70
     1
102
RTVSPropertyOp56
 70
     1
102
RTVSPropertyOp57
 70
     1
102
RTVSPropertyOp58
 70
     1
102
RTVSPropertyOp59
 70
     1
102
RTVSPropertyOp60
 70
     1
102
RTVSPropertyOp61
 70
     1
102
RTVSPropertyOp62
 70
     1
  0
XRECORD
  5
10004B4
102
{ACAD_REACTORS
330
10004B3
102
}
330
10004B3
100
AcDbXrecord
280
     1
102
RTVSPost2010Prop28
280
     0
102
RTVSPost2010PropOp28
 70
     1
102
RTVSPost2010Prop29
280
     1
102
RTVSPost2010PropOp29
 70
     1
102
RTVSPost2010Prop30
280
     1
102
RTVSPost2010PropOp30
 70
     1
102
RTVSPost2010Prop31
280
     0
102
RTVSPost2010PropOp31
 70
     1
102
RTVSPost2010Prop32
280
     0
102
RTVSPost2010PropOp32
 70
     1
102
RTVSPost2010Prop33
280
     0
102
RTVSPost2010PropOp33
 70
     1
102
RTVSPost2010Prop34
280
     0
102
RTVSPost2010PropOp34
 70
     1
102
RTVSPost2010Prop35
280
     0
102
RTVSPost2010PropOp35
 70
     1
102
RTVSPost2010Prop36
280
     0
102
RTVSPost2010PropOp36
 70
     1
102
RTVSPost2010Prop37
 90
       50
102
RTVSPost2010PropOp37
 70
     1
102
RTVSPost2010Prop38
140
0.0
102
RTVSPost2010PropOp38
 70
     1
102
RTVSPost2010Prop39
140
1.0
102
RTVSPost2010PropOp39
 70
     1
102
RTVSPost2010Prop40
 90
        0
102
RTVSPost2010PropOp40
 70
     1
102
RTVSPost2010Prop41ColorIndex
 90
       18
102
RTVSPost2010Prop41ColorRGB
 90
-16777216
102
RTVSPost2010PropOp41
 70
     1
102
RTVSPost2010Prop42
 90
       50
102
RTVSPost2010PropOp42
 70
     1
102
RTVSPost2010Prop43
 90
        3
102
RTVSPost2010PropOp43
 70
     1
102
RTVSPost2010Prop44ColorIndex
 90
        5
102
RTVSPost2010Prop44ColorRGB
 90
      255
102
RTVSPost2010PropOp44
 70
     1
102
RTVSPost2010Prop45
280
     0
102
RTVSPost2010PropOp45
 70
     1
102
RTVSPost2010Prop46
 90
       50
102
RTVSPost2010PropOp46
 70
     1
102
RTVSPost2010Prop47
 90
       50
102
RTVSPost2010PropOp47
 70
     1
102
RTVSPost2010Prop48
 90
       50
102
RTVSPost2010PropOp48
 70
     1
102
RTVSPost2010Prop49
280
     0
102
RTVSPost2010PropOp49
 70
     1
102
RTVSPost2010Prop50
 90
       50
102
RTVSPost2010PropOp50
 70
     1
102
RTVSPost2010Prop51ColorIndex
 90
      256
102
RTVSPost2010Prop51ColorRGB
 90
-16777216
102
RTVSPost2010PropOp51
 70
     0
102
RTVSPost2010Prop52
140
1.0
102
RTVSPost2010PropOp52
 70
     0
102
RTVSPost2010Prop53
 90
        2
102
RTVSPost2010PropOp53
 70
     1
102
RTVSPost2010Prop54
  1
strokes_ogs.tif
102
RTVSPost2010PropOp54
 70
     1
102
RTVSPost2010Prop55
280
     0
102
RTVSPost2010PropOp55
 70
     1
102
RTVSPost2010Prop56
140
1.0
102
RTVSPost2010PropOp56
 70
     1
102
RTVSPost2010Prop57
140
1.0
102
RTVSPost2010PropOp57
 70
     1
102
RTVSPropertyOp0
 70
     1
102
RTVSPropertyOp1
 70
     1
102
RTVSPropertyOp2
 70
     1
102
RTVSPropertyOp3
 70
     1
102
RTVSPropertyOp4
 70
     1
102
RTVSPropertyOp5
 70
     1
102
RTVSPropertyOp6
 70
     1
102
RTVSPropertyOp7
 70
     1
102
RTVSPropertyOp8
 70
     1
102
RTVSPropertyOp9
 70
     1
102
RTVSPropertyOp10
 70
     1
102
RTVSPropertyOp11
 70
     1
102
RTVSPropertyOp12
 70
     1
102
RTVSPropertyOp13
 70
     1
102
RTVSPropertyOp14
 70
     1
102
RTVSPropertyOp15
 70
     1
102
RTVSPropertyOp16
 70
     1
102
RTVSPropertyOp17
 70
     1
102
RTVSPropertyOp18
 70
     1
102
RTVSPropertyOp19
 70
     1
102
RTVSPropertyOp20
 70
     1
102
RTVSPropertyOp21
 70
     1
102
RTVSPropertyOp22
 70
     1
102
RTVSPropertyOp23
 70
     1
102
RTVSPropertyOp24
 70
     1
102
RTVSPropertyOp25
 70
     1
102
RTVSPropertyOp26
 70
     1
102
RTVSPropertyOp27
 70
     1
102
RTVSPropertyOp28
 70
     1
102
RTVSPropertyOp29
 70
     1
102
RTVSPropertyOp30
 70
     1
102
RTVSPropertyOp31
 70
     1
102
RTVSPropertyOp32
 70
     1
102
RTVSPropertyOp33
 70
     1
102
RTVSPropertyOp34
 70
     1
102
RTVSPropertyOp35
 70
     1
102
RTVSPropertyOp36
 70
     1
102
RTVSPropertyOp37
 70
     1
102
RTVSPropertyOp38
 70
     1
102
RTVSPropertyOp39
 70
     1
102
RTVSPropertyOp40
 70
     1
102
RTVSPropertyOp41
 70
     1
102
RTVSPropertyOp42
 70
     1
102
RTVSPropertyOp43
 70
     1
102
RTVSPropertyOp44
 70
     1
102
RTVSPropertyOp45
 70
     1
102
RTVSPropertyOp46
 70
     1
102
RTVSPropertyOp47
 70
     1
102
RTVSPropertyOp48
 70
     1
102
RTVSPropertyOp49
 70
     1
102
RTVSPropertyOp50
 70
     1
102
RTVSPropertyOp51
 70
     0
102
RTVSPropertyOp52
 70
     0
102
RTVSPropertyOp53
 70
     1
102
RTVSPropertyOp54
 70
     1
102
RTVSPropertyOp55
 70
     1
102
RTVSPropertyOp56
 70
     1
102
RTVSPropertyOp57
 70
     1
102
RTVSPropertyOp58
 70
     1
102
RTVSPropertyOp59
 70
     1
102
RTVSPropertyOp60
 70
     1
102
RTVSPropertyOp61
 70
     1
102
RTVSPropertyOp62
 70
     1
  0
XRECORD
  5
10004A6
102
{ACAD_REACTORS
330
10004A5
102
}
330
10004A5
100
AcDbXrecord
280
     1
102
RTVSPost2010Prop28
280
     0
102
RTVSPost2010PropOp28
 70
     1
102
RTVSPost2010Prop29
280
     1
102
RTVSPost2010PropOp29
 70
     1
102
RTVSPost2010Prop30
280
     1
102
RTVSPost2010PropOp30
 70
     1
102
RTVSPost2010Prop31
280
     0
102
RTVSPost2010PropOp31
 70
     1
102
RTVSPost2010Prop32
280
     0
102
RTVSPost2010PropOp32
 70
     1
102
RTVSPost2010Prop33
280
     0
102
RTVSPost2010PropOp33
 70
     1
102
RTVSPost2010Prop34
280
     0
102
RTVSPost2010PropOp34
 70
     1
102
RTVSPost2010Prop35
280
     0
102
RTVSPost2010PropOp35
 70
     1
102
RTVSPost2010Prop36
280
     0
102
RTVSPost2010PropOp36
 70
     1
102
RTVSPost2010Prop37
 90
       50
102
RTVSPost2010PropOp37
 70
     1
102
RTVSPost2010Prop38
140
0.0
102
RTVSPost2010PropOp38
 70
     1
102
RTVSPost2010Prop39
140
1.0
102
RTVSPost2010PropOp39
 70
     1
102
RTVSPost2010Prop40
 90
        0
102
RTVSPost2010PropOp40
 70
     1
102
RTVSPost2010Prop41ColorIndex
 90
       18
102
RTVSPost2010Prop41ColorRGB
 90
-16777216
102
RTVSPost2010PropOp41
 70
     1
102
RTVSPost2010Prop42
 90
       50
102
RTVSPost2010PropOp42
 70
     1
102
RTVSPost2010Prop43
 90
        3
102
RTVSPost2010PropOp43
 70
     1
102
RTVSPost2010Prop44ColorIndex
 90
        5
102
RTVSPost2010Prop44ColorRGB
 90
      255
102
RTVSPost2010PropOp44
 70
     1
102
RTVSPost2010Prop45
280
     0
102
RTVSPost2010PropOp45
 70
     1
102
RTVSPost2010Prop46
 90
       50
102
RTVSPost2010PropOp46
 70
     1
102
RTVSPost2010Prop47
 90
       50
102
RTVSPost2010PropOp47
 70
     1
102
RTVSPost2010Prop48
 90
       50
102
RTVSPost2010PropOp48
 70
     1
102
RTVSPost2010Prop49
280
     0
102
RTVSPost2010PropOp49
 70
     1
102
RTVSPost2010Prop50
 90
       50
102
RTVSPost2010PropOp50
 70
     1
102
RTVSPost2010Prop51ColorIndex
 90
      256
102
RTVSPost2010Prop51ColorRGB
 90
-16777216
102
RTVSPost2010PropOp51
 70
     0
102
RTVSPost2010Prop52
140
1.0
102
RTVSPost2010PropOp52
 70
     0
102
RTVSPost2010Prop53
 90
        2
102
RTVSPost2010PropOp53
 70
     1
102
RTVSPost2010Prop54
  1
strokes_ogs.tif
102
RTVSPost2010PropOp54
 70
     1
102
RTVSPost2010Prop55
280
     0
102
RTVSPost2010PropOp55
 70
     1
102
RTVSPost2010Prop56
140
1.0
102
RTVSPost2010PropOp56
 70
     1
102
RTVSPost2010Prop57
140
1.0
102
RTVSPost2010PropOp57
 70
     1
102
RTVSPropertyOp0
 70
     1
102
RTVSPropertyOp1
 70
     1
102
RTVSPropertyOp2
 70
     1
102
RTVSPropertyOp3
 70
     1
102
RTVSPropertyOp4
 70
     1
102
RTVSPropertyOp5
 70
     1
102
RTVSPropertyOp6
 70
     1
102
RTVSPropertyOp7
 70
     1
102
RTVSPropertyOp8
 70
     1
102
RTVSPropertyOp9
 70
     1
102
RTVSPropertyOp10
 70
     1
102
RTVSPropertyOp11
 70
     1
102
RTVSPropertyOp12
 70
     1
102
RTVSPropertyOp13
 70
     1
102
RTVSPropertyOp14
 70
     1
102
RTVSPropertyOp15
 70
     1
102
RTVSPropertyOp16
 70
     1
102
RTVSPropertyOp17
 70
     1
102
RTVSPropertyOp18
 70
     1
102
RTVSPropertyOp19
 70
     1
102
RTVSPropertyOp20
 70
     1
102
RTVSPropertyOp21
 70
     1
102
RTVSPropertyOp22
 70
     1
102
RTVSPropertyOp23
 70
     1
102
RTVSPropertyOp24
 70
     1
102
RTVSPropertyOp25
 70
     1
102
RTVSPropertyOp26
 70
     1
102
RTVSPropertyOp27
 70
     1
102
RTVSPropertyOp28
 70
     1
102
RTVSPropertyOp29
 70
     1
102
RTVSPropertyOp30
 70
     1
102
RTVSPropertyOp31
 70
     1
102
RTVSPropertyOp32
 70
     1
102
RTVSPropertyOp33
 70
     1
102
RTVSPropertyOp34
 70
     1
102
RTVSPropertyOp35
 70
     1
102
RTVSPropertyOp36
 70
     1
102
RTVSPropertyOp37
 70
     1
102
RTVSPropertyOp38
 70
     1
102
RTVSPropertyOp39
 70
     1
102
RTVSPropertyOp40
 70
     1
102
RTVSPropertyOp41
 70
     1
102
RTVSPropertyOp42
 70
     1
102
RTVSPropertyOp43
 70
     1
102
RTVSPropertyOp44
 70
     1
102
RTVSPropertyOp45
 70
     1
102
RTVSPropertyOp46
 70
     1
102
RTVSPropertyOp47
 70
     1
102
RTVSPropertyOp48
 70
     1
102
RTVSPropertyOp49
 70
     1
102
RTVSPropertyOp50
 70
     1
102
RTVSPropertyOp51
 70
     0
102
RTVSPropertyOp52
 70
     0
102
RTVSPropertyOp53
 70
     1
102
RTVSPropertyOp54
 70
     1
102
RTVSPropertyOp55
 70
     1
102
RTVSPropertyOp56
 70
     1
102
RTVSPropertyOp57
 70
     1
102
RTVSPropertyOp58
 70
     1
102
RTVSPropertyOp59
 70
     1
102
RTVSPropertyOp60
 70
     1
102
RTVSPropertyOp61
 70
     1
102
RTVSPropertyOp62
 70
     1
  0
XRECORD
  5
10004C6
102
{ACAD_REACTORS
330
10004C5
102
}
330
10004C5
100
AcDbXrecord
280
     1
102
RTVSPost2010Prop28
280
     0
102
RTVSPost2010PropOp28
 70
     1
102
RTVSPost2010Prop29
280
     1
102
RTVSPost2010PropOp29
 70
     1
102
RTVSPost2010Prop30
280
     1
102
RTVSPost2010PropOp30
 70
     1
102
RTVSPost2010Prop31
280
     0
102
RTVSPost2010PropOp31
 70
     1
102
RTVSPost2010Prop32
280
     0
102
RTVSPost2010PropOp32
 70
     1
102
RTVSPost2010Prop33
280
     0
102
RTVSPost2010PropOp33
 70
     1
102
RTVSPost2010Prop34
280
     0
102
RTVSPost2010PropOp34
 70
     1
102
RTVSPost2010Prop35
280
     0
102
RTVSPost2010PropOp35
 70
     1
102
RTVSPost2010Prop36
280
     0
102
RTVSPost2010PropOp36
 70
     1
102
RTVSPost2010Prop37
 90
       50
102
RTVSPost2010PropOp37
 70
     1
102
RTVSPost2010Prop38
140
0.0
102
RTVSPost2010PropOp38
 70
     1
102
RTVSPost2010Prop39
140
1.0
102
RTVSPost2010PropOp39
 70
     1
102
RTVSPost2010Prop40
 90
        0
102
RTVSPost2010PropOp40
 70
     1
102
RTVSPost2010Prop41ColorIndex
 90
       18
102
RTVSPost2010Prop41ColorRGB
 90
-16777216
102
RTVSPost2010PropOp41
 70
     1
102
RTVSPost2010Prop42
 90
       50
102
RTVSPost2010PropOp42
 70
     1
102
RTVSPost2010Prop43
 90
        3
102
RTVSPost2010PropOp43
 70
     1
102
RTVSPost2010Prop44ColorIndex
 90
        5
102
RTVSPost2010Prop44ColorRGB
 90
      255
102
RTVSPost2010PropOp44
 70
     1
102
RTVSPost2010Prop45
280
     0
102
RTVSPost2010PropOp45
 70
     1
102
RTVSPost2010Prop46
 90
       50
102
RTVSPost2010PropOp46
 70
     1
102
RTVSPost2010Prop47
 90
       50
102
RTVSPost2010PropOp47
 70
     1
102
RTVSPost2010Prop48
 90
       50
102
RTVSPost2010PropOp48
 70
     1
102
RTVSPost2010Prop49
280
     0
102
RTVSPost2010PropOp49
 70
     1
102
RTVSPost2010Prop50
 90
       50
102
RTVSPost2010PropOp50
 70
     1
102
RTVSPost2010Prop51ColorIndex
 90
      256
102
RTVSPost2010Prop51ColorRGB
 90
-16777216
102
RTVSPost2010PropOp51
 70
     0
102
RTVSPost2010Prop52
140
1.0
102
RTVSPost2010PropOp52
 70
     0
102
RTVSPost2010Prop53
 90
        2
102
RTVSPost2010PropOp53
 70
     1
102
RTVSPost2010Prop54
  1
strokes_ogs.tif
102
RTVSPost2010PropOp54
 70
     1
102
RTVSPost2010Prop55
280
     0
102
RTVSPost2010PropOp55
 70
     1
102
RTVSPost2010Prop56
140
1.0
102
RTVSPost2010PropOp56
 70
     1
102
RTVSPost2010Prop57
140
1.0
102
RTVSPost2010PropOp57
 70
     1
102
RTVSPropertyOp0
 70
     1
102
RTVSPropertyOp1
 70
     1
102
RTVSPropertyOp2
 70
     1
102
RTVSPropertyOp3
 70
     1
102
RTVSPropertyOp4
 70
     1
102
RTVSPropertyOp5
 70
     1
102
RTVSPropertyOp6
 70
     1
102
RTVSPropertyOp7
 70
     1
102
RTVSPropertyOp8
 70
     1
102
RTVSPropertyOp9
 70
     1
102
RTVSPropertyOp10
 70
     1
102
RTVSPropertyOp11
 70
     1
102
RTVSPropertyOp12
 70
     1
102
RTVSPropertyOp13
 70
     1
102
RTVSPropertyOp14
 70
     1
102
RTVSPropertyOp15
 70
     1
102
RTVSPropertyOp16
 70
     1
102
RTVSPropertyOp17
 70
     1
102
RTVSPropertyOp18
 70
     1
102
RTVSPropertyOp19
 70
     1
102
RTVSPropertyOp20
 70
     1
102
RTVSPropertyOp21
 70
     1
102
RTVSPropertyOp22
 70
     1
102
RTVSPropertyOp23
 70
     1
102
RTVSPropertyOp24
 70
     1
102
RTVSPropertyOp25
 70
     1
102
RTVSPropertyOp26
 70
     1
102
RTVSPropertyOp27
 70
     1
102
RTVSPropertyOp28
 70
     1
102
RTVSPropertyOp29
 70
     1
102
RTVSPropertyOp30
 70
     1
102
RTVSPropertyOp31
 70
     1
102
RTVSPropertyOp32
 70
     1
102
RTVSPropertyOp33
 70
     1
102
RTVSPropertyOp34
 70
     1
102
RTVSPropertyOp35
 70
     1
102
RTVSPropertyOp36
 70
     1
102
RTVSPropertyOp37
 70
     1
102
RTVSPropertyOp38
 70
     1
102
RTVSPropertyOp39
 70
     1
102
RTVSPropertyOp40
 70
     1
102
RTVSPropertyOp41
 70
     1
102
RTVSPropertyOp42
 70
     1
102
RTVSPropertyOp43
 70
     1
102
RTVSPropertyOp44
 70
     1
102
RTVSPropertyOp45
 70
     1
102
RTVSPropertyOp46
 70
     1
102
RTVSPropertyOp47
 70
     1
102
RTVSPropertyOp48
 70
     1
102
RTVSPropertyOp49
 70
     1
102
RTVSPropertyOp50
 70
     1
102
RTVSPropertyOp51
 70
     0
102
RTVSPropertyOp52
 70
     0
102
RTVSPropertyOp53
 70
     1
102
RTVSPropertyOp54
 70
     1
102
RTVSPropertyOp55
 70
     1
102
RTVSPropertyOp56
 70
     1
102
RTVSPropertyOp57
 70
     1
102
RTVSPropertyOp58
 70
     1
102
RTVSPropertyOp59
 70
     1
102
RTVSPropertyOp60
 70
     1
102
RTVSPropertyOp61
 70
     1
102
RTVSPropertyOp62
 70
     1
  0
ENDSEC
  0
EOF
